#TITLE:Smashtro;
#SUBTITLE:;
#ARTIST:Kitsune? and D-Mode-D;
#TITLETRANSLIT:;
#SUBTITLETRANSLIT:;
#ARTISTTRANSLIT:;
#CRChallenge:;
#BANNER:smashtro-banner.avi;
#BACKGROUND:smashtro-bg.png;
#LYRICSPATH:;
#CDTITLE:!cdtitle.png;
#MUSIC:smashtro.ogg;
#OFFSET:0.000;
#SAMPLESTART:37.940;
#SAMPLELENGTH:12.000;
#SELECTABLE:YES;
#BPMS:0.000=202.000;
#STOPS:60.000=0.446
,61.500=0.149
;
#BGCHANGES:;
#NOTES:
     dance-single:
     Renard:
     Hard:
     10:
     0.928,1.000,0.126,0.095,0.384:
0000
0000
0000
0000
,
0000
0000
0000
0000
,
0000
0000
0000
0000
,
0000
0000
0000
0000
,
0000
0000
0000
0000
,
0000
0000
0000
0000
,
0000
0000
0000
0000
,
1000
0000
1000
0000
0001
0010
0100
1000
0001
0000
0100
0000
0020
0000
0000
0000
,
0130
0001
1000
0100
0001
0100
1000
0010
,
0001
0010
1000
0100
0010
0001
0010
1000
,
0010
0100
0001
0100
1000
0010
0100
1000
,
0100
0001
0010
0100
0001
0100
1000
0010
,
0100
0001
0010
1000
0010
0001
0010
0100
,
0001
0100
1000
0010
0100
1000
0100
0010
,
1000
0100
0010
0001
0010
0100
1000
0002
,
1003
0000
0100
1001
0001
0100
0010
1000
,
0100
0010
0001
0000
0010
0000
0100
0100
,
1000
1000
0010
0000
0100
0001
0100
0010
,
1000
0100
0010
0000
0001
0000
0010
0010
,
0100
0100
1000
0000
0010
0100
0001
0010
,
0001
1000
0010
0000
1000
0000
0100
0100
,
0010
0010
0001
0001
1000
0010
0100
0010
,
1000
0010
0100
0010
1000
0100
0010
0001
,
0010
0100
1000
0000
0001
0100
0010
1000
,
0001
0010
0100
0000
1000
0000
0001
0001
,
0100
0100
0010
0000
1000
0010
0100
0001
,
0010
0000
0001
0000
1000
0000
0010
0010
,
0100
0100
0001
0000
1000
0100
0010
0001
,
0010
0100
1000
0000
0001
0000
0100
0100
,
0010
0010
1000
0100
0010
0010
0001
0001
,
0010
0010
0100
0100
1000
0010
0100
0001
,
0010
0000
0100
0000
1000
0000
0000
0000
0100
0000
1000
0100
0010
0000
0001
0010
,
0100
1000
0001
0001
0100
0010
1000
0001
,
0010
0000
0100
0000
0010
0000
1000
0000
0010
0000
0001
1000
0001
0000
0100
0010
,
0100
0000
0010
0000
1000
0001
1000
0000
0001
0000
0100
0000
0010
0000
1000
0000
,
0100
0000
0100
0000
0010
0000
0010
0000
0001
0000
1000
0100
0010
0000
0001
0010
,
0100
1000
0010
0010
0100
0001
0010
0100
,
0010
0000
1000
0000
0010
0000
0001
0000
0100
0000
0001
0100
0010
0000
1000
0010
,
0100
0000
0001
0000
1000
0100
1000
0000
0001
0000
0100
0000
0010
0000
1000
0000
,
0001
0100
0001
0100
0001
0100
0001
0100
0001
0000
1000
0100
0010
0000
0001
0010
,
0100
1000
0001
0001
0100
0010
1000
0001
,
0010
0000
0100
0000
0010
0000
1000
0000
0010
0000
0001
1000
0001
0000
0100
0010
,
0100
0000
0010
0000
1000
0001
1000
0000
0001
0000
0100
0000
0010
0000
1000
0000
,
0100
0000
0100
0000
0010
0000
0010
0000
0001
0000
1000
0100
0010
0000
0001
0010
,
0100
1000
0010
0010
0100
0001
0010
0100
,
0010
0000
1000
0000
0010
0000
0001
0000
0100
0000
0001
0100
0010
0000
1000
0010
,
0100
0000
0001
0000
1000
0100
1000
0000
1001
0000
0000
0000
1011
0000
0000
0000
,
1011
1011
1002
0100
,
0103
0001
0010
0100
1000
0100
0010
0001
,
0010
0000
0100
0000
1000
0001
1000
0001
2000
0000
0000
0000
0001
0000
0000
0000
,
3010
0000
0100
0000
0001
0000
0010
0000
0100
0000
1000
0000
0001
0010
0100
1000
,
0001
0010
1001
0000
2010
0000
0100
0000
,
3001
0010
0100
1000
0001
0010
0100
1000
,
0001
1000
0001
1000
0010
1000
0010
0000
1010
0000
0000
0000
0000
0000
0101
0000
,
0000
0000
1011
0000
1000
1000
0001
0001
,
1000
0010
0100
0000
0001
0100
0010
0000
2001
0000
0000
0000
0010
0000
0000
0000
,
3100
0000
0000
1000
0000
0000
0100
0000
0000
0010
0000
0000
0001
0000
0000
0000
0001
0000
1000
0000
0000
0000
1000
0000
,
0010
0000
0010
0100
0000
0100
0002
0000
0000
0100
0000
0000
,
1003
0000
0000
0010
0000
0000
0100
0000
0000
0001
0000
0000
0100
0000
0000
0000
0100
0000
0001
0000
0000
0000
0001
0000
,
0010
0000
0010
0100
0000
0100
2000
0000
0000
0001
0000
0000
,
3010
0000
0000
0100
0000
0000
0001
0000
0000
0010
0000
0000
0100
0000
0000
0000
0100
0000
1000
0000
0000
0000
1000
0000
,
0001
0000
0001
0100
0000
0100
0020
0000
0000
1000
0000
0000
,
0130
0001
0010
0100
0000
1000
0100
0000
,
0010
0000
0001
0000
0000
0000
0000
0000
0010
0000
0001
0010
0100
0000
1000
0100
,
0010
0001
1000
1000
0010
0100
0001
1000
,
0010
0000
0100
0000
0010
0000
1000
0000
0100
0000
1000
0001
1000
0000
0010
0100
,
0010
0000
0100
0000
0001
1000
0001
0000
1000
0000
0010
0000
0100
0000
0001
0000
,
0010
0000
0010
0000
0100
0000
0100
0000
1000
0000
0001
0010
0100
0000
1000
0100
,
0010
0001
0100
0100
0010
1000
0100
0010
,
0100
0000
0001
0000
0100
0000
1000
0000
0010
0000
1000
0010
0100
0000
0001
0100
,
0010
0000
1000
0000
0001
0010
0001
0000
1000
0000
0010
0000
0100
0000
0001
0000
,
1000
0010
1000
0010
1000
0010
1000
0010
1000
0000
0001
0010
0100
0000
1000
0100
,
0010
0001
1000
1000
0010
0100
0001
1000
,
0100
0000
0010
0000
0100
0000
0001
0000
0100
0000
1000
0001
1000
0000
0010
0100
,
0010
0000
0100
0000
0001
1000
0001
0000
1000
0000
0010
0000
0100
0000
0001
0000
,
0010
0000
0010
0000
0100
0000
0100
0000
1000
0000
0001
0010
0100
0000
1000
0100
,
0010
0001
0100
0100
0010
1000
0100
0010
,
0100
0000
0001
0000
0100
0000
1000
0000
0010
0000
1000
0010
0100
0000
0001
0100
,
0010
0000
1000
0000
0001
0010
0001
0000
1000
0000
1000
0000
1000
0000
0001
0000
,
0001
0000
0001
0000
1000
0010
1000
0010
0000
0000
0000
0000
0000
0000
0000
0000
;
#NOTES:
     dance-single:
     Renard:
     Medium:
     9:
     0.749,0.668,0.063,0.021,0.000:
0000
0000
0000
0000
,
0000
0000
0000
0000
,
0000
0000
0000
0000
,
0000
0000
0000
0000
,
0000
0000
0000
0000
,
0000
0000
0000
0000
,
0000
0000
0000
0000
,
1000
0001
1000
0100
0010
0001
0200
0000
,
0301
0100
0001
0000
1000
0100
1000
0000
,
0001
0010
0001
0000
1000
0010
0100
0001
,
1000
0100
1000
0000
0001
0010
0001
0000
,
1000
0010
1000
0000
0001
0100
0010
1000
,
0100
1000
0100
0000
0010
0001
0010
0000
,
0001
0100
0001
0000
1000
0010
1000
0100
,
0010
0001
1000
0000
0001
0100
0010
2000
,
3001
0000
1000
0001
1000
0100
1000
0100
,
1000
0010
1000
0010
1000
0001
1000
0010
,
1000
0100
1000
0000
0001
1000
0001
1000
,
0001
0100
0001
0100
0001
0010
0001
1000
,
0001
0100
0001
0000
1000
0100
1000
0100
,
1000
0010
1000
0010
1000
0001
1000
0100
,
1000
0010
1000
0000
0001
0100
0001
0000
,
1000
0100
1000
0000
0001
0010
0001
0000
,
1000
0010
1000
0000
0001
1000
0001
1000
,
0001
0100
0001
0100
0001
0010
0001
1000
,
0001
0100
0001
0000
1000
0100
1000
0100
,
1000
0001
1000
0001
1000
0010
1000
0100
,
1000
0001
1000
0000
0001
1000
0001
1000
,
0001
0100
0001
0100
0001
1000
0001
0100
,
0001
0010
0001
0000
1000
0010
1000
0000
,
0001
0100
0001
0000
1000
0100
0010
0001
,
1000
0010
0100
0000
0010
1000
0010
0000
,
0100
0001
0100
0000
0001
1000
0001
1000
,
0100
0010
0001
0010
0100
1000
0100
0000
,
1000
0001
1000
0000
0001
0100
0010
0000
,
1000
0010
0100
0000
0010
1000
0010
1000
,
0001
0100
0001
0100
0001
0010
0100
1000
,
0100
0010
0001
1000
0010
0000
1000
0001
,
1000
0000
0001
0100
0001
0100
0010
1000
,
0100
0010
0001
1000
0100
1000
0100
0000
,
1000
0001
1000
0000
0001
0100
0010
1000
,
0100
0010
0001
1000
0001
1000
0001
0000
,
0100
0001
0100
0000
0001
1000
0100
0010
,
0001
0010
0100
1000
0001
1000
0001
0000
,
0100
0001
0100
0000
0001
1000
0001
1000
,
0100
0010
0001
0010
0100
1000
0010
0100
,
0001
0010
0100
1000
0001
0000
0100
0000
,
0010
0000
1000
0000
0001
0100
0001
0100
,
0001
0100
0001
0100
0010
0000
0010
1000
,
0100
0010
0001
0000
1000
0100
1000
0100
,
1000
0100
1000
0100
0010
0000
0001
0010
,
0100
1000
0001
0000
0100
0010
0100
0010
,
0100
0010
0100
0010
1000
0000
0100
0010
,
0001
0010
0100
0000
1000
0001
1000
0000
,
0010
0100
0010
0000
1000
0001
1000
0000
,
0010
0100
0010
0000
1000
0100
1000
0100
,
0010
0100
0010
0100
0010
0000
0011
0000
,
1000
0000
1100
0000
1000
0001
1000
0001
,
1000
0010
1000
0000
0010
0000
1010
0000
,
0100
0000
0101
0000
0001
1000
0001
1000
,
0010
1000
0010
0110
,
0100
0000
0101
0000
0001
1000
0001
0000
,
1000
0100
1000
0000
0001
1000
0100
0010
,
0001
0010
0100
0000
1000
0001
1000
0000
,
0001
0100
0001
0000
1000
0100
0010
0001
,
0010
0100
1000
0000
0001
0100
0001
0000
,
1000
0010
1000
0000
0001
0010
0100
1000
,
0010
1000
0010
0000
1000
0010
1000
0000
,
0001
0100
0001
0000
0010
0100
1000
0001
,
0100
0010
0100
0000
0001
0100
0001
0000
,
0010
0001
0010
0000
0100
1000
0001
0100
,
0010
1000
0100
0010
0001
1000
0001
0000
,
0100
0010
0100
0000
0010
1000
0001
0100
,
0010
1000
0100
0010
0001
0010
0001
0000
,
1000
0100
1000
0000
0001
0100
0010
1000
,
0100
1000
0001
0100
0010
1000
0010
0000
,
0100
0001
0100
0000
0001
0010
0100
1000
,
0100
0010
0001
0100
0010
1000
0010
0000
,
1000
0001
1000
0000
0001
0100
0010
1000
,
0100
0010
0001
0010
0000
0000
0000
0000
;
#NOTES:
     dance-single:
     Renard:
     Easy:
     6:
     0.450,0.585,0.000,0.000,0.000:
0000
0000
0000
0000
,
0000
0000
0000
0000
,
0000
0000
0000
0000
,
0000
0000
0000
0000
,
0000
0000
0000
0000
,
0000
0000
0000
0000
,
0000
0000
0000
0000
,
0000
0000
0000
0000
,
1000
0000
0001
0000
1000
0000
0001
1000
,
0001
1000
0001
1000
,
0010
0000
0100
0000
0010
0000
0100
0010
,
0100
0010
0100
0010
,
1000
0000
0010
0000
1000
0000
0010
1000
,
0010
1000
0010
1000
,
0001
0100
0001
0100
,
0001
0000
0000
1000
0000
0000
0001
0000
,
1000
0100
0010
0010
,
0010
0010
0000
0001
,
1000
0100
0010
0010
,
0010
0010
0000
0001
,
1000
0100
0010
0010
,
0010
0000
0000
0000
0001
1000
0001
1000
,
0001
1000
0001
1000
0001
1000
0001
1000
,
0001
1000
0001
0000
1000
0000
0001
0000
,
0100
0010
1000
1000
,
1000
0000
1000
0001
,
0100
0010
1000
1000
,
1000
0000
0000
0001
,
0100
0010
1000
1000
,
1000
0000
0000
0000
0001
1000
0001
1000
,
0001
1000
0001
1000
0001
1000
0001
1000
,
0001
1000
0001
0000
1000
0000
0001
0000
,
1000
0001
0100
0010
,
0010
0000
1000
0001
,
1000
0001
0100
0010
,
0010
0000
1000
0001
,
1000
0001
0100
0010
,
0010
0000
1000
0001
,
1000
0001
0100
0010
,
0010
0000
1000
0001
,
1000
0001
0010
0100
,
0100
0000
1000
0001
,
1000
0001
0010
0100
,
0100
0000
1000
0001
,
1000
0001
0010
0100
,
0100
0000
1000
0001
,
1000
0001
0100
0100
,
0100
0100
0001
0000
,
0000
0000
0000
0000
1000
0000
0100
1000
,
0100
1000
0100
0000
1000
0000
0000
0000
,
0000
0000
0000
0000
0001
0000
0100
0001
,
0100
0001
0100
0000
0001
0000
0000
0000
,
0000
0000
0000
0000
1000
0000
0100
1000
,
0100
0000
0000
0000
1000
0001
1000
0001
,
1000
0001
1000
0001
1000
0001
1000
0001
,
1000
0001
1000
0000
0001
0000
0100
0000
,
0010
1000
0001
1000
,
0001
1000
0001
0100
,
0010
1000
0001
1000
,
0001
1000
0001
0100
,
0010
1000
0001
1000
,
0001
0000
1000
0000
0001
1000
0001
1000
,
0001
1000
0001
1000
0001
1000
0001
1000
,
0001
1000
0001
0000
0100
0000
0001
0000
,
1000
0000
0100
0010
0000
0000
0001
0000
,
0010
0000
0100
1000
,
0001
0000
0100
0010
0000
0000
1000
0000
,
0010
0100
0001
1000
,
0100
0000
0010
0001
0000
0000
0010
0000
,
0100
1000
0001
0100
,
0010
0000
1000
0010
0000
0000
0100
0000
,
0001
1000
0100
0010
,
0001
0000
1000
0100
0000
0000
1000
0000
,
0100
0010
0001
1000
,
0010
0000
0100
0001
0000
0000
0100
0000
,
0010
1000
0001
0010
,
0100
0000
1000
0001
0000
0000
1000
0000
,
0010
0100
0001
1000
,
0100
0000
0010
0001
1000
0000
1000
0000
,
0001
1000
0001
1000
0000
0000
0000
0000
;
#NOTES:
     dance-single:
     Renard:
     Beginner:
     4:
     0.353,0.375,0.011,0.000,0.000:
0000
0000
0000
0000
,
0000
0000
0000
0000
,
0000
0000
0000
0000
,
0000
0000
0000
0000
,
0000
0000
0000
0000
,
0000
0000
0000
0000
,
0000
0000
0000
0000
,
0000
0000
0000
0000
,
1000
0001
1000
0001
,
0100
0010
0100
0010
,
1000
0001
1000
0001
,
0100
0010
0100
0010
,
1000
0010
0100
0001
,
1000
0100
0010
0001
,
1000
1000
0001
0001
,
1001
0000
1000
0000
,
0001
0000
0100
0100
,
0010
0010
1000
0000
,
0001
0000
0100
0100
,
0010
0010
1000
0000
,
0001
0000
0100
0100
,
0010
0010
1000
1000
,
0010
0010
0100
0100
,
0001
0001
1000
0000
,
0001
0000
0100
0100
,
0010
0010
1000
0000
,
0001
0000
0100
0100
,
0010
0010
1000
0000
,
0001
0000
0100
0100
,
0010
0010
1000
1000
,
0010
0010
0100
0100
,
0001
0001
1000
1000
,
0100
0100
0010
0000
,
0001
0000
0010
0010
,
0001
0001
1000
0000
,
0100
0000
1000
1000
,
0010
0010
0100
0000
,
0001
0000
0100
0100
,
0010
0010
1000
0010
,
0100
0001
1000
1000
,
0001
0001
1000
0100
,
0010
0001
1000
1000
,
0001
0001
1000
0100
,
0010
0001
1000
1000
,
0001
0001
1000
0100
,
0010
0001
1000
1000
,
0001
0001
1000
0100
,
0010
0001
1000
0000
,
1000
0000
0001
0000
,
0001
0000
1000
0000
,
1000
0000
0001
0000
,
0001
0000
1000
0000
,
1000
0000
0001
0000
,
0001
0000
0100
0100
,
0010
0010
0100
0100
,
0010
0010
1000
0000
,
0001
0000
0100
0010
,
0100
0010
1000
0000
,
0001
0000
0100
0010
,
0100
0010
1000
0000
,
0001
0000
0100
0010
,
0100
0010
1000
1000
,
0001
0001
1000
0001
,
1000
0001
1000
1000
,
0100
0100
0010
0000
,
0001
0000
0100
0100
,
0010
0010
0001
0000
,
1000
0000
0010
0010
,
0001
0001
1000
0000
,
0100
0000
0001
0001
,
1000
1000
0100
0000
,
0010
0000
1000
1000
,
0100
0100
0010
0000
,
0001
0000
0100
0100
,
0010
0010
0001
0000
,
1000
0000
0010
0010
,
0001
0001
1000
0000
,
0100
0000
0001
0001
,
1000
0000
0001
1000
,
0010
0100
0000
0000
;
