#TITLE:Silver Chariot;
#SUBTITLE:;
#ARTIST:Sonitus Vir feat. Jaql;
#TITLETRANSLIT:;
#SUBTITLETRANSLIT:;
#ARTISTTRANSLIT:;
#CRChallenge:;
#BANNER:chariot-banner.avi;
#BACKGROUND:chariot-bg.jpg;
#LYRICSPATH:;
#CDTITLE:;
#MUSIC:chariot.ogg;
#OFFSET:0.000;
#SAMPLESTART:21.276;
#SAMPLELENGTH:12.000;
#SELECTABLE:YES;
#BPMS:0.000=180.150;
#STOPS:;
#BGCHANGES:;
#NOTES:
     dance-single:
     Renard:
     Medium:
     9:
     0.614,0.598,0.116,0.000,0.202:
0000
0000
0000
0000
,
0000
0000
0000
0000
,
0000
0000
0000
0000
,
0000
0000
0000
0000
,
0000
0000
0000
0000
,
0000
0000
0000
0000
,
0000
0000
0000
0000
,
0000
0000
0000
0000
,
0100
0000
1000
0000
0100
0000
0010
0000
0000
0000
0100
1000
0100
0000
1000
0000
,
0000
0100
0010
0100
1000
0100
0010
0100
,
1000
0000
0100
0000
0010
0000
0100
0000
0000
0000
1000
0100
1000
0000
0100
0000
,
0000
0010
0100
1000
0100
0010
0100
0010
,
0001
0000
0010
0000
0100
0000
0010
0000
0000
0000
0001
0010
0001
0000
0010
0000
,
0000
0100
0010
0001
0010
0100
0010
0001
,
0010
0000
0100
0000
0010
0000
0001
0000
0000
0000
0010
0001
0010
0000
0001
0000
,
0000
0010
0100
0010
0001
0000
1001
0000
,
0001
0000
0100
0000
0010
0000
1000
0000
0010
0000
1000
0010
1000
0000
0010
0000
,
0000
0000
0100
0000
0000
0000
0001
0000
0000
0000
0010
0001
0010
0000
0001
0000
,
0010
0000
0000
0000
0100
0000
0000
0000
1000
0000
0001
0100
0001
0000
0100
0000
,
0000
0000
0010
0000
0000
0000
1000
0000
0000
0000
0100
0010
0100
0000
0010
0000
,
0001
0000
1000
0000
0010
0000
0000
0000
0100
0000
0010
0100
0010
0000
0100
0000
,
0000
0000
0001
0000
0000
0000
0010
0000
0000
0000
0100
1000
0100
0000
1000
0000
,
0001
0000
0000
0000
0100
0000
0000
0000
0010
0000
1000
0010
1000
0000
0001
0000
,
0000
0000
0010
0000
0000
0000
0001
0000
0000
0000
1000
0001
1000
0000
0000
0000
,
0001
0000
0000
0000
0110
0000
0000
0000
0010
0000
1000
0100
1000
0000
0001
0000
,
0010
0000
0000
0000
0011
0000
0000
0000
0010
0000
0100
1000
0100
0000
1000
0000
,
0001
0000
0000
0000
0110
0000
0000
0000
0010
0000
1000
0001
1000
0000
0001
0000
,
1000
0000
0000
0000
1100
0000
0000
0000
1000
0000
0001
0010
0001
0000
0010
0000
,
0100
0000
0000
0000
1100
0000
0000
0000
1000
0000
0001
0100
0001
0000
0100
0000
,
0010
0000
0000
0000
1010
0000
0000
0000
1000
0000
0001
0010
0001
0000
0010
0000
,
0100
0000
0000
0000
1100
0000
0000
0000
1000
0000
0001
0010
0001
0000
1000
0000
,
0010
0000
0110
0000
0100
0010
1001
0000
,
0001
0000
1000
0000
0000
0000
0001
0000
1000
0000
0000
0000
0010
0100
0010
0000
,
0000
1000
0000
0010
0000
0100
0001
0010
,
0100
0000
0000
0000
1000
0000
0000
0000
0100
0000
1000
0100
1000
0000
0001
0000
,
0000
0000
0010
0000
0000
0000
0001
0000
0000
0000
1000
0000
0010
1000
0010
0000
,
0100
0000
0000
0000
0000
0000
0100
0000
0000
0001
0000
0000
0000
0000
0000
1000
0000
0000
0000
0000
0100
1000
0000
0000
,
0000
0001
0010
0000
0001
1000
0010
0100
,
0001
0000
1000
0000
0000
0000
0001
0000
1000
0000
0000
0000
0010
0100
0010
0000
,
0000
1000
0000
0010
0000
0100
0001
0010
,
0100
0000
0000
0000
1000
0000
0000
0000
0100
0000
1000
0100
1000
0000
0001
0000
,
0000
0000
0010
0000
0000
0000
0001
0000
0000
0000
1000
0000
0010
1000
0010
0000
,
0100
0000
0000
0000
0000
0000
0100
0000
0000
0001
0000
0000
0000
0000
0000
1000
0000
0000
0000
0000
0100
1000
0000
0000
,
0000
0001
0010
0000
0001
1000
0010
0100
,
0001
0000
0010
0001
0000
1000
1000
0000
,
0001
0000
0100
0000
0010
0000
1000
0000
0000
0000
0001
0100
0010
0000
1000
0000
,
0000
0001
0100
0010
1000
0001
0100
0010
,
1000
0000
0001
0000
0100
0000
0010
0000
0000
0000
1000
0001
0100
0000
0010
0000
,
0000
1000
0001
0100
0010
1000
0001
1000
,
0100
0000
0010
0000
0001
0000
1000
0000
0000
0000
0100
0010
0001
0000
1000
0000
,
0000
0100
0010
0001
1000
0100
0010
0001
,
1000
0000
0100
0000
0010
0000
0001
0000
0000
0000
1000
0100
0010
0000
0001
0000
,
0000
1000
0100
0010
0001
1000
0100
0010
,
0001
0000
0100
0000
0001
0000
0010
0000
0000
0000
0001
0100
0001
0000
0010
0000
,
0000
0001
0100
0001
0010
0001
0000
0001
,
1000
0000
0100
0000
1000
0000
0010
0000
0000
0000
1000
0100
1000
0000
0010
0000
,
0000
1000
0100
1000
0010
1000
0000
1000
,
0001
0000
0100
0000
0001
0000
0010
0000
0000
0000
0001
0100
0001
0000
0010
0000
,
0000
0001
0100
0001
0010
0001
0000
0001
,
1000
0000
0100
0000
1000
0000
0010
0000
0000
0000
1000
0100
1000
0000
0100
0000
,
0000
1000
0100
1000
0010
1000
0010
0100
;
#NOTES:
     dance-single:
     Renard:
     Easy:
     6:
     0.363,0.456,0.000,0.023,0.000:
0000
0000
0000
0000
,
0000
0000
0000
0000
,
0000
0000
0000
0000
,
0000
0000
0000
0000
,
1000
0000
0100
0000
0000
1000
0000
0000
,
0000
0100
0000
0000
1000
0000
0100
0000
,
1000
0000
0001
0000
0000
0010
0000
0000
,
0000
0001
0000
0000
0010
0000
0001
0000
,
1000
0000
0010
0000
0000
1000
0000
0000
,
0000
0010
0000
0000
1000
0000
0010
0000
,
0100
0000
0001
0000
0000
0100
0000
0000
,
0000
0001
0000
0000
0100
0000
0001
0000
,
0010
0000
0001
0000
0000
1000
0000
0000
,
0000
0100
0000
0000
1000
0000
0100
0000
,
1000
0000
0001
0000
0000
0100
0000
0000
,
0000
0001
0000
0000
1000
0000
0100
0000
,
1000
0000
0001
0000
0100
0000
0000
0001
,
0000
1000
0000
0100
0000
0000
1000
0000
,
0001
0000
0010
0000
0001
0000
0000
1000
,
0000
0010
0000
1000
0000
0001
1000
0000
,
0100
0000
1000
0000
0001
0000
0000
0010
,
0000
0001
0000
1000
0000
0000
0010
0000
,
1000
0000
0001
0000
0100
0000
0000
0001
,
0000
1000
0000
0100
0000
1000
0001
0000
,
1000
0000
1000
0000
0010
0000
1000
0010
,
0000
0100
0000
0100
0000
0000
0001
0000
,
1000
0000
1000
0000
0100
0000
0010
0001
,
0000
1000
0000
0001
0000
0000
0010
0000
,
0001
0000
0001
0000
0100
0000
0001
1000
,
0000
0100
0000
1000
0000
0000
0001
0000
,
0010
0000
0010
0000
0001
0000
1000
0010
,
0000
1000
0000
0001
0000
0100
0001
0000
,
1000
1000
0100
0100
,
0010
0010
0001
0001
,
1000
0100
1000
0000
1000
0100
1000
0000
,
1000
0100
1000
0000
1000
0100
1000
0000
,
0100
0100
0010
0010
,
0001
1000
0001
0100
,
0001
0000
0001
0000
0001
0100
0001
0000
,
0001
0100
0001
0000
0001
0100
0001
0000
,
0100
0000
0100
0010
0100
0000
0100
0000
,
0010
0000
0010
1000
0010
0000
1000
0000
,
0002
0000
2003
0000
,
3100
1000
0001
0010
,
0001
0000
1000
0000
0000
0001
1000
0000
,
0001
0000
1000
0000
0000
0001
1000
0000
,
0010
1000
0010
1000
,
0001
0000
1000
0000
0000
0001
1000
0000
,
0100
1000
0100
1000
,
0001
0000
0010
0000
0000
0001
0010
0000
,
0001
0100
0001
1000
,
0001
0000
0100
0000
0000
0001
0100
0000
,
0001
1000
0001
0010
,
0001
1000
0000
0100
,
1000
0001
0000
0100
,
0001
1000
0000
0010
,
1000
0001
0000
0010
,
0001
0000
1000
0000
0000
0001
0100
0000
,
0001
0000
1000
0000
0000
0100
1000
0000
,
0001
0000
0010
0000
0000
0001
1000
0000
,
0010
1000
0001
0100
;
#NOTES:
     dance-single:
     Renard:
     Beginner:
     3:
     0.282,0.316,0.000,0.069,0.000:
0000
0000
0000
0000
,
0000
0000
0000
0000
,
0000
0000
0000
0000
,
0000
0000
0000
0000
,
1000
0001
0000
0001
,
0000
0001
0000
0001
,
1000
0001
0000
0001
,
0000
0001
0000
0001
,
0100
0000
0010
0000
,
0010
1000
0010
0000
,
0100
0000
0001
0000
,
0001
1000
0001
0000
,
1000
0000
0100
0000
,
0100
0010
0100
0000
,
0010
0000
0001
0000
,
0001
1000
0001
0100
,
0001
1000
0000
1000
,
0100
1000
0000
1000
,
0001
0010
0000
0010
,
0001
1000
0001
1000
,
0010
1000
0000
1000
,
0001
0100
0000
0100
,
0001
1000
0000
1000
,
0100
1000
0100
1000
,
0001
1000
0000
1000
,
0001
0010
0000
0010
,
0001
1000
0000
1000
,
0100
1000
0000
1000
,
0001
1000
0000
1000
,
0001
0010
0000
0010
,
0100
1000
0000
1000
,
0001
1000
0000
1000
,
0010
0000
0010
0010
,
1000
0000
1000
0000
,
0001
0000
0001
0000
,
0100
0000
0100
0000
,
0001
1000
0000
1000
,
0001
0010
0001
1000
,
0001
0000
0001
0001
,
0010
0000
0010
0000
,
0100
0000
0100
0000
,
1000
0000
1000
0000
,
0010
1000
0000
1000
,
0010
1000
0001
0100
,
0001
0000
0001
0000
,
1000
0001
1000
0001
,
0000
0001
0000
0001
,
1000
0001
1000
0001
,
0000
0001
0000
0001
,
0100
0010
0100
0010
,
0000
0010
0000
0010
,
0100
0010
0100
0010
,
0000
0010
1000
0010
,
2000
3001
0000
0001
,
2000
3001
0000
0001
,
2000
3001
0000
0001
,
1000
0001
0000
0001
,
0200
0310
0000
0010
,
0200
0310
0000
0010
,
0200
0310
0000
0010
,
1000
0001
0100
0010
;
