#TITLE:Shining Stars;
#SUBTITLE:;
#ARTIST:Ryu* & MC Natsack;
#TITLETRANSLIT:;
#SUBTITLETRANSLIT:;
#ARTISTTRANSLIT:;
#GENRE:;
#CRChallenge:;
#MENUCOLOR:;
#BANNER:stars.png;
#BACKGROUND:stars-bg.png;
#LYRICSPATH:;
#CDTITLE:!cdtitle.png;
#MUSIC:stars.ogg;
#OFFSET:0.000;
#SAMPLESTART:45.213;
#SAMPLELENGTH:12.000;
#SELECTABLE:YES;
#LISTSORT:;
#BPMS:0.000=180.000;
#STOPS:128.000=1.000
;
#TICKCOUNT:0.000=2;
#BGCHANGES:;
#KEYSOUNDS:;
#ATTACKS:;
#NOTES:
     dance-single:
     Renard:
     Medium:
     9:
     0.684,0.602,0.254,0.042,0.021:
0000
0000
0000
0000
,
0000
0000
0000
0000
,
0001
0101
1000
1100
,
0001
0000
0101
0000
0001
0100
0010
1000
,
0100
1100
1000
1001
,
0001
0101
0001
1001
,
1100
0010
1001
0010
,
0101
0010
1100
0010
,
1000
0100
0010
0000
0001
0010
0100
0000
,
1000
0000
0000
0000
0001
0000
0000
0000
1000
0000
0000
1000
0001
0000
1000
0000
,
0001
0100
0010
1000
0100
0010
0001
0010
,
0100
1000
0010
0100
0001
0010
0100
1000
,
0100
0010
0001
0100
0010
1000
0100
0010
,
0100
1000
0001
0010
0100
0010
0001
1000
,
0010
0100
0001
0010
0100
1000
0100
0010
,
0001
0100
0010
1000
0100
1000
0001
0010
,
0100
1000
0001
0100
0010
1000
0100
0010
,
0100
1000
0001
0010
0100
1000
0001
0000
,
0100
0101
1000
1100
,
0100
0101
1000
1100
,
0010
0011
0010
1010
,
0001
0011
1000
1010
,
0010
0001
0010
0000
0100
1000
0100
0000
,
1000
0010
1000
0001
0100
0001
0100
0000
,
0001
1000
0001
0000
1000
0100
1000
0000
,
0001
0000
0010
0000
0100
0000
1000
0000
0001
0000
0000
1000
0001
0000
0100
0000
,
0010
0000
1000
0000
0010
0100
0001
0100
,
0010
0000
1000
0000
0010
0100
0001
0010
,
0100
0000
1000
0000
0100
0010
0001
0010
,
0100
0000
1000
0000
0100
0010
0001
1000
,
0010
0000
0101
0000
0010
1000
0100
0010
,
0001
0000
1100
0000
1000
0010
0200
0000
,
0002
0303
0000
0000
0001
0000
1000
0000
0001
0000
1000
0000
0001
0000
0000
1000
,
0001
1000
0001
0100
0001
0100
1000
0100
,
1000
0100
0010
0100
0010
0100
0001
0100
,
0001
0100
0001
1000
0001
1000
0100
1000
,
0100
1000
0010
1000
0010
1000
0001
1000
,
0001
1000
0100
0010
0100
0010
1000
0010
,
1000
0010
0001
0010
0001
0010
0100
0010
,
0100
0010
0100
1000
0100
1000
0001
0100
,
0001
0000
0100
0000
0001
0000
1000
0000
0100
0000
0010
0000
0001
0000
0000
0010
,
0100
1000
0001
0100
1000
0100
0001
0010
,
1000
0010
0001
0100
1000
0100
0001
0010
,
0100
1000
0100
1000
0100
0001
0100
1000
,
0010
0001
0010
1000
0100
0001
0100
1000
,
0100
0010
0001
0010
0001
0010
1000
0010
,
1000
0010
0100
0001
0100
0001
0100
1000
,
0100
1000
0010
0100
0001
0100
0010
1000
,
0100
0010
0001
0000
0011
0000
0110
0000
,
1001
0000
0001
0100
0010
0000
1000
0100
,
0010
0000
0100
1000
0001
0100
0010
1000
,
0100
0010
0001
0010
0100
0000
1000
0010
,
0100
0000
0010
1000
0100
0010
0001
0100
,
0010
1000
0100
1000
0001
0000
0010
0001
,
1000
0000
0010
0100
0001
1000
0100
0010
,
0100
1000
0001
0010
0100
0000
1000
0010
,
0100
0000
0010
1000
0100
0010
0001
1000
,
0010
0100
0001
0010
0100
0000
1000
0010
,
0100
0000
0010
1000
0100
0010
0001
1000
,
0010
0100
0001
0010
0100
0000
0010
0001
,
1000
0000
0010
0100
0010
1000
0100
0010
,
0001
0010
0100
1000
0010
0000
0100
0001
,
0010
0000
0001
0100
0010
1000
0100
0010
,
0100
1000
0001
0010
0100
0000
1000
0100
,
0010
0000
0001
0100
0010
1000
0100
0010
,
0001
2000
0002
0000
0000
0000
0000
0000
,
0000
0000
0000
0000
,
3003
0000
0000
0000
;
#NOTES:
     dance-single:
     Renard:
     Hard:
     9:
     0.709,0.602,0.254,0.042,0.016:
0000
0000
0000
0000
,
0000
0000
0000
0000
,
0001
0101
1000
1100
,
0001
0000
0101
0000
0001
0100
0010
1000
,
0100
1100
1000
1001
,
0001
0101
0001
1001
,
1100
0010
1001
0010
,
0101
0010
1100
0010
,
1000
0100
0010
0000
0001
0010
0100
0000
,
1000
0000
0000
0000
0001
0000
0000
0000
1000
0000
0000
1000
0001
0000
1000
0000
,
0001
0100
1000
0001
1000
0100
0001
0010
,
1000
0001
1000
0010
0001
0100
0010
1000
,
0100
0001
1000
0001
0100
1000
0010
0001
,
1000
0001
0010
0100
0001
0010
0100
1000
,
0100
0001
0100
0010
0001
1000
0001
0010
,
1000
0001
1000
0010
0100
1000
0001
0100
,
1000
0001
1000
0100
0010
1000
0010
0001
,
0010
0100
1000
0100
0001
0100
0010
1000
,
0100
1010
0001
0011
,
0010
1010
0001
0011
,
0100
1100
0100
0101
,
1000
1100
0001
0101
,
0100
1000
0100
0000
0010
0001
0010
0000
,
0001
0100
0001
1000
0010
1000
0010
0000
,
1000
0001
1000
0000
0001
0010
0001
0000
,
1000
0000
0100
0000
0010
0000
0001
0000
1000
0000
0000
0001
1000
0000
0010
0000
,
0100
0000
0001
0000
0100
0010
1000
0010
,
0100
0000
0001
0000
0100
0010
1000
0100
,
0010
0000
0001
0000
0010
0100
1000
0100
,
0010
0000
0001
0000
0010
0100
1000
0001
,
0100
0000
1010
0000
0100
0001
0010
0100
,
1000
0000
0011
0000
0001
0100
0020
0000
,
2000
3030
0000
0000
1000
0000
0001
0000
1000
0000
0001
0000
1000
0000
0000
0001
,
1000
0001
1000
0100
0001
1000
0001
0100
,
1000
0010
0001
1000
0001
0010
0100
0001
,
0010
0100
0001
0100
1000
0010
0100
1000
,
0100
0010
1000
0100
0001
0100
0010
0001
,
0010
1000
0010
1000
0001
0100
1000
0010
,
0001
0010
0100
1000
0100
1000
0001
0010
,
1000
0100
0001
1000
0010
0001
0010
1000
,
0001
0100
1000
0010
0001
1000
0100
0010
,
1000
0100
0010
0100
0001
0100
0010
0100
,
1000
0010
0100
0010
0001
0010
0100
0010
,
1000
0100
0001
0100
0010
0001
0010
1000
,
0010
0100
0001
0100
1000
0010
0001
1000
,
0100
0001
0010
1000
0001
0100
1000
0010
,
0001
1000
0001
0010
1000
0100
0001
1000
,
0001
0100
1000
0010
0100
0001
0010
0100
,
1000
0010
0100
0000
1001
0000
0110
0000
,
1001
0000
1000
0100
0010
1000
0010
0100
,
1000
0010
0100
0001
0010
0100
0001
0100
,
0010
0001
0100
0010
1000
0100
0010
1000
,
0010
0100
1000
0010
0100
0001
0010
0100
,
1000
0001
0100
0010
1000
0100
0001
0100
,
1000
0010
0001
0010
0100
0001
0010
0100
,
0001
0100
1000
0010
0100
1000
0100
0010
,
1000
0100
0010
0001
0100
0010
0100
0001
,
0010
0100
0001
0100
1000
0010
0100
1000
,
0100
0010
1000
0100
0010
1000
0010
0001
,
0010
0100
0001
0100
1000
0010
0100
1000
,
0100
0001
0010
0100
0001
0100
1000
0010
,
0100
1000
0100
0010
1000
0100
0010
1000
,
0010
0001
0010
0100
0001
0100
1000
0010
,
0100
1000
0100
0001
0010
0100
0001
0100
,
0010
0001
0100
0010
1000
0100
0010
1000
,
0010
0002
2000
0000
0000
0000
0000
0000
,
0000
0000
0000
0000
,
3003
0000
0000
0000
;
#NOTES:
     dance-single:
     JS:
     Easy:
     6:
     0.497,0.460,0.180,0.032,0.000:
0000
0000
0000
0000
,
0000
0000
0000
0000
,
1000
0100
0010
0100
,
1000
0000
0100
0000
0010
0000
0100
1000
,
0001
0100
0010
0100
,
0001
0000
0100
0000
0010
0000
0100
0001
,
1000
0010
0100
0010
,
1000
0000
0010
0000
0100
0000
0001
1000
,
0001
0010
0100
0010
,
0001
0011
0110
1100
,
1000
0100
1000
0100
1000
0000
0001
0000
,
1000
0100
1000
0100
1000
0000
0010
0000
,
1000
0100
1000
0100
1000
0000
0001
0000
,
1000
0100
1000
0000
0010
0000
1001
0000
,
0001
0100
0001
0100
0001
0000
1000
0000
,
0001
0100
0001
0100
0001
0000
0010
0000
,
0001
0100
0001
0100
0001
0000
1000
0000
,
0001
0100
0001
0000
0010
0000
0100
0000
,
1000
0001
0100
0010
,
1000
0000
0100
0000
0010
0000
0001
0100
,
0001
1000
0100
0010
,
0001
0000
0100
0000
0010
0000
1000
0100
,
0010
0001
0010
0001
,
0100
0000
0010
0000
1000
0000
0010
0100
,
0010
1000
0010
1000
,
0100
0000
0010
0000
0001
0000
0010
0100
,
1000
0001
0100
0001
,
0010
0000
0001
0000
0100
0000
0010
0100
,
0001
1000
0100
1000
,
0010
0000
1000
0000
0100
0000
0010
0100
,
1001
0100
1000
0010
,
1001
0100
0001
0010
,
0200
0300
0000
0000
0000
0000
0000
0000
0000
0000
0000
0000
0000
0000
0000
0000
1000
0000
0000
0000
0000
0000
0000
0000
0000
0000
0000
0000
0000
0000
0000
0000
0001
0000
0000
0000
0000
0000
0000
0000
0000
0000
0000
0000
0000
0000
0000
0000
1000
0000
0000
0000
0000
0000
0000
0000
0000
0000
0000
0000
0000
0000
0000
0000
,
0001
0000
1000
0100
1000
0000
0010
0000
,
1000
0000
0001
0100
0001
0000
0010
0000
,
0001
0000
1000
0100
0010
0000
0100
0000
,
1000
0000
0001
0100
0010
0000
0100
0000
,
0001
0000
1000
0001
0010
0000
0001
0000
,
1000
0000
0001
1000
0010
0000
1000
0000
,
0001
0000
1000
0001
0100
0000
0010
0000
,
1000
0001
0101
0110
,
1010
0000
1000
0100
0010
0000
0001
0000
,
0100
0000
0100
0001
0010
0000
0100
0000
,
1000
0000
0001
0100
0010
0000
1000
0000
,
0100
0000
0100
1000
0010
0000
0100
0000
,
0001
0000
1000
0001
0100
0000
0010
0000
,
1000
0000
1000
0010
0100
0000
0001
0000
,
1000
0000
0001
0010
0100
0000
1000
0000
,
0001
0011
1100
0110
,
1001
1000
0010
0100
,
0001
0000
1000
0100
0010
0100
1000
0000
,
1000
0001
0010
0100
,
1000
0000
0001
0100
0010
0100
0001
0000
,
0001
1000
0100
0010
,
0100
0000
1000
0010
0100
0001
0010
0000
,
0010
0001
0100
0010
,
0100
0001
0101
1001
,
1010
1000
0100
0010
,
0001
0000
1000
0010
1000
0010
1000
0010
,
1000
0001
0100
0010
,
1000
0000
0001
0010
0001
0010
0001
0010
,
0001
0100
0010
1000
,
0001
0000
0100
0010
0100
0010
0100
0010
,
0100
0100
0001
1000
,
0100
0000
1000
0001
1000
0001
1000
0001
,
1000
2002
0000
0000
,
0000
0000
0000
0000
,
3003
0000
0000
0000
;
#NOTES:
     dance-single:
     JS:
     Beginner:
     3:
     0.288,0.354,0.074,0.021,0.000:
0000
0000
0000
0000
,
0000
0000
0000
0000
,
1000
1000
1000
0000
,
0001
0001
0001
0000
,
0100
0100
0100
0000
,
0010
0010
0010
0000
,
1000
1000
1000
0000
,
0100
0100
0100
0000
,
0001
0001
0001
0000
,
0000
1001
1001
1001
,
1000
1000
0100
0100
,
1000
0000
0100
0000
,
0010
0010
0001
0001
,
0010
0000
0001
0000
,
0100
0100
0010
0010
,
0100
0000
0010
0000
,
0001
0001
1000
1000
,
0001
0000
0000
0000
,
1000
0000
0100
0000
,
0001
0000
0100
0000
,
1000
0000
0010
0000
,
0001
0000
0010
0000
,
1000
0000
0100
0000
,
0001
0000
0100
0000
,
0010
0000
0001
0000
,
1000
1000
1000
0000
,
0001
0000
0010
0000
,
1000
0000
0010
0000
,
0001
0000
0100
0000
,
1000
0000
0100
0000
,
1001
0000
0010
0000
,
1001
0000
0100
0000
,
1001
1000
0000
1000
,
0000
0001
0100
0001
,
0000
0001
0100
0001
,
0000
0001
0010
0001
,
0000
0001
0010
0001
,
0000
1000
0100
1000
,
0000
1000
0100
1000
,
0000
1000
0010
1000
,
0000
1000
1000
1000
,
1000
0001
0001
0100
,
0000
0001
1000
0001
,
0000
1000
1000
0100
,
0000
1000
0001
1000
,
0000
1000
1000
0010
,
0000
0100
0010
0100
,
0000
0001
0001
0010
,
0000
0001
0010
0100
,
1000
0001
0001
0001
,
0001
0100
0100
0100
,
0000
0010
0010
0010
,
0010
1000
1000
1000
,
0000
0100
0100
0100
,
0100
0010
0010
0010
,
0000
0001
0001
0001
,
0001
1000
1000
1000
,
1000
0001
0100
0001
,
0000
1000
0010
1000
,
0000
0001
0100
0001
,
0000
1000
0010
1000
,
0000
1000
0100
1000
,
0000
0001
0010
0001
,
0000
1000
0100
0010
,
0000
0001
0000
0100
,
0000
2002
0000
0000
,
0000
0000
0000
0000
,
3003
0000
0000
0000
;
