#TITLE:Shakawkaw;
#SUBTITLE:;
#ARTIST:Infected Mushroom;
#TITLETRANSLIT:;
#SUBTITLETRANSLIT:;
#ARTISTTRANSLIT:;
#CRChallenge:;
#BANNER:sha.jpg;
#BACKGROUND:sha-bg.jpg;
#LYRICSPATH:;
#CDTITLE:;
#MUSIC:sha.ogg;
#OFFSET:0.000;
#SAMPLESTART:52.364;
#SAMPLELENGTH:12.000;
#SELECTABLE:YES;
#BPMS:0.000=110.000;
#STOPS:158.000=0.545
;
#BGCHANGES:;
#NOTES:
     dance-single:
     Renard:
     Medium:
     9:
     0.478,0.494,0.243,0.018,0.584:
0000
0000
0000
0000
,
0000
0000
0000
0000
,
0000
0000
0000
0000
,
0000
0000
0000
0000
,
1000
0000
0000
0001
0000
0000
0100
0000
0000
0001
0000
0000
0100
0000
0010
0000
,
1000
0000
0000
0100
0000
0000
1000
0000
0001
0000
0000
0000
0000
0000
0000
0000
,
0100
0000
0000
0010
0000
0000
0100
0000
0000
0001
0000
0000
0000
0000
0000
0000
,
1000
0000
0100
0010
0000
0001
0000
0000
1000
0000
0000
0000
0000
0000
0000
0000
,
0001
0000
0000
0100
0010
0000
1000
0000
0000
0010
0000
0000
0100
0000
0000
0000
,
0001
0000
1000
0100
0000
0010
0000
0000
1001
0000
0000
0000
0101
0000
0000
0000
,
0001
0000
0000
1000
0100
0000
0010
0000
0000
0001
0000
0000
1000
0000
0000
0000
,
0010
0000
0100
0001
0000
0100
0000
0000
0110
0000
0000
0000
1001
0000
0000
0000
,
1000
0000
0000
0100
0010
0000
0001
0000
0000
0010
0000
0000
0100
0000
1000
0000
,
0010
0000
0000
0100
0000
0000
0001
0000
1000
0000
0000
0100
0010
0000
0001
0000
,
0010
0000
0000
0100
0000
0000
1000
0000
0010
0000
0000
0100
0001
0000
0100
0000
,
0010
0000
1000
0100
0000
0010
0000
0000
1001
0000
0000
0000
0110
0000
0000
0000
,
0010
0000
0100
0010
0000
1000
0000
0001
0000
0010
0000
0000
0110
0000
0000
0000
,
0100
0000
1000
0010
0000
0100
0000
0001
0000
0010
0000
0000
1001
0000
0000
0000
,
0001
0000
0010
0100
0000
1000
0000
0010
0000
0100
0000
0000
0110
0000
0000
0000
,
0010
0000
1000
0100
0000
0010
0000
0001
0000
1000
0000
0000
1001
0000
0000
0000
,
0001
0000
0000
0001
0100
0000
0010
0000
0000
1000
0100
0010
0001
0010
0100
1000
,
0001
0000
0000
0100
0010
0000
1000
0000
0100
0000
0000
0010
0001
0000
0000
0010
,
0100
1000
0000
0001
0000
0100
0000
0010
0000
0000
1000
0000
0010
0000
0000
0100
,
0001
0000
0000
0100
0000
0000
0000
0000
0000
0010
0000
0000
0000
0000
0000
1000
0000
0000
0000
0000
0000
0100
0000
0000
0000
0000
0000
0000
0000
0000
0010
0000
0001
0000
0010
0000
0001
0000
0000
0000
0000
0000
0000
0000
0000
0000
0000
0000
,
0010
0000
0100
0000
1000
0000
0010
0100
0000
0001
0000
0010
0100
0000
1000
0000
,
0001
0000
0100
0000
0010
0000
1000
0100
0000
0010
0000
0001
1000
0000
0001
0000
,
0100
0000
0010
0000
1000
0000
0001
0100
0000
0010
0000
1000
0100
0000
0010
0000
,
0001
0000
0010
0000
0100
0000
1000
0001
0100
0010
1000
0100
1000
0000
0001
0000
,
0010
0000
0100
0000
1000
0000
0001
0100
0000
0000
0010
0000
1010
0000
0000
0000
,
1000
0000
0100
0000
1000
0001
0000
0100
0010
0000
1000
0100
0000
0010
0001
0000
,
0010
0000
0100
0000
1000
0000
0001
0100
0000
0010
0000
1000
0000
0100
0010
0000
,
0001
0000
0010
0000
0100
0000
1000
0000
0001
0100
0010
1000
0000
1000
0010
1000
,
0010
0000
0100
0000
0001
0000
1000
0000
0100
0010
0000
0110
0000
0000
0100
0000
,
1000
0000
0001
0000
0100
0010
1000
0001
0000
0101
0000
0000
0000
0000
0000
0001
,
1000
0000
0100
0000
0010
0000
0001
0000
0010
0100
0000
0110
0000
0000
0000
0000
,
0100
0000
1000
0010
0100
0001
0100
0010
0000
1010
0000
0000
1000
0000
0000
0100
,
0010
0000
0001
0000
0010
0000
0100
0000
1000
0001
0000
0110
0000
0000
0010
0000
,
0100
0000
0001
0000
0010
0000
0100
1000
0000
0001
0100
0000
0010
0000
1000
0010
,
0100
0000
0001
0000
0100
0000
0010
0000
1000
0100
0000
0010
0000
0000
0000
0000
,
0001
0000
1000
0000
0010
0000
0100
0001
1000
0000
0000
0000
1000
0000
0001
0000
,
0100
0000
0010
0000
1000
0001
0000
0101
0000
0000
0001
0000
1000
0000
0100
0000
,
0010
0001
0010
0100
0000
1100
0000
0000
1000
0000
0000
0010
0100
0000
0101
0000
,
0110
0000
0010
0000
1000
0100
0000
1100
0000
0000
1000
0000
0001
0000
0100
0000
,
0010
1000
0001
0100
0000
1001
0000
0000
1000
0000
0000
0100
0010
0000
0011
0000
,
0110
0000
0100
1000
0010
0100
0000
0101
0000
0000
0001
0000
0100
0000
0010
0000
,
1000
0010
0100
0001
0000
1000
0100
0000
0110
0000
0000
0100
1000
0000
0010
0000
,
0100
0000
0001
0100
0010
1000
0000
0101
0000
0000
0001
0000
1000
0001
1000
0001
,
1000
0001
0000
0200
0020
0000
0000
0000
0000
0000
0000
0000
0330
0000
0000
0000
;
#NOTES:
     dance-single:
     Renard:
     Easy:
     6:
     0.293,0.300,0.135,0.018,0.189:
0000
0000
0000
0000
,
0000
0000
0000
0000
,
0000
0000
0000
0000
,
0000
0000
0000
0000
,
1000
0000
0000
0001
0000
0000
0100
0000
0000
0010
0000
0000
1000
0000
0010
0000
,
0100
0000
0000
0001
0000
0000
1000
0000
1000
0000
0000
0000
0000
0000
0000
0000
,
0001
0000
0000
1000
0000
0000
0001
0000
0000
0100
0000
0000
0000
0000
0000
0000
,
0010
0000
0000
1000
0000
0010
0000
0000
0100
0000
0000
0000
0000
0000
0000
0000
,
0001
0000
1100
0000
1000
0001
0100
0000
,
0001
0000
0011
0000
0001
1000
0010
0000
,
0100
0000
0101
0000
0001
1000
0100
0000
,
0010
0000
0011
0000
0001
1000
0010
0100
,
0001
0000
1001
0000
0001
0100
0010
0000
,
1000
0000
1010
0000
1000
0100
0010
0000
,
0001
0000
1001
0000
0001
0100
0010
0000
,
1000
0000
1010
0000
1000
0001
0100
0000
,
0001
0000
0000
1000
0000
0001
0000
1000
0000
0001
0000
0000
0000
0000
0000
0000
,
0001
0000
0000
0100
0000
0010
0000
0100
0000
0010
0000
0000
0000
0000
0000
0000
,
1000
0000
0000
0100
0000
1000
0000
0100
0000
1000
0000
0000
0000
0000
0000
0000
,
0001
0000
0000
0010
0000
0001
0000
0010
0000
0001
0000
0000
0000
0000
0000
0000
,
1000
0000
0010
0000
0100
0001
0100
0010
,
1000
0000
0010
0100
0001
0000
1000
0000
,
0100
0000
0000
0010
0000
0001
0000
1000
0000
0000
0000
0000
0000
0000
0000
0000
,
0001
0000
0000
0010
0000
0100
0000
1000
0000
0000
0000
0000
0001
0000
0000
0000
,
0100
0000
0001
1000
0100
0000
0110
0000
,
0010
0000
0001
1000
0010
0000
1010
0000
,
1000
0000
0001
0100
0001
0000
0101
0000
,
0001
0000
1000
0100
1000
0000
1100
0000
,
0100
0000
0010
0001
1000
0000
1001
0000
,
0001
0000
0100
0010
1000
0000
1010
0000
,
0010
0000
0100
0001
1000
0000
1001
0000
,
1000
0000
0100
0010
0001
0000
1000
0000
,
0001
0000
0100
0000
0001
0000
1000
0000
0100
1000
0000
0100
0000
0000
0000
0000
,
0000
1000
0001
0000
,
1000
0000
0001
0000
0010
0000
0001
0000
1000
0001
0000
1000
0000
0000
0000
0000
,
0001
0000
0100
0000
,
0010
0000
1000
0000
0001
0000
1000
0000
0100
1000
0000
0001
0000
0000
0000
0000
,
1000
0000
0100
0000
,
0010
0000
0000
0000
0001
0000
1000
0000
0001
0100
0000
0001
0000
0000
0000
0000
,
1000
0000
0001
0000
0100
0000
0010
0010
,
0010
0000
0000
0000
0100
0000
0000
0100
0000
0000
0000
0000
0001
0000
1000
0000
,
0100
0000
0010
0000
0001
0000
1000
1000
,
1000
0000
0000
0000
0001
0000
0000
0010
0000
0000
0000
0000
0100
0000
0000
0000
,
1000
0000
0001
0100
0001
0000
1000
0001
,
1000
0000
0000
0000
0010
0000
0000
0010
0000
0000
0000
0000
0100
0000
0000
0000
,
0001
1000
0100
0010
,
0001
0000
0000
0000
1000
0000
0000
0001
0000
0000
0000
0000
0100
0000
0000
0000
,
0000
0000
0000
0020
0200
0000
0000
0000
0000
0000
0000
0000
0330
0000
0000
0000
;
#NOTES:
     dance-single:
     Renard:
     Beginner:
     3:
     0.217,0.279,0.099,0.072,0.000:
0000
0000
0000
0000
,
0000
0000
0000
0000
,
0000
0000
0000
0000
,
0000
0000
0000
0000
,
1000
0000
0000
0001
0000
0000
0100
0000
,
0010
0000
1000
0000
,
0001
0000
0000
0010
0000
0000
0000
0000
,
1000
0000
0010
0000
,
0001
1001
0000
1010
,
0100
1001
0000
0011
,
1000
0110
0000
1001
,
0010
0110
0000
1001
,
0002
0203
0000
0310
,
0010
1000
0000
0100
,
2000
3002
0000
0103
,
0010
0100
0010
1000
,
0001
0000
0100
0000
0001
0000
1000
0001
,
1000
0001
0010
0000
,
0100
0000
1000
0000
0001
0000
0100
0001
,
0100
0001
1000
0000
,
0100
0000
0010
0000
0001
1000
0001
1000
,
0001
0100
0020
0230
,
0301
0001
0100
0000
,
0010
0010
1000
0000
,
0100
0000
1100
0000
0100
0010
0001
0000
,
0000
0001
0000
0001
,
0001
0000
0011
0000
0010
0100
1000
0000
,
0000
1000
0000
0010
,
0100
0000
0010
0000
0100
0000
0010
0100
,
0010
0000
0010
0000
,
1000
0000
0001
0000
1000
0001
1000
0000
,
0001
0000
0010
0000
,
0100
1000
0001
0001
,
0000
0000
0100
0010
0100
0000
0000
0000
,
0010
0010
1000
1000
,
0001
0000
1000
0100
1000
0000
0000
0000
,
0001
0010
0100
0100
,
0000
0000
1000
0001
1000
0000
0001
0000
,
0100
0001
1000
0100
,
1000
0000
0001
0100
0001
0000
0100
0000
,
0100
0001
0001
0000
,
1000
1000
0000
0100
,
0100
0010
0010
0000
,
0001
0001
0000
1000
,
1000
0001
0001
0000
,
0100
0100
0010
0100
,
0001
1000
0100
1000
,
0000
0220
0000
0330
;
