#TITLE:Sensory Vision Pt. 2;
#SUBTITLE:;
#ARTIST:CLSM ft. Ant Johnson;
#TITLETRANSLIT:;
#SUBTITLETRANSLIT:;
#ARTISTTRANSLIT:;
#CRChallenge:;
#BANNER:vision.png;
#BACKGROUND:vision-bg.png;
#LYRICSPATH:;
#CDTITLE:!cdtitle.png;
#MUSIC:vision.ogg;
#OFFSET:0.000;
#SAMPLESTART:10.283;
#SAMPLELENGTH:12.000;
#SELECTABLE:YES;
#DISPLAYBPM:175.000;
#BPMS:0.000=43.763,41.000=350.091,47.003=175.045;
#STOPS:47.000=0.343
;
#BGCHANGES:;
#NOTES:
     dance-single:
     Renard:
     Hard:
     10:
     0.658,1.000,0.462,0.379,0.766:
0000
0000
0000
0000
,
0000
0000
0000
0000
,
1000
0000
1000
0000
1000
0000
1000
0001
1000
0000
1000
0000
1000
0100
0010
0000
0001
0000
0001
0000
0001
0010
0100
0000
1000
0000
1000
0000
1000
0010
1000
0000
,
1000
0000
1000
0000
1000
0000
1000
0100
1000
0000
1000
0000
1000
0100
0010
0000
0001
0000
0001
0000
0001
0010
0100
0000
1000
0000
1000
0000
1000
0000
0001
0000
,
0100
0000
0100
0000
0100
0000
0100
0001
0010
0000
0010
0000
0010
0001
1000
0000
0100
0000
0100
0000
0100
1000
0001
0000
0010
0000
0010
0000
0001
0100
0001
0000
,
0100
0000
0100
0000
0100
0000
0100
0001
0100
0000
0100
0000
0100
0010
0001
0000
0001
0000
0001
0000
0001
0010
0100
0000
0100
0000
0100
0000
1000
0100
0001
0000
,
0100
0000
0100
0000
0010
0000
1000
0000
0100
0000
0010
0001
0000
0011
0000
0000
0010
0000
0100
1000
0100
0000
0000
0000
1100
0000
1000
0010
0000
0110
0000
0000
,
0100
0000
0001
0000
0011
0000
0000
0000
0010
0000
0100
1000
0000
1100
0000
0000
1000
0000
0001
0100
0010
0000
0000
0000
0110
0000
0010
1000
0000
1010
0000
0000
,
0000
2000
0000
3200
0000
0302
0000
0203
0000
2300
0000
3020
0000
0032
0000
0023
0000
2030
0000
3200
0000
0302
0000
0203
0000
0000
0320
0002
0000
0000
0030
0000
,
0003
0002
0000
0023
0000
2030
0000
3020
0000
0032
0000
0203
0000
2300
0000
3200
0000
0302
0000
0023
0000
0230
0000
2300
0000
3000
0002
0200
0000
0000
0000
0000
,
0020
0333
0001
0000
0001
0100
0000
0100
,
0001
0000
0001
0100
0000
0100
1001
0000
,
0101
0000
0000
0100
0000
0010
1000
0000
1010
0000
0000
0000
1000
0000
0000
0000
,
1100
0000
0000
1000
0000
0001
0010
0000
0011
0000
0000
0000
0010
0000
0000
0000
,
0110
0000
0000
0100
0000
1000
0010
0000
1010
0000
0000
0000
1000
0000
0001
0000
,
0101
0000
0000
0100
0000
0010
1000
0000
1001
0000
1000
0000
0100
0000
0010
0000
,
0110
0000
0000
0010
0000
0001
1000
0000
1001
0000
0000
0000
1000
0000
0010
0000
,
1010
0000
0000
1000
0000
0001
0100
0000
0011
0000
0000
0000
0010
0000
0100
0000
,
1100
0000
0000
1000
0000
0001
0100
0000
0110
0000
0000
0000
0010
0000
1000
0000
,
0110
0000
0000
0010
0000
0001
0010
0000
0100
0000
0000
0000
0100
1000
0001
0010
,
0100
1000
0100
0010
0001
0010
0100
1000
0001
0010
0100
1000
0100
0010
0001
0010
,
0100
1000
0001
0100
0010
1000
0001
1000
0001
0000
0000
0000
1000
0010
0100
0001
,
1000
0010
0100
0001
0010
0100
1000
0100
0010
0001
1000
0010
0100
0001
0010
0100
,
1000
0100
0010
0001
1000
0010
0100
0000
0001
0000
0000
0000
0010
0001
1000
0100
,
0010
0001
0010
0100
1000
0100
0010
0001
1000
0100
0010
0001
0010
0100
1000
0100
,
0010
0001
1000
0010
0100
0001
1000
0001
1000
0000
0000
0000
0001
0100
0010
1000
,
0001
0100
0010
1000
0100
0010
0001
0010
0100
1000
0001
0000
0101
0000
0000
1010
,
0000
0000
1100
0000
0000
0011
0000
0000
1001
0000
0000
0000
2001
0000
0000
3000
,
0010
1000
0010
0000
1000
0000
0100
0000
0010
0000
0001
0000
0000
0000
0012
0000
,
0000
0013
0100
1000
11MM
0000
1M1M
0000
,
0100
0001
0010
0001
1000
1MM1
0000
0001
,
0000
0100
0010
0000
0100
0000
0010
0000
1000
0000
0000
0000
1002
0000
0000
0003
,
0100
0001
0100
0000
0001
0000
0010
0000
0100
0000
1000
0000
0000
0000
2100
0000
,
0000
3100
0010
0001
MM11
0000
M1M1
0000
,
0010
1000
0100
1000
0001
1MM1
0000
1000
,
0010
0000
0000
0000
0202
0000
0000
0000
1010
0000
0303
0000
0120
0000
0000
0030
,
0001
0010
0001
0000
0010
0000
1000
0000
0001
0000
0100
0000
0000
0000
0201
0000
,
0000
0301
1000
0010
1M1M
0000
MM11
0000
,
1000
0100
0001
0100
0010
M11M
0000
0100
,
0000
1000
0001
0000
1000
0000
0001
0000
0010
0000
0000
0000
0210
0000
0000
0300
,
1000
0100
1000
0000
0100
0000
0001
0000
1000
0000
0010
0000
0000
0000
1020
0000
,
0000
1030
0001
0100
M1M1
0000
11MM
0000
,
0001
0010
1000
0010
0100
0001
1000
0000
,
0100
0010
0000
2002
0000
0000
3013
0000
;
#NOTES:
     dance-single:
     Renard:
     Medium:
     9:
     0.478,0.828,0.489,0.397,0.208:
0000
0000
0000
0000
,
0000
0000
0000
0000
,
0002
0000
2003
0000
3200
0000
2300
0000
3002
0023
0230
2300
3020
0000
0230
0000
,
0302
0000
2003
0000
3200
0000
0320
0000
0032
0023
0230
2300
3020
0000
0230
0000
,
0302
2003
3200
0320
0032
2000
0020
3033
,
2000
0000
3002
0000
0200
0003
0020
0030
0002
0003
2000
3000
0020
0030
0002
0000
,
0020
0000
0000
0000
0000
0000
0000
0000
0333
0000
0000
0000
0000
0000
0000
0000
0000
0000
0001
1000
0100
0000
0000
0000
1100
0000
1000
0001
0000
0011
0000
0000
,
0000
0000
0000
0000
1001
0000
0000
0000
1000
0000
0010
0100
0000
0110
0000
0000
0000
0000
0100
0001
0010
0000
0000
0000
0011
0000
0010
0100
0000
1100
0000
0000
,
0000
1000
0000
0001
0000
1000
0000
0001
0000
0100
0000
0010
0000
0100
0000
0010
0000
1000
0000
0001
0000
1000
0000
0001
0000
0000
0020
0200
0000
0000
0000
0330
,
0000
0010
0000
0100
0000
0010
0000
0100
0000
1000
0000
0001
0000
1000
0000
0001
0000
0100
0000
0010
0000
0100
0000
0010
0000
0000
2000
0002
0000
0000
0000
0000
,
0020
0000
0000
0000
,
0000
0000
0030
3013
,
1001
0000
1000
0100
1100
0000
1000
0000
,
0011
0000
0001
0100
0101
0000
0100
0000
,
0110
0000
0010
1000
1010
0000
1000
0000
,
1100
0000
0010
0001
1000
0010
0100
0000
,
0110
0000
0100
0001
0101
0000
0001
0000
,
1001
0000
1000
0100
1100
0000
1000
0000
,
0011
0000
0001
1000
1010
0000
0010
0000
,
0110
0000
0100
0001
1001
0000
1000
0000
,
1100
0000
0010
0001
0011
0000
0001
0000
,
1010
0000
1000
0010
0110
0000
0100
0000
,
0011
0000
0010
0100
1100
0000
1000
0000
,
0110
0000
0100
0001
0010
0000
0011
0000
,
1100
0000
1000
0010
0100
0000
0110
0000
,
0101
0000
0001
1000
0100
0000
1100
0000
,
0011
0000
0001
1000
1010
0000
1010
0000
,
0101
0011
1100
1001
,
0001
0100
0010
0100
1000
0100
0001
0010
,
0100
0010
1000
0010
0100
0000
0011
0000
,
0010
0100
1000
0010
0100
0001
0100
1000
,
0100
0010
0100
0001
0010
0000
0011
0000
,
0010
0100
0010
1000
0010
0100
0010
0001
,
0100
0010
0100
1000
0100
0000
1100
0000
,
0100
0010
1000
0100
0010
0001
0000
0001
,
0010
0100
1000
0000
1100
0000
1100
0000
,
1000
0100
0010
0100
0001
0100
0000
0100
,
0000
0100
0001
0100
1000
0000
1100
0000
,
1000
0010
0001
0010
0100
1000
0000
1100
,
0000
0100
0001
0010
0100
0000
0101
0000
,
0100
1000
0010
0001
0010
0001
0000
0011
,
0000
0010
0100
1000
0100
0000
0101
0000
,
0001
1000
0100
0010
0001
1000
1001
0000
,
0001
0100
0000
0220
0000
0000
1331
0000
;
#NOTES:
     dance-single:
     Renard:
     Easy:
     6:
     0.318,0.505,0.175,0.342,0.000:
0000
0000
0000
0000
,
0000
0000
0000
0000
,
2000
3002
0203
0000
0320
2030
3200
0000
,
0320
0032
0203
0000
0302
2003
3200
0000
,
0320
0032
2003
0000
3020
0000
0230
0000
,
0302
2003
3020
0000
2030
0000
3002
0000
,
0013
0010
0100
0100
1000
0001
0100
0100
,
0010
0010
1000
0001
0010
0010
0100
1000
,
0002
0203
0320
2030
,
3200
2300
3020
0230
,
0302
0000
0000
0000
,
0000
0000
0000
1003
,
1001
1000
1100
0000
,
1001
0001
0101
0000
,
1001
1000
1100
0000
,
1001
0001
0011
0000
,
1001
1000
1010
0000
,
1001
0001
0101
0000
,
1001
0000
1000
0000
1100
0000
0100
1000
,
0100
0000
0010
0001
0010
0000
0001
0000
,
1001
0000
1000
0010
1000
0000
0001
0000
,
0101
0000
0001
1000
0001
0000
1000
0000
,
1100
0000
1000
0001
1000
0000
0001
0000
,
0100
0010
1000
0001
,
1001
0000
1000
0100
1000
0000
0001
0000
,
0011
0000
0001
1000
0001
0000
0200
0000
,
0000
0320
0000
0000
2030
0000
0000
3200
,
0000
0000
0000
1300
,
1000
0100
1000
0000
0100
1000
0000
0001
,
0000
1000
0000
0001
0100
0000
0001
0000
,
0010
0000
0001
1000
0001
1000
0000
0001
,
0000
0100
0010
0100
0010
0000
1000
0000
,
0010
0000
1000
0001
1000
0001
0000
0100
,
0000
0001
1000
0100
,
0010
0000
0001
1000
0001
1000
0000
0010
,
0000
0010
0100
0000
0100
0000
0010
0000
,
0010
0000
1000
0000
1000
0001
0000
0100
,
0000
0001
1000
0000
0001
0000
0010
0000
,
0010
0000
0100
0000
0100
1000
0000
0001
,
0000
0100
0001
0100
0001
0000
1000
0000
,
1000
0000
0100
0000
1000
0001
0000
0100
,
0000
0010
1000
0000
0010
0000
1000
0000
,
0100
0010
0001
1000
,
1000
0002
0000
0200
0000
0000
0313
0000
;
#NOTES:
     dance-single:
     Renard:
     Beginner:
     3:
     0.216,0.323,0.157,0.194,0.000:
0000
0000
0000
0000
,
2000
0000
0000
0000
,
3002
0203
0320
1030
,
2000
3020
0230
0301
,
2000
0000
3200
0000
0310
0010
0002
0000
,
0203
0320
1030
1000
,
0001
0100
0100
0000
0010
1000
1000
0000
,
0100
1000
1000
0000
0001
0010
0010
0000
,
0002
2003
3020
0230
,
0302
2003
3020
0230
,
0002
0300
0000
0000
,
0000
0000
0000
1003
,
1001
0000
1001
0000
,
0110
0000
0110
0000
,
1010
0000
1010
0000
,
0101
0000
0101
0000
,
0110
0000
0110
0000
,
1001
0000
1001
0000
,
1100
0000
1100
0000
,
0011
0000
0011
0000
,
0001
1000
0010
0000
,
1000
0001
0100
0000
,
0001
1000
0100
0000
,
1000
0001
0010
0000
,
0001
1000
0010
0000
,
1000
0001
0100
0001
,
0001
1000
1000
0100
,
0100
0100
0100
0010
,
0010
0010
0000
0001
,
0000
1000
0000
0100
,
0100
0100
0000
1000
,
0000
0001
0000
0010
,
0010
0010
0000
0001
,
0000
1000
0000
0100
,
0100
0100
0000
1000
,
0000
0001
0000
0010
,
0010
0010
0000
0001
,
0000
1000
0000
0100
,
0100
0100
0000
1000
,
0000
0001
0000
0100
,
0100
0100
0000
0001
,
0000
1000
0000
0010
,
0010
0010
1000
0001
,
0100
0010
0000
1000
0000
0000
1001
0000
;
