#TITLE:Self Esteem (Skazi + Irritante Remix);
#SUBTITLE:;
#ARTIST:The Offspring;
#TITLETRANSLIT:;
#SUBTITLETRANSLIT:;
#ARTISTTRANSLIT:;
#CRChallenge:;
#BANNER:self.png;
#BACKGROUND:self-bg.png;
#LYRICSPATH:;
#CDTITLE:;
#MUSIC:self.ogg;
#OFFSET:0.000;
#SAMPLESTART:39.684;
#SAMPLELENGTH:12.000;
#SELECTABLE:YES;
#BPMS:0.000=145.000,157.000=290.000,159.000=145.000;
#DISPLAYBPM:145;
#STOPS:30.500=0.414
,157.000=0.052
,157.250=0.052
,157.500=0.052
,157.750=0.052
,158.000=0.103
,158.500=0.052
,158.750=0.052
;
#BGCHANGES:;
#NOTES:
     dance-single:
     Renard:
     Hard:
     10:
     0.770,0.872,0.175,0.131,0.705:
0000
0000
0000
0000
,
0000
0000
0000
0000
,
0000
0000
0000
0000
,
0000
0000
0000
0000
,
1000
0000
1001
0000
0001
0100
0110
0000
,
0010
0000
0000
0000
1000
0000
0000
1100
0000
0000
1000
0000
0100
0000
0000
0000
,
0010
0000
0011
0000
0001
1000
0010
0000
,
1000
0000
0000
0000
1001
0000
0000
0010
1000
0000
0001
0000
1000
0000
0100
0000
,
0010
0001
0011
0000
0010
0100
1000
0001
,
0100
0000
0010
0000
0000
0000
0000
1000
0010
1000
0010
0000
1000
0000
0001
0000
,
0100
0001
0101
0000
0001
0010
0100
1000
,
0001
0000
0100
0000
0000
0000
0000
0010
1000
0010
1000
0000
0100
0000
0010
0000
,
0011
0000
0000
0010
0100
1000
0010
0100
,
0001
0000
0100
0000
0000
0000
0000
0010
1000
0010
1000
0000
0100
0000
0010
0000
,
0011
0000
0011
0000
0010
0000
0100
1000
,
0001
0000
0010
0000
0001
1000
0000
0000
0110
0000
0000
0000
0010
0000
0010
1000
,
0010
0000
1000
0000
0001
0000
0100
0001
0100
0000
0001
0000
0010
0000
0010
0100
,
0010
0000
0100
0000
1000
0000
0010
0000
1000
0000
0001
0000
0100
0000
0010
1000
,
0010
0000
1000
0000
0100
0000
0010
0000
0001
1000
0001
0000
0010
0000
0100
0010
,
0100
0000
1000
0100
1000
0000
0100
1000
0200
0000
1300
0000
0001
0000
0010
0001
,
0010
0000
0001
0000
1000
0000
0010
0000
0100
0010
0100
0000
0001
0000
0010
0001
,
0010
0000
0100
0000
1000
0000
0001
0000
0100
0010
0100
0000
0010
0000
1000
0100
,
1000
0000
0001
0000
0010
0000
0001
0000
1000
0001
1000
0000
0001
0000
0100
0000
,
0010
0000
1000
0000
0100
0000
0000
0000
0011
0000
0000
0000
0100
0000
1000
0010
,
0100
0000
0001
0010
0100
0000
1000
0010
0100
0000
0001
0010
0100
0000
0010
0001
,
1000
0000
0100
0010
0001
0000
0010
0100
1000
0000
0001
0010
0100
0000
1000
0001
,
0100
0000
0010
1000
0100
0000
0010
0001
0010
0000
0100
1000
0001
0000
0100
0010
,
1000
0000
0100
0010
0001
0000
1000
0000
0001
0000
0001
0000
0010
0000
0001
0100
,
0010
0000
1000
0100
0010
0000
0001
0100
0010
0000
1000
0100
0010
0000
0100
1000
,
0001
0000
0010
0100
1000
0000
0100
0010
0001
0000
1000
0100
0010
0000
0001
1000
,
0010
0000
0100
0001
0010
0000
0100
1000
0100
0000
0010
0001
1000
0000
0010
0100
,
0001
0000
0010
0100
1000
0000
0001
0000
1000
0000
1000
0000
0001
0000
0000
0001
,
0100
0000
0010
1000
0010
0000
0000
1000
0100
0000
0010
0001
0010
0000
0000
0100
,
1000
0000
0001
0100
0010
0000
0000
1000
0010
0000
0100
0001
0100
0000
0000
0010
,
1000
0000
0100
0010
0001
0000
0000
0010
0100
0000
1000
0001
0100
0000
0000
0010
,
1000
0000
0001
0100
0010
0000
0000
1000
0100
0000
0010
0001
0010
0000
0000
0100
,
1000
0000
0001
0100
0010
0000
0000
1000
0010
0000
0100
0001
0100
0000
0000
0010
,
1000
0000
0100
0010
0001
0000
0000
1000
0100
0000
0010
0001
0010
0000
0000
0100
,
1000
0000
0001
0100
0010
0000
0000
1000
0010
0000
0100
0001
0100
0000
0000
0010
,
1000
0000
0100
0010
0001
1000
0001
1000
0001
0000
1000
0001
1000
0000
0000
0000
,
1010
0000
0100
0001
0100
0000
0000
0001
0010
0000
0100
1000
0100
0000
0000
0000
,
0011
0000
1000
0010
0100
0000
0000
0001
0100
0000
0010
1000
0010
0000
0000
0000
,
0101
0000
0010
0100
1000
0000
0000
0100
0010
0000
0001
1000
0010
0000
0000
0000
,
0101
0000
1000
0010
0100
0000
0000
0001
0010
0000
0100
1000
0100
0000
0000
0000
,
0011
0000
1000
0010
0100
0000
0000
0001
0100
0000
0010
1000
0010
0000
0000
0000
,
0101
0000
0010
0100
1000
0000
0000
0001
0010
0000
0100
1000
0100
0000
0000
0000
,
0011
0000
1000
0010
0100
0000
0000
0001
0100
0000
0010
1000
0010
0000
0000
0000
,
0101
0000
0010
0100
2000
3200
0320
0032
2003
0000
0002
3003
1000
0100
0010
0001
,
0010
0100
1000
0001
0010
0000
0100
0000
1000
0000
0001
0000
1000
0100
0010
0001
,
0010
0100
1000
0000
0001
0000
0010
0000
0001
0000
0010
0000
0001
0010
0100
1000
,
0001
0100
0010
1000
0010
0000
0100
0000
0001
0000
0100
0000
0010
1000
0001
0100
,
0010
0000
1000
0000
0001
0100
0010
1000
0100
0000
0010
0000
0001
0010
0100
1000
,
0001
0010
0001
1000
0010
0000
1000
0000
0001
0000
0100
0000
0010
1000
0001
0010
,
0100
1000
0001
0100
0010
0000
1000
0000
0100
0000
1000
0000
0001
0010
0100
1000
,
0001
0100
0010
1000
0100
0000
1000
0000
0001
0000
0010
0000
0001
0010
0100
1000
,
0001
0000
0100
0000
0010
1000
0001
1000
0100
0000
0010
0000
0001
0010
0001
0010
,
0001
0000
0010
0000
0100
1000
0100
1000
0100
0000
1000
0000
0010
1000
0010
1000
,
0010
0000
0100
0000
0001
0100
0001
0100
0001
0000
0100
0000
0001
0010
0001
0010
,
0001
0000
0010
0000
0100
1000
0100
1000
0100
0000
1000
0000
0010
1000
0010
1000
,
0010
0000
0100
0000
0001
0100
0001
0100
0001
0000
0100
0000
0001
0000
1000
0100
,
1000
0000
0001
0000
0010
0000
0001
1000
0001
0000
1000
0000
0010
0000
0100
0010
,
0100
0000
0001
0000
0010
0000
0100
0000
1000
0010
1000
0000
0001
0000
0001
0000
,
0001
0000
0001
0000
0001
0000
0001
1000
0001
0000
0001
1000
0002
0000
2003
0000
,
3200
0000
0302
0000
0203
0000
2300
0000
0002
0000
0000
0000
0020
3003
0000
0000
,
0000
0030
0000
0000
;
#NOTES:
     dance-single:
     Renard:
     Medium:
     9:
     0.587,0.563,0.166,0.061,0.140:
0000
0000
0000
0000
,
0000
0000
0000
0000
,
0000
0000
0000
0000
,
0000
0000
0000
0000
,
1000
0000
1001
0000
0001
0100
0010
0000
,
1000
0000
0000
0000
1010
0000
0000
1000
0000
0000
0010
0000
0100
0000
0000
0000
,
0001
0000
1001
0000
0001
0010
0100
0000
,
1000
0000
0000
0000
0001
0000
0000
0100
0010
0000
1000
0000
0010
0000
1000
0000
,
0001
0100
0010
0000
1000
0100
0010
0001
,
1000
0010
0100
0000
0110
0000
0010
0100
,
0001
0010
0100
0000
0100
1000
0010
0100
,
0001
1000
0100
0000
1100
0000
1000
0100
,
0010
0001
1000
0010
0100
0000
0001
0010
,
0100
1000
0001
0000
0101
0000
0001
0010
,
0100
0010
0001
0000
1100
0000
1000
0100
,
0010
0000
0100
0000
1000
0100
0000
0000
1100
0000
0000
0000
1000
0000
0010
0000
,
0100
0001
1000
0000
0101
0000
0001
1000
,
0100
0010
0001
0000
1001
0000
1000
0010
,
0100
0100
0001
0001
0010
0010
0100
0100
,
1000
0010
0100
0000
0110
0000
0010
1000
,
0100
0010
0001
0010
0000
0001
0010
0100
,
1000
0000
0001
0000
0100
0000
0000
0000
0110
0000
0000
0000
0010
0000
1000
0010
,
1000
0000
0001
0000
0100
0000
0001
0100
0001
0000
0100
0000
0001
0000
0010
0100
,
1000
0001
1000
0000
0110
0000
1010
0000
,
0101
0000
0000
0000
0001
0000
0100
0000
0010
0000
1000
0010
1000
0000
0100
0000
,
0010
0001
1000
0100
0000
1100
0000
1000
,
0100
0010
0001
1000
0010
0100
0001
0010
,
0100
0000
1000
0000
0001
0000
0100
0001
0100
0000
0001
0000
0100
0000
0010
0000
,
1000
0001
1000
0100
0010
0001
0010
0100
,
1000
0000
0001
0000
0100
0000
0010
0000
0000
0000
0110
0000
0000
0000
0010
1000
,
0010
1000
0100
0010
0001
1000
0000
1000
,
0001
0100
0000
0100
0010
1000
0100
0010
,
0001
0000
0010
0000
0100
0000
0000
0100
1000
0000
0010
0000
0100
0000
0001
0000
,
0010
0000
0001
0000
1000
0000
0000
1000
0010
0000
0100
0000
0001
0000
0010
0000
,
0001
0000
1000
0000
0010
0000
0000
1000
0100
0000
0010
0000
0001
0000
0010
0000
,
0100
0000
1000
0000
0001
0000
0000
0100
0010
0000
1000
0000
0100
0000
0010
0000
,
0001
0000
1000
0000
0010
0000
0000
0010
0100
0000
0001
0000
0010
0000
0100
0000
,
1000
0000
0100
0000
0010
0000
0000
0010
0001
0000
0010
0000
0100
0000
1000
0000
,
0001
0000
0100
0000
0010
0000
0000
1000
0010
0000
0100
0000
0001
0000
0010
0000
,
0100
0000
1000
0000
0001
1000
0001
1000
0001
0000
1000
0001
1000
0000
0001
0000
,
0100
0000
0010
0000
1000
0000
0000
1000
0100
0000
0010
0000
0001
0000
1000
0000
,
0010
0100
0001
0010
0010
0010
0001
0010
,
0100
0000
1000
0000
0010
0000
0000
0100
0001
0000
0100
0000
0010
0000
1000
0000
,
0100
0010
0001
1000
1000
1000
0001
0010
,
0100
0000
1000
0000
0010
0000
0000
0100
0010
0000
1000
0000
0100
0000
0010
0000
,
0001
1000
0010
0100
0100
0100
0001
0010
,
0100
0000
1000
0000
0010
0000
0000
1000
0010
0000
0100
0000
0001
0000
0010
0000
,
0100
0000
1000
0000
0001
0100
0001
0100
0002
0000
0000
0000
1003
0000
0100
0000
,
1000
0001
0100
0010
1000
0100
0000
0100
,
0010
0001
1000
0010
0000
0110
0000
0010
,
0100
0001
0010
0100
1000
0010
0000
0010
,
1000
0000
0001
0000
0000
0000
0001
0000
0010
0000
0100
1000
0100
0000
1000
0000
,
0010
0100
0001
0010
0001
1000
0000
1000
,
0010
0100
0001
0010
0001
1000
0000
1000
,
0010
0000
0100
0000
0001
0000
0010
0001
0010
0000
0001
0000
0010
0000
0100
0000
,
1000
0000
0001
0000
0100
0000
0010
1000
0010
0000
1000
0000
0100
0000
0010
0000
,
0001
0000
0010
0000
0100
0000
1000
0100
1000
0000
0001
0000
0010
0000
0100
0000
,
1000
0001
0100
0010
0010
0000
1000
0100
,
0010
0000
0001
0000
1000
0000
0010
1000
0010
0000
1000
0000
0001
0000
0100
0000
,
0010
1000
0001
0010
0010
0000
0001
0010
,
0100
1000
0010
0010
1000
0100
0010
0001
,
0100
0100
0010
0010
1000
0100
1100
0000
,
1000
0000
1000
0000
1000
0000
1000
0001
1000
0000
0001
1000
0002
0000
2003
0000
,
3200
0320
0032
0000
2000
0000
0010
0000
,
0000
3003
0000
0000
;
#NOTES:
     dance-single:
     Renard:
     Easy:
     6:
     0.379,0.422,0.105,0.026,0.000:
0000
0000
0000
0000
,
0000
0000
0000
0000
,
0000
0000
0000
0000
,
0000
0000
0000
0000
,
1000
0000
1000
0000
0001
0001
0001
0000
,
0100
0000
0100
0000
0010
0010
0010
0000
,
0010
0000
0010
0000
0100
0100
0100
0000
,
0001
0000
0001
0000
1000
1000
0001
0000
,
1000
0100
1000
0000
0001
0000
0010
0000
,
0001
1000
0000
0000
0001
0000
0100
0000
,
0010
1000
0010
0000
0000
0000
1000
0000
,
0001
0100
0000
0000
0001
0000
1000
0000
,
0100
1000
0100
1000
0000
0000
0001
0010
,
0001
0010
0001
0000
1000
0000
0010
0000
,
0100
0001
0100
0000
0001
0000
1000
0100
,
1000
0100
1000
0000
1001
0000
1000
0000
,
0001
0100
0001
0000
0000
0000
1000
0100
,
0010
0001
0000
0000
1001
0000
0001
0010
,
0001
0010
0001
0010
0001
0010
0001
0010
,
0001
0010
0001
0000
0011
0000
0010
0000
,
0100
1000
0100
1000
0000
0000
0001
1000
,
0001
1000
0000
0000
0000
0000
0000
0000
,
0100
1000
0100
1000
0100
1000
0100
1000
,
0100
1000
0100
0000
1100
0000
1000
0000
,
1000
0000
0001
0000
0001
0100
0000
0010
,
0000
0000
0010
1000
0000
0101
0000
0000
,
0001
1000
0000
0000
0100
0010
0000
0001
,
0000
0010
0000
0000
0100
0000
1000
0000
,
0010
0100
0001
0000
0100
0010
0000
1010
,
0000
0000
1000
0010
0000
1010
0000
0000
,
1000
0001
0100
0000
0001
1000
0000
1100
,
0000
1000
0000
0000
1001
0000
0001
0000
,
0100
0000
0010
0000
0100
0001
0100
0000
,
0001
0000
1000
0000
0100
0010
0100
0000
,
1000
0000
0010
0000
0100
0001
0100
0000
,
0010
0000
1000
0000
0100
1000
0001
0000
,
0010
0000
0001
0000
1000
0010
1000
0000
,
0001
0000
0100
0000
0001
0001
1000
0000
,
0100
0000
0010
0000
0001
0001
0010
0000
,
0100
2000
0000
3001
,
0100
0000
0010
0000
1000
0010
1000
0000
,
0001
0000
0100
0000
0001
1000
0001
0000
,
0010
0000
0100
0000
1000
0001
1000
0000
,
0001
0000
0100
0000
0010
1000
0010
0000
,
1000
0000
0001
0000
0010
0100
0010
0000
,
0100
0000
1000
0000
0010
1000
0010
0000
,
1000
0000
0001
0000
0100
0001
0100
0000
,
0001
1000
0100
0010
,
0001
0000
0000
0010
0100
1000
0000
0001
,
0000
0000
0100
0010
0000
0100
0000
0000
,
0001
0000
1000
0000
0100
1000
0000
0001
,
0000
1000
0000
0000
1001
0000
1000
0000
,
0001
0100
0000
0000
0001
1000
0000
0100
,
0000
0000
0010
0001
0000
0011
0000
0000
,
0010
0100
0000
0000
1000
0001
0000
0100
,
0000
0010
0000
1000
0010
0000
1000
0000
,
1000
0001
0001
0100
,
0100
0000
0010
1000
0010
0000
1000
0000
,
1000
0001
0001
0010
,
0010
0000
0100
0000
0100
1000
0100
0000
,
0100
1000
1000
0001
,
0010
0000
0001
0000
1000
0000
0001
1000
,
0001
1000
0001
1000
0001
1000
0001
1000
,
0001
1000
0001
1000
0001
0000
0202
0000
,
0000
0303
0000
0000
;
#NOTES:
     dance-single:
     Renard:
     Beginner:
     3:
     0.253,0.253,0.018,0.035,0.000:
0000
0000
0000
0000
,
0000
0000
0000
0000
,
0000
0000
0000
0000
,
0000
0000
0000
0000
,
1000
1000
0001
0001
,
0100
0100
0010
0100
,
0010
0010
1000
1000
,
0001
0001
0100
0010
,
0000
0010
1000
0100
,
0010
0001
0000
0010
,
0000
0100
0000
1000
,
0010
0100
0000
0001
,
0100
0010
0000
0010
,
1000
0100
0000
1000
,
0001
0010
0000
0001
,
1000
0010
1010
1000
,
0010
1000
0000
0001
,
0100
0001
0000
0010
,
0010
0100
0100
1000
,
0001
1000
0000
0001
,
0100
0010
0000
0010
,
1000
0001
0000
1000
,
0100
1000
1000
0001
,
0010
0001
1000
0001
,
0001
0100
0000
0010
,
1000
0100
0100
0100
,
0010
0000
0010
0001
,
1000
0001
0100
0010
,
1000
0000
0010
0100
,
0100
0001
0010
0100
,
1000
0000
1000
0001
,
0100
0010
0010
1000
,
0010
0010
0100
0001
,
0001
1000
0000
0001
,
0001
0010
0001
1000
,
0001
0100
0000
0001
,
0000
1000
0100
1000
,
0000
0010
1000
0001
,
0000
1000
0001
0010
,
0001
0200
0000
0310
,
0000
0010
1000
0100
,
0000
0100
1000
0001
,
0000
0010
0001
1000
,
0000
0001
0100
0001
,
0000
0001
1000
1000
,
0000
0100
1000
0001
,
0000
0010
0001
1000
,
1000
0020
0000
0130
,
0100
0000
0010
1000
,
0000
0100
0010
0001
,
0010
0000
0001
1000
,
0010
1000
1000
0001
,
0100
0000
0001
0010
,
0001
1000
1000
0010
,
0100
0000
0100
0010
,
0000
1000
0010
0100
,
0001
0001
0000
0010
,
0100
1000
0100
1000
,
0001
0001
1000
1000
,
0001
1000
0000
0001
,
0100
0100
0000
0010
,
1000
0001
0100
0010
,
0000
0000
0000
0010
,
0000
1000
0100
2200
,
0000
3300
0000
0000
;
