#TITLE:See You On the Other Side;
#SUBTITLE:;
#ARTIST:Jon Doe + Cube Hard;
#TITLETRANSLIT:;
#SUBTITLETRANSLIT:;
#ARTISTTRANSLIT:;
#GENRE:;
#CRChallenge:;
#MENUCOLOR:;
#BANNER:see.jpg;
#BACKGROUND:see-bg.jpg;
#LYRICSPATH:;
#CDTITLE:;
#MUSIC:see.ogg;
#OFFSET:0.000;
#SAMPLESTART:11.389;
#SAMPLELENGTH:12.000;
#SELECTABLE:YES;
#LISTSORT:;
#BPMS:0.000=168.000,31.000=84.000,95.000=168.000;
#STOPS:28.000=0.357
,219.000=0.357
;
#TICKCOUNT:0.000=2;
#BGCHANGES:;
#KEYSOUNDS:;
#ATTACKS:;
#NOTES:
     dance-single:
     Renard:
     Hard:
     11:
     0.574,0.656,0.446,0.391,0.482:
0000
0000
0000
0000
,
0000
0000
0000
0000
,
0000
0000
0000
0000
,
0000
0000
0000
0000
,
1001
1000
1001
0001
,
1001
1000
1001
0001
,
1000
0M02
1003
00M2
1003
0M02
1003
00M2
,
2003
0000
0010
0000
0010
0000
0000
0000
3100
0000
0000
0000
1010
0000
0000
0100
,
0002
0000
0000
0000
0013
0000
0000
0001
0010
0000
0110
0000
1100
0000
0000
1000
,
0020
0000
0000
0000
0130
0000
0000
0001
0010
0000
1100
0000
1001
0000
0000
0001
,
0200
0000
0000
0000
0310
0000
0000
1000
0010
0000
0101
0000
0011
0000
0000
0010
,
0200
0000
0000
0000
1300
0000
0000
0001
0010
0000
1100
0000
1001
0000
0000
0001
,
0200
0000
0000
0000
0310
0000
0000
0010
1000
0000
1100
0000
1001
0000
0000
0001
,
0200
0000
0000
0000
0310
0000
0000
1000
0010
0000
0101
0000
1001
0000
0000
1000
,
0200
0000
0000
0000
0310
0000
0000
0001
1000
0000
0101
0000
0120
0000
0000
1030
,
0200
0000
0000
0000
0320
0000
0000
0031
2000
0000
3020
0000
0230
0000
0000
0001
,
0301
0000
0000
0000
0020
0000
0000
0100
0100
0000
0130
0000
2000
0000
0000
0001
,
3001
0000
0000
0000
0002
0000
0000
0100
0100
0000
0013
0000
2000
0000
0000
0010
,
3010
0000
0000
0000
0002
0000
0000
0100
0100
0000
0013
0000
2000
0000
0000
0100
,
3100
0000
0000
0000
0002
0000
0000
0010
0010
0000
1003
0000
0002
0000
0000
0000
,
0200
0003
0020
0000
0000
0300
2000
0030
0200
3000
0020
0000
0000
0000
0000
0300
,
0002
0000
0030
0020
0003
0200
0030
2000
0300
0020
3000
0200
0000
0030
0002
0000
,
0000
0300
0020
0000
0000
0000
0000
0000
0000
0000
0003
0000
0200
0000
0000
0000
,
0000
0000
0030
0000
2000
0000
0000
0000
0000
0000
0000
3300
1000
0000
0000
0000
,
1100
0000
0101
0000
,
0011
0000
1010
0001
,
0101
0000
0011
0000
,
1010
0000
1100
0001
,
0011
0000
1010
0000
,
1100
0000
0101
1000
,
1010
0000
1100
0000
,
0101
0000
0011
1000
,
1010
0000
0110
1000
,
0101
0000
0011
0001
,
1010
0000
1100
0001
,
1100
0000
1010
0001
,
0110
0000
0110
1000
,
0110
0000
0110
0001
,
0110
1000
0010
0200
,
0000
0000
0000
0000
0000
0000
0000
0000
0000
0000
0000
0000
0310
0000
1000
0001
,
1000
0100
0010
0001
0000
0000
0100
0010
1000
0100
0010
0001
0100
0000
0010
0000
,
1000
0100
0010
0001
0000
0000
0100
0010
1000
0100
0010
0001
0010
0000
0100
0000
,
1000
0010
0100
0001
0000
0000
0010
0100
1000
0010
0100
0001
0010
0000
0100
0000
,
1000
0010
0100
0001
0000
0000
0010
0100
1000
0010
0100
0001
1000
0000
0100
0000
,
0010
0001
0100
0010
0000
0000
1000
0100
0010
0001
0100
0010
1000
0000
0100
0000
,
0010
0001
0100
0010
0000
0000
1000
0100
0010
0001
0100
0010
0100
0000
0001
0000
,
0010
0100
1000
0001
0000
0000
0100
0001
1000
0100
0010
0001
0100
0000
0001
0000
,
1000
0100
0010
0001
0000
0000
0100
0001
1000
0100
0010
0001
0100
0000
0001
1000
,
0001
0010
0100
1000
0000
0000
0010
0100
0001
0010
0100
1000
0010
0000
0100
0000
,
0001
0010
0100
1000
0000
0000
0010
0100
0001
0010
0100
1000
0100
0000
0010
0000
,
0001
0100
0010
1000
0000
0000
0100
0010
0001
0100
0010
1000
0100
0000
0010
0000
,
0001
0100
0010
1000
0000
0000
0100
0010
0001
0100
0010
1000
0001
0000
0010
0000
,
0100
1000
0010
0100
0000
0000
0001
0010
0100
1000
0010
0100
0001
0000
0010
0000
,
0100
1000
0010
0100
0000
0000
0001
0010
0100
1000
0010
0100
0010
0000
1000
0000
,
0100
0010
0001
1000
0000
0000
0010
1000
0001
0010
0100
1000
0020
0000
0100
0000
,
0100
1030
1001
0000
;
#NOTES:
     dance-single:
     Renard:
     Medium:
     9:
     0.494,0.606,0.446,0.391,0.200:
0000
0000
0000
0000
,
0000
0000
0000
0000
,
0000
0000
0000
0000
,
0000
0000
0000
0000
,
1001
0001
1001
1000
,
1001
0001
1001
1000
,
0001
20M0
3001
2M00
3001
20M0
3001
2M00
,
3002
0000
0100
0000
0100
0000
0000
0000
0013
0000
0000
0000
0101
0000
0000
0010
,
2000
0000
0000
0000
3100
0000
0000
1000
0100
0000
0110
0000
0011
0000
0000
0001
,
0200
0000
0000
0000
0310
0000
0000
1000
0100
0000
0011
0000
1001
0000
0000
1000
,
0020
0000
0000
0000
0130
0000
0000
0001
0100
0000
1010
0000
1100
0000
0000
0100
,
0020
0000
0000
0000
0031
0000
0000
1000
0100
0000
0011
0000
1001
0000
0000
1000
,
0020
0000
0000
0000
0130
0000
0000
0100
0001
0000
0011
0000
1001
0000
0000
1000
,
0020
0000
0000
0000
0130
0000
0000
0001
0100
0000
1010
0000
1001
0000
0000
0001
,
0020
0000
0000
0000
0130
0000
0000
1000
0001
0000
1010
0000
0210
0000
0000
0301
,
0020
0000
0000
0000
0230
0000
0000
1300
0002
0000
0203
0000
0320
0000
0000
1000
,
1030
0000
0000
0000
0200
0000
0000
0010
0010
0000
0310
0000
0002
0000
0000
1000
,
1003
0000
0000
0000
2000
0000
0000
0010
0010
0000
3100
0000
0002
0000
0000
0100
,
0103
0000
0000
0000
2000
0000
0000
0010
0010
0000
3100
0000
0002
0000
0000
0010
,
0013
0000
0000
0000
2000
0000
0000
0100
0100
0000
3001
0000
2000
0000
0000
0000
,
0020
3000
0200
0000
0000
0030
0002
0300
0020
0003
0200
0000
0000
0000
0000
0030
,
2000
0000
0300
0200
3000
0020
0300
0002
0030
0200
0003
0020
0000
0300
2000
0000
,
0000
0030
0200
0000
0000
0000
0000
0000
0000
0000
3000
0000
0020
0000
0000
0000
,
0000
0000
0300
0000
0002
0000
0000
0000
0000
0000
0000
0033
0001
0000
0000
0000
,
0011
0000
1010
0000
,
1100
0000
0101
1000
,
1010
0000
1100
0000
,
0101
0000
0011
1000
,
1100
0000
0101
0000
,
0011
0000
1010
0001
,
0101
0000
0011
0000
,
1010
0000
1100
0001
,
0101
0000
0110
0001
,
1010
0000
1100
1000
,
0101
0000
0011
1000
,
0011
0000
0101
1000
,
0110
0000
0110
0001
,
0110
0000
0110
1000
,
0110
0001
0100
0020
,
0000
0000
0000
0000
0000
0000
0130
0001
,
1000
0000
0100
0010
0000
0000
0001
0000
1000
0000
0010
0000
0100
0000
0001
0000
,
0010
0000
0001
1000
0000
0000
0010
0000
0100
0000
0001
0000
1000
0000
0100
0000
,
0010
0000
0001
1000
0000
0000
0001
0000
0010
0000
0100
0000
1000
0000
0001
0000
,
0100
0000
0010
1000
0000
0000
0001
0000
0100
0000
0010
0000
1000
0000
0100
0000
,
0010
0000
0001
1000
0000
0000
0001
0000
0100
0000
0010
0000
1000
0000
0100
0000
,
0010
0000
0001
1000
0000
0000
0010
0000
0100
0000
0010
0000
1000
0000
0100
0000
,
0010
0000
0001
1000
0000
0000
0001
0000
1000
0000
0100
0000
1000
0000
0001
0000
,
0100
0000
0010
1000
0000
0000
0001
0000
0010
0000
0100
0000
1000
0000
0001
0000
,
0100
0000
0001
0010
0000
0000
0001
0000
1000
0000
0100
0000
0010
0000
0001
0000
,
1000
0000
0010
1000
0000
0000
0001
0000
0100
0000
0010
0000
1000
0000
0100
0000
,
1000
0000
0001
0100
0000
0000
0001
0000
0010
0000
0100
0000
1000
0000
0001
0000
,
0100
0000
0010
1000
0000
0000
0001
0000
0100
0000
0010
0000
1000
0000
0100
0000
,
1000
0000
0001
0010
0000
0000
0001
0000
0100
0000
0010
0000
1000
0000
0100
0000
,
0010
0000
0001
0010
0000
0000
0100
0000
1000
0000
0001
0000
0100
0000
0010
0000
,
1000
0000
0100
0010
0000
0000
0001
0000
0010
0000
0100
0000
2000
0000
0010
0000
,
0010
3001
0101
0000
;
#NOTES:
     dance-double:
     freestyle:
     Beginner:
     1:
     0.214,0.303,0.282,0.027,0.000:
00000000
00000000
00000000
00000000
,
00000000
00000000
00000000
00000000
,
00000000
00000000
00000000
00000000
,
00000000
00000000
00000000
00000000
,
00000000
00000000
00000000
00000000
,
00000000
00000000
00000000
00000000
,
00000000
00000000
00000000
00000000
,
10010000
00001000
00000001
00000001
,
00000010
00000001
00100000
10000000
,
00100000
10000000
00000010
00000001
,
00000100
00000001
01000000
10000000
,
01000000
10000000
00000100
00100100
,
00001000
01000010
00010000
00100100
,
00001000
01000010
00010000
01000100
,
00000000
01000100
00000000
00100010
,
00000000
00100010
00000000
10000000
,
01000000
00010000
00011000
00001000
,
00000010
00000001
00001001
00000001
,
00000100
00001000
00011000
00010000
,
00100000
10000000
10010000
10000000
,
00100000
10000000
00010000
00000001
,
00000010
00000001
00001000
00020000
,
00000000
02030000
00000000
23000000
,
00000000
00000000
00000000
30000000
,
00100000
00000000
01000000
00000000
,
00100000
00000000
01000000
00000000
,
00000010
00000000
00000100
00000000
,
00000010
00000000
00000100
00000000
,
00000010
00000000
00100000
00000000
,
00000010
00000000
00100000
00000000
,
00000100
00000000
01000000
00000000
,
00000100
00000000
01000000
00000000
,
00001000
00000000
00100000
00000000
,
00010000
00000000
00000100
00000000
,
00001000
00000000
00100000
00000000
,
00010000
00000000
00000100
00000000
,
00100000
00000000
00000100
00000000
,
01000000
00000000
00000010
00000000
,
10000000
00000000
00000001
00011000
,
00000000
00000000
00000000
00010000
,
10100000
00000000
11000000
00000000
,
00100000
00000000
00010000
00001000
,
00000101
00000000
00000011
00000000
,
00000100
00000000
00001000
00010000
,
10100000
00000000
11000000
00000000
,
00100000
00000000
00010000
00001000
,
00000101
00000000
00000011
00000000
,
00000100
00000000
00001000
00100000
,
11000000
00000000
01010000
00000000
,
10000000
00000000
00100000
00000100
,
00000011
00000000
00001010
00000000
,
00000001
00000000
00000100
00000100
,
00000011
00000000
00001010
00000000
,
00000001
00000000
00000100
00100000
,
11000000
00000000
01010000
10000000
,
00010000
00001000
00001001
00000000
;
#NOTES:
     dance-single:
     JS:
     Beginner:
     2:
     0.216,0.227,0.018,0.036,0.000:
0000
0000
0000
0000
,
0000
0000
0000
0000
,
0000
0000
0000
0000
,
0000
0000
0000
0000
,
1000
1000
1000
1000
,
1000
1000
1000
1000
,
0001
0001
0001
0001
,
0001
0000
1000
0001
,
0100
0001
0100
0010
,
1000
0010
1000
0100
,
1000
0100
1000
0001
,
0010
0001
0010
0001
,
1000
0001
1000
0100
,
0010
0100
0010
0001
,
1000
0001
1000
0010
,
0100
0010
0100
0001
,
0010
0100
1000
0001
,
0100
0010
1000
0100
,
0010
0001
1000
0010
,
0100
0001
1000
0002
,
0000
0000
0000
0203
,
0000
0000
0000
0320
,
0000
0000
0000
2030
,
0000
0000
0000
3000
,
0000
0001
0001
0001
,
0000
0100
0100
0100
,
0000
0010
0010
0010
,
0000
0100
0100
0100
,
0000
0001
1000
0001
,
0000
1000
0001
1000
,
0000
0100
0100
0100
,
0100
0010
0010
0010
,
0000
0100
0100
0100
,
0000
1000
1000
1000
,
0000
0001
0001
0001
,
0000
0100
0100
0010
,
0010
1000
0000
0001
,
0001
0100
0000
0001
,
0001
0010
0000
1001
,
0000
0000
0000
1000
,
0100
1000
0000
1000
,
0100
1000
0000
0001
,
0100
0001
0000
0001
,
0100
0001
0000
0001
,
0010
0001
0000
0001
,
0010
0001
0000
1000
,
0010
1000
0000
1000
,
0010
1000
0000
0001
,
0100
0010
0000
0010
,
0100
0001
0000
0001
,
1000
0100
0000
0100
,
1000
0001
0000
1000
,
0100
0010
0000
0010
,
0100
1000
0000
1000
,
0001
0100
0000
0010
,
0000
0010
1001
0000
;
#NOTES:
     dance-single:
     JS:
     Easy:
     6:
     0.362,0.404,0.127,0.155,0.109:
0000
0000
0000
0000
,
0000
0000
0000
0000
,
0000
0000
0000
0000
,
0000
0000
0000
0000
,
1000
1000
0100
0100
,
0010
0010
0001
0001
,
1000
1000
0010
0010
,
0200
0000
0001
0000
0001
0000
0000
0000
0301
0000
0000
0000
1000
0000
0000
0100
,
0100
0000
0000
0000
0010
0000
0000
0001
0001
0000
1000
0000
0001
0000
0000
0100
,
0100
0000
0000
0000
0010
0000
0000
1000
1000
0000
0001
0000
1000
0000
0000
0001
,
0001
0000
0000
0000
0100
0000
0000
0010
0010
0000
1000
0000
0001
0000
0000
1000
,
1000
0000
0000
0000
0100
0000
0000
0010
0010
0000
0001
0000
1000
0000
0000
0010
,
0010
0000
0000
0000
0001
0000
0000
0010
0010
0000
1000
0000
0001
0000
0000
0010
,
0010
0000
0000
0000
1000
0000
0000
0010
0010
0000
0001
0000
1000
0000
0000
0100
,
0100
0000
0000
0000
0001
0000
0000
0100
0100
0000
1000
0000
0001
0000
0000
0100
,
0100
0000
0000
0000
1000
0000
0000
0100
0100
0000
0001
0000
2001
0000
0000
0100
,
0100
0000
0000
0000
0001
0000
0000
0010
0010
0000
3010
0000
0002
0000
0000
0100
,
0100
0000
0000
0000
1000
0000
0000
0010
0010
0000
0013
0000
0020
0000
0000
1000
,
1000
0000
0000
0000
0100
0000
0000
0001
0001
0000
0031
0000
0200
0000
0000
1000
,
1000
0000
0000
0000
0010
0000
0000
0001
0001
0000
0301
0000
0202
0000
0000
0000
,
0000
0003
0020
0000
0000
0300
2000
0000
,
0000
0030
0002
0000
0000
0003
0200
0000
,
0000
3000
0020
0000
0000
0300
0002
0000
,
0000
0030
2000
0000
0000
3003
1001
0000
,
0000
0000
1000
0000
1000
1000
0000
0100
,
0000
0001
0000
0100
0000
1000
0000
0000
,
0000
0000
0001
0000
0001
0001
0000
0100
,
0000
1000
0000
0100
0000
0001
0000
0000
,
0000
0000
1000
0000
1000
0100
0000
0010
,
0000
0000
0001
0000
0001
0100
0000
0010
,
0000
0000
1000
0000
1000
0010
0000
0001
,
0000
0100
0000
1000
0000
1000
0000
0000
,
0000
0000
0001
0000
0001
0001
0000
0100
,
0000
0010
0000
1000
0000
0001
0000
0000
,
0000
0000
1000
0000
1000
0010
0000
0100
,
0000
0001
0000
1000
0000
1000
0001
0000
,
0100
0000
0010
1000
0100
0000
1000
0000
,
0100
0000
0010
0001
0100
0000
0001
0010
,
0001
0000
1000
0100
1000
0000
2002
0000
,
0000
0000
3003
1000
,
0001
0000
1000
0100
0010
0000
0001
0000
,
1000
0000
0001
0100
0010
0000
1000
0000
,
0001
0000
1000
0010
0100
0000
0001
0000
,
1000
0000
0001
0010
0100
0000
1000
0000
,
0100
0000
0010
0001
0100
0000
0001
0000
,
0100
0000
0010
1000
0100
0000
1000
0000
,
0010
0000
0100
0001
0010
0000
0001
0000
,
0010
0000
0100
1000
0010
0000
1000
0000
,
0101
1000
0101
0001
,
0110
0001
0110
0010
,
1001
0010
1001
0100
,
1010
0000
0100
0000
1010
0000
0001
0100
,
0001
0000
1000
0010
1000
0000
0001
0100
,
0010
0000
1000
0010
0100
0000
0001
0010
,
0001
0000
1000
0100
1000
0000
1002
0100
,
0100
0103
1001
0000
;
