#TITLE:Screw Up (Living to Die VIP);
#SUBTITLE:;
#ARTIST:Ewun;
#TITLETRANSLIT:;
#SUBTITLETRANSLIT:;
#ARTISTTRANSLIT:;
#CRChallenge:;
#BANNER:screw.png;
#BACKGROUND:screw-bg.png;
#LYRICSPATH:;
#CDTITLE:;
#MUSIC:screw.ogg;
#OFFSET:0.000;
#SAMPLESTART:20.400;
#SAMPLELENGTH:12.000;
#SELECTABLE:YES;
#BPMS:0.000=173.000,56.000=86.500,72.000=173.000,117.000=21.625,131.000=172.995;
#STOPS:104.000=1.040
;
#BGCHANGES:;
#NOTES:
     dance-single:
     Renard:
     Challenge:
     9:
     0.750,1.000,0.624,0.419,0.926:
0000
0000
0000
0000
,
0000
0000
0000
0000
,
0000
0000
0000
0000
,
0000
0000
0000
0000
,
0000
0000
0001
0000
1000
0000
0100
0000
0000
0000
1000
0001
1000
0001
1000
0000
,
0000
0000
0001
0000
0100
0000
0010
0000
0000
0000
1000
0001
1000
0000
0001
0000
,
0000
0000
0100
0000
0010
0000
1000
0000
0000
0000
0001
0100
0001
0000
0100
0000
,
0000
0000
0010
0000
1000
0000
0100
0000
0000
0000
1000
0001
1000
0001
1000
0000
,
0000
0000
0010
0000
0100
0000
0001
0000
0000
0000
0100
0010
0100
0000
0010
0000
,
0000
0000
1000
0000
0100
0000
0010
0000
0000
0000
0001
1000
0001
0000
1000
0000
,
0010
0100
0001
0100
0000
0100
0010
1000
,
0100
1000
0001
1000
0010
0010
0010
0010
,
1001
0001
1001
1000
1001
0001
1001
1000
,
1001
0001
1001
1000
1001
0001
2002
0010
,
3003
0000
0000
0000
,
0000
0000
0000
0000
,
0001
0100
0001
0000
0100
0000
0001
0000
1000
0100
1000
0000
0100
0000
1000
0000
0001
0100
0001
0000
0100
0000
0001
0000
1000
0100
1000
0000
0100
0000
1000
0000
,
0001
0100
0001
0000
0100
0000
0001
0000
1000
0100
1000
0000
0100
0000
1000
0000
0001
0100
0001
0000
0100
0000
0001
0000
1000
0000
0000
0000
1011
0000
0000
0000
,
0002
0200
0313
0002
0200
0010
0303
0000
,
2000
0200
3310
2000
0200
0010
3300
0000
,
0002
0200
0313
0002
0200
0010
0303
2000
,
0000
0200
3310
2000
0200
0010
3300
0000
,
2000
0002
3013
0002
2000
0010
3003
0000
,
0002
2000
3013
2000
0002
0010
3003
0000
,
0002
2000
3013
2000
0002
0010
3003
0000
,
2002
0000
3013
0000
0101
0101
0101
0000
,
2002
0000
3003
0000
0000
0000
2000
0000
0000
0200
0000
0000
0020
0000
0000
0002
0000
0000
3000
0000
0000
2000
0000
0000
,
0000
3333
1100
0011
1100
0011
1100
0011
,
1100
0011
1100
0011
1100
0011
2002
0000
,
0000
0000
0000
0000
0000
0000
0000
0000
3003
0000
0000
0000
0000
0000
0000
0000
1000
0000
0000
0000
1000
0000
0000
0000
0001
0000
0000
0000
0001
0000
0000
0000
1000
0000
1000
0000
0001
0000
0001
0000
1000
0100
0010
0000
1001
0000
0000
0000
0001
0010
0100
1000
1001
1000
0010
0100
0001
0100
0010
1000
1010
1000
0010
0100
,
0001
0000
0000
0010
0000
0000
0110
0000
0000
0100
0000
0000
1000
0000
0000
0001
0000
0000
1001
0000
0000
1000
0000
0000
0010
0000
0000
0100
0000
0000
0001
0000
0000
1000
0000
0000
0010
0000
0000
0100
0000
0000
0101
0000
0000
0100
0000
0000
1010
0000
0000
0000
0000
0000
1000
0000
0000
0010
0000
0000
0100
0000
0000
0001
0000
0000
1000
0000
0000
0100
0000
0000
1100
0000
0000
0000
0011
0000
0000
0000
0000
1100
0000
0000
0000
0011
0000
0000
0000
0000
1001
0000
0000
0000
0000
0000
0001
0000
0000
0100
0000
0000
0010
0000
0000
1000
0000
0000
1010
0000
0000
1000
0000
0000
0100
0000
0000
0010
0000
0000
0001
0000
0000
1000
0000
0000
0010
0000
0000
0100
0000
0000
1001
0000
0000
0100
0000
0000
1001
0000
0000
1000
0000
0000
0010
0000
0000
1000
0000
0000
0010
0000
0000
0100
0000
0000
1001
0000
0000
0100
0000
0000
0010
0000
0000
1000
0000
0000
0101
0000
0000
1000
0000
0000
0010
0000
0000
0100
0000
0000
1001
0000
0000
1000
0000
0000
0100
0000
0000
0010
0000
0000
,
0001
0010
0100
1000
1001
0100
1000
0110
1000
0101
1000
0110
1000
0101
1000
0000
0101
0000
0010
1000
1100
0000
1000
0010
0100
0001
1000
0100
1001
0000
1010
0000
1000
0000
0010
0100
0101
0000
1000
0010
1000
0100
0010
0001
1000
0010
0101
0000
0110
0000
0100
0001
0100
1000
0100
0001
0010
1000
0010
0100
0001
0100
1000
0010
,
0001
0010
0100
1000
0100
0001
0100
0010
1000
0100
0010
1000
0010
0001
0010
0100
1000
0010
0110
0100
0001
0010
0110
0100
1000
0010
0110
0100
0001
0010
0110
0100
1000
0010
0110
0100
0001
0010
0100
1000
0001
0100
0010
1000
0001
0000
1001
0000
0100
0000
0000
0000
0000
0000
0000
0000
0001
0000
0000
0000
0000
0000
0000
0000
,
0010
0001
0100
0001
0010
0001
0100
0001
,
0010
0001
0100
0001
0010
0001
0010
1000
,
0100
1000
0010
1000
0100
1000
0010
1000
,
0100
1000
0010
1000
0100
1000
0010
0001
,
0100
0001
0010
0001
0100
0001
0010
0001
,
0100
0001
0010
0001
0100
0001
0010
1000
,
0100
1000
0010
1000
0100
1000
0010
0001
,
0100
1000
0001
0020
0200
0000
1001
0330
;
