#TITLE:Scatman's World;
#SUBTITLE:;
#ARTIST:Scatman John;
#TITLETRANSLIT:;
#SUBTITLETRANSLIT:;
#ARTISTTRANSLIT:;
#CRChallenge:;
#BANNER:world.png;
#BACKGROUND:world-bg.png;
#LYRICSPATH:;
#CDTITLE:;
#MUSIC:world.ogg;
#OFFSET:0.020;
#SAMPLESTART:53.801;
#SAMPLELENGTH:12.000;
#SELECTABLE:YES;
#BPMS:0.000=146.990;
#STOPS:0.000=0.020
;
#BGCHANGES:;
#NOTES:
     dance-single:
     Renard:
     Hard:
     10:
     0.752,0.886,0.498,0.088,0.704:
0000
0000
0000
0000
,
0000
0000
0000
0000
,
0000
0000
0000
0000
,
0000
0000
0000
0000
,
0000
0000
0000
0000
,
0000
0000
0000
0000
,
0000
0000
0000
0000
,
0000
0000
0000
0000
,
0001
0000
0001
0000
0001
0000
0010
0100
0000
0010
0000
0100
0010
0000
0100
0000
,
1000
0000
1000
0000
1000
0000
0010
0100
0000
0010
0000
0100
0010
0000
0100
0000
,
0001
0000
0001
0000
0001
0000
0010
0100
0000
0010
0000
0100
0010
0000
0100
0000
,
1000
0000
1000
0000
1000
0000
0010
0100
0000
0010
0000
0100
0010
0000
0100
0000
,
0010
0000
0010
0000
0010
0000
1000
0001
0000
1000
0000
0001
1000
0000
0001
0000
,
0100
0000
0100
0000
0100
0000
0001
1000
0000
0001
0000
1000
0001
0000
1000
0000
,
0010
0000
0010
0000
0010
0000
1000
0001
0000
1000
0000
0001
1000
0000
0002
0000
,
M000
02M3
M000
032M
M000
0M00
000M
0M30
,
0100
0001
1000
0000
0010
0001
0010
0000
,
0001
1000
0100
0001
1000
0000
1001
0000
,
0010
1000
0001
0000
0100
1000
0100
0000
,
1000
0001
0010
1000
0001
0000
1001
0000
,
1000
1000
0100
0001
0100
0000
0101
0000
,
0100
0100
0010
0001
0010
0000
0011
0000
,
0001
0001
0100
1000
0100
0000
1100
0000
,
0100
0010
1000
0001
0100
0000
1010
0000
,
1002
0013
2001
3010
,
1002
0013
2001
3010
1002
0000
0013
0000
,
0001
0010
1000
0010
0001
0100
1000
0100
,
0001
1001
1000
1100
,
0010
0001
0100
0001
0010
0001
0100
0001
,
0010
1000
0100
1000
0010
1000
0100
1000
,
0010
0001
0100
0001
0010
0001
0100
0001
,
0010
1000
0100
1000
0010
0001
0100
0010
,
1001
0000
0000
0000
,
1001
0000
0000
0101
0000
0000
1001
0000
0000
0000
0001
0000
1000
0100
1000
0000
,
1001
0000
0000
1100
0000
0000
1001
0000
0000
0000
1000
0000
0001
0100
0001
0000
,
1001
0000
0000
0101
0000
0000
1001
0000
0000
0000
0001
0000
1000
0100
1000
0000
,
1001
0000
0000
1100
0000
0000
1001
0000
0000
0000
1000
0000
0001
0100
0001
0000
,
0101
0000
0000
0110
0000
0000
1100
0000
0000
0000
1000
0000
0100
0000
0001
0000
,
0101
0000
0000
0110
0000
0000
1100
0000
0000
0000
0100
0000
0001
0000
0010
0000
,
0011
0000
0000
0110
0000
0000
1010
0000
0000
0000
0010
0000
0001
0010
0001
0000
,
0011
0000
0000
0101
0000
0000
1001
0000
0000
0000
1000
0000
0001
1000
0010
0000
,
1000
0000
1000
0000
1000
0000
0100
0010
0000
0100
0000
0010
0100
0000
0010
0000
,
0001
0000
0001
0000
0001
0000
0100
0010
0000
0100
0000
0010
0100
0000
0010
0000
,
1000
0000
1000
0000
1000
0000
0100
0010
0000
0100
0000
0010
0100
0000
0010
0000
,
0001
0000
0001
0000
0001
0000
0100
0010
0000
0100
0000
0010
0100
0000
0010
0000
,
0100
0000
0100
0000
0100
0000
0001
1000
0000
0001
0000
1000
0001
0000
1000
0000
,
0010
0000
0010
0000
0010
0000
1000
0001
0000
1000
0000
0001
1000
0000
0001
0000
,
0100
0000
0100
0000
0100
0000
0001
1000
0000
0001
0000
1000
0001
0000
2000
0000
,
000M
3M20
000M
M230
000M
00M0
M000
03M0
,
0001
0100
0001
1000
0001
0100
0010
1000
0000
0010
1000
0000
0010
0100
0010
0100
,
0001
1000
0000
0001
0000
0100
0001
0000
0000
0000
0001
0000
1000
0100
0010
0001
,
1000
0010
0000
1000
0000
0001
1000
0000
0000
0000
0001
0000
1000
0100
0010
0001
,
1000
0001
0100
0001
1000
0001
0100
0000
0000
0000
0000
0000
0001
0010
0100
1000
,
0001
0010
0001
1000
0001
0010
0001
1000
0001
0010
0100
0010
0100
0010
0100
0010
,
0100
0010
0100
0010
0100
0010
0100
0010
0100
0010
0100
0010
0100
0000
0000
0000
,
0010
0100
1000
0100
0010
0100
1000
0100
0010
0100
1000
0100
0010
0000
0000
0000
,
0010
0011
0110
1100
0000
0000
1001
0000
,
1001
0000
0000
1010
0000
0000
1001
0000
0000
0000
1000
0000
0001
0010
0001
0000
,
1001
0000
0000
0011
0000
0000
1001
0000
0000
0000
0001
0000
1000
0010
1000
0000
,
1001
0000
0000
1010
0000
0000
1001
0000
0000
0000
1000
0000
0001
0010
0001
0000
,
1001
0000
0000
0011
0000
0000
1001
0000
0000
0000
0001
0000
1000
0010
1000
0000
,
1010
0000
0000
0110
0000
0000
0011
0000
0000
0000
0001
0000
0010
0000
1000
0000
,
1010
0000
0000
0110
0000
0000
0011
0000
0000
0000
0010
0000
1000
0000
0100
0000
,
1100
0000
0000
0110
0000
0000
0101
0000
0000
0000
0100
0000
1000
0100
1000
0000
,
1100
0000
0000
1010
0000
0000
1001
0000
0000
0000
0001
0000
1000
0001
0100
0000
,
0001
0000
0100
0000
0010
0000
1000
0010
0000
1000
0000
0010
1000
0000
0010
0000
,
1000
0000
0100
0000
0010
0000
0001
0010
0000
0001
0000
0010
0001
0000
0010
0000
,
0001
0000
0100
0000
0010
0000
1000
0010
0000
1000
0000
0010
1000
0000
0010
0000
,
1000
0000
0100
0000
0010
0000
0001
0010
0000
0001
0000
0010
0001
0000
0010
0000
,
0001
0000
0010
0000
0100
0000
1000
0100
0000
1000
0000
0100
1000
0000
0100
0000
,
1000
0000
0010
0000
0100
0000
0001
0100
0000
0001
0000
0100
0001
0000
0100
0000
,
0001
0000
0010
0000
0100
0000
1000
0100
0000
1000
0000
0100
1000
0000
0100
0000
,
1000
0000
0010
0000
0100
0000
0001
0100
0000
0000
0001
0100
0001
0100
0001
0000
,
0100
0010
0000
0010
1000
0000
0000
0000
0001
0000
0100
0000
0010
0000
1000
0000
,
0001
0010
0001
0010
0100
1000
0100
1000
0001
0010
0100
1000
0100
0010
0001
1000
,
0001
0000
0001
0100
0010
0000
0010
1000
0100
0000
0000
0000
1100
0000
0000
0000
,
1000
0000
1000
0100
0010
0000
0010
0001
0100
0000
0000
0000
0101
0000
0000
0000
,
0001
0000
0001
0100
0010
0000
0010
1000
0100
0000
0000
0000
1100
0000
0000
0000
,
1000
0000
1000
0010
0100
0000
0100
0001
0010
0000
0000
0000
0011
0000
0000
0000
,
0001
0000
0001
0010
0100
0000
0110
0000
0000
0000
0100
0000
1000
0000
0010
0000
,
0100
0000
0100
0010
1000
0000
1010
0000
0000
0000
1000
0000
0100
0000
0010
0000
,
0001
0000
0001
0010
0100
0000
0110
0000
0000
0000
0010
0000
0001
0000
1000
0010
,
1000
0000
0001
1000
0001
0000
1000
0100
1000
0000
0001
0000
1001
0000
0000
0000
,
0001
0100
0001
1000
0001
0010
0001
1000
0000
1000
0001
0000
1000
0100
0010
0001
,
1000
0100
1000
0001
1000
0010
1000
0100
0000
0100
1000
0000
0001
0010
0100
1000
,
0001
0100
0001
1000
0001
0010
0001
1000
0000
1000
0001
0000
1000
0100
0010
0001
,
1000
0100
1000
0001
1000
0010
1000
0100
0000
0100
1000
0000
0001
0010
0100
1000
,
0001
0100
0001
1000
0001
0010
0001
1000
0000
1000
0001
0000
1000
0100
0010
0001
,
1000
0100
1000
0001
1000
0010
1000
0100
0000
0100
1000
0000
0001
0010
0100
1000
,
0001
0100
0001
1000
0001
0010
0001
1000
0000
1000
0001
0000
1000
0100
0010
0002
,
2000
0000
0000
3003
;
#NOTES:
     dance-single:
     Renard:
     Medium:
     9:
     0.566,0.642,0.195,0.054,0.306:
0000
0000
0000
0000
,
0000
0000
0000
0000
,
0000
0000
0000
0000
,
0000
0000
0000
0000
,
0000
0000
0000
0000
,
0000
0000
0000
0000
,
0000
0000
0000
0000
,
0000
0000
0000
0000
,
0001
0000
1000
0000
0100
0000
0000
0010
0000
0001
0000
0000
1000
0000
0010
0000
,
0100
0000
0001
0000
1000
0000
0000
0010
0000
0100
0000
0000
0010
0000
1000
0000
,
0100
0000
0010
0000
0001
0000
0000
1000
0000
0001
0000
0000
0100
0000
0010
0000
,
1000
0000
0001
0000
0010
0000
0000
0100
0000
1000
0000
0000
0001
0000
1000
0000
,
0010
0000
0100
0000
0001
0000
0000
0100
0000
0010
0000
0000
1000
0000
0100
0000
,
0010
0000
0001
0000
0010
0000
0000
0001
0000
1000
0000
0000
0010
0000
0100
0000
,
0001
0000
0100
0000
0010
0000
0000
1000
0000
0100
0000
0000
0010
0000
0002
0000
,
M000
02M3
M000
032M
M000
0M00
000M
0M30
,
0100
0100
0001
0001
1000
1000
0100
0000
,
0010
0010
0001
0001
1000
0000
1010
0000
,
1000
1000
0100
0100
0010
0000
0001
0000
,
0100
0100
0010
0010
1000
0000
1001
0000
,
1000
1000
0100
0100
0010
0000
0011
0000
,
0010
0010
0100
0100
1000
0000
1100
0000
,
1000
0010
1010
0000
0100
0001
0101
0000
,
0001
0010
0100
1000
0000
1001
1001
0000
,
1010
1001
0011
1001
,
1000
0010
0001
0010
1000
0000
1010
0000
,
1000
1000
0100
0100
0001
0001
0100
0100
,
1000
0000
1100
0000
0100
0010
0001
0000
,
0100
0100
0010
0010
1000
0100
0010
0001
,
0100
0100
0010
0010
1000
0100
0010
0001
,
1000
1000
0100
0100
0010
0010
0001
0001
,
1000
0000
0001
0100
0010
1000
0001
0000
,
1001
0000
0000
0000
,
0001
0000
0000
0010
0000
0000
0100
0000
0000
0000
1000
0000
0100
1000
0100
0000
,
1000
0000
0000
0010
0000
0000
0100
0000
0000
0000
0001
0000
0010
0000
0100
0000
,
1000
0000
0000
0100
0000
0000
0010
0000
0000
0000
0001
0000
0100
0001
0100
0000
,
0001
0000
0000
0100
0000
0000
0010
0000
0000
0000
1000
0000
0100
0000
1000
0000
,
0010
0000
0000
0100
0000
0000
0001
0000
0000
0000
1000
0000
0100
1000
0100
0000
,
1000
0000
0000
0010
0000
0000
0100
0000
0000
0000
0001
0000
1000
0001
1000
0000
,
0100
0000
0000
0010
0000
0000
0001
0000
0000
0000
1000
0000
0001
0000
0100
0000
,
0010
0000
0000
1000
0000
0000
0100
0000
0000
0000
0010
0000
0001
0000
0010
0000
,
0100
0000
1000
0000
0010
0000
0000
0100
0000
0001
0000
0000
0100
0000
0010
0000
,
1000
0000
0100
0000
0010
0000
0000
0001
0000
0010
0000
0000
0100
0000
1000
0000
,
0100
0000
0010
0000
0001
0000
0000
1000
0000
0010
0000
0000
0100
0000
0010
0000
,
1000
0000
0010
0000
0100
0000
0000
0001
0000
1000
0000
0000
0100
0000
1000
0000
,
0001
0000
0010
0000
0100
0000
0000
1000
0000
0010
0000
0000
0100
0000
0010
0000
,
1000
0000
0001
0000
0100
0000
0000
0010
0000
1000
0000
0000
0100
0000
0010
0000
,
0001
0000
0010
0000
0100
0000
0000
1000
0000
0001
0000
0000
0100
0000
0020
0000
,
000M
2M30
000M
32M0
000M
03M0
1001
00M0
,
0001
0000
0001
0000
0010
0000
0100
1000
0000
0000
1000
0000
0010
0000
0100
0000
,
0001
1000
0000
0001
0000
0100
0001
0000
0000
0000
0001
0000
1000
0100
0010
0000
,
0001
0010
0000
0001
0000
1000
0100
0000
0000
0000
0010
0000
0001
0000
0100
0000
,
0001
0000
0010
0000
0001
1000
0001
0000
0000
0000
0000
0000
0001
0010
0100
1000
,
0001
1000
0010
0100
0001
0001
1000
1000
,
0001
0001
1000
1000
0001
0001
1000
0000
,
0001
0010
0001
0010
0001
0010
0001
0010
0001
0010
0001
0010
0001
0000
0000
0000
,
0001
0010
0100
1000
0000
0000
1001
0000
,
0001
0000
0000
0100
0000
0000
0010
0000
0000
0000
1000
0000
0010
1000
0010
0000
,
1000
0000
0000
0100
0000
0000
0010
0000
0000
0000
0001
0000
0010
0000
0100
0000
,
1000
0000
0000
0100
0000
0000
0010
0000
0000
0000
0001
0000
1000
0001
1000
0000
,
0001
0000
0000
0100
0000
0000
0010
0000
0000
0000
1000
0000
0010
0000
0100
0000
,
0001
0000
0000
1000
0000
0000
0100
0000
0000
0000
0010
0000
0001
0010
0001
0000
,
0010
0000
0000
0100
0000
0000
1000
0000
0000
0000
0001
0000
0100
0000
0001
0000
,
0100
0000
0000
0010
0000
0000
1000
0000
0000
0000
0100
0000
1000
0100
1000
0000
,
0100
0000
0000
0010
0000
0000
0001
0000
0000
0000
1000
0000
0010
0000
0100
0000
,
0001
0001
1000
0100
0010
0000
0110
0000
,
0010
0000
0001
0000
0100
0000
0000
0010
0000
1000
0000
0000
0100
0000
0010
0000
,
0001
0001
1000
1000
0010
0000
0100
0000
,
0110
0000
0000
0000
0010
0000
0000
1000
0000
0100
0000
0000
0010
0000
0001
0000
,
0010
0001
0010
0100
0000
0100
1000
0010
,
0100
0001
0100
0010
0000
0010
1000
0100
,
0010
0001
0010
0001
0000
0001
1000
0010
,
0100
0101
0110
1010
,
1000
0100
0010
0001
0010
0100
1000
0001
,
1000
0000
1000
0000
0100
0000
0100
0000
0010
0000
0010
0000
0001
0010
0001
0000
,
1000
0100
0010
0001
1000
0000
1001
0000
,
0101
0000
0000
0110
0000
0000
0110
0000
0000
0000
0010
0000
1000
0010
1000
0000
,
0100
0010
0001
0010
0100
0000
1000
0000
,
1001
0000
0000
1010
0000
0000
1001
0000
0000
0000
1000
0000
0100
1000
0100
0000
,
1000
0000
0010
0100
0000
0001
0100
0010
,
0100
0000
0001
0000
0100
0000
0010
1000
,
0100
0010
0001
0010
0000
0010
0100
1000
,
0000
0001
0000
1000
0000
0010
1000
0000
,
0001
0000
1000
0000
0010
0000
1000
0001
0000
0000
1000
0000
0100
0000
0010
0000
,
0001
0000
1000
0000
0001
0000
0100
0001
0000
0000
1000
0000
0100
0000
0010
0000
,
0001
0000
1000
0000
0010
0000
1000
0001
0000
0000
1000
0000
0100
0000
0010
0000
,
0001
0000
1000
0001
0000
0100
0001
0000
0000
0000
1000
0000
0100
0000
0010
0000
,
0001
0000
1000
0010
0000
1000
0001
0000
0000
0000
1000
0000
0100
0000
0010
0000
,
0001
0000
1000
0001
0000
1000
0010
0000
0000
0000
1000
0000
0010
0000
0100
0000
,
0001
0000
1000
0001
0000
0100
0001
0000
0000
0100
0010
1000
0001
0000
2000
0000
,
0002
0000
0000
3003
;
#NOTES:
     dance-single:
     Renard:
     Easy:
     6:
     0.377,0.458,0.061,0.013,0.000:
0000
0000
0000
0000
,
0000
0000
0000
0000
,
0000
0000
0000
0000
,
0000
0000
0000
0000
,
0000
0000
0000
0000
,
0000
0000
0000
0000
,
0000
0000
0000
0000
,
0000
0000
0000
0000
,
0001
0000
1000
0100
1000
0000
1001
0000
,
0000
1000
0001
0100
,
0010
0000
1000
0001
1000
0000
0101
0000
,
1001
0000
1000
0100
,
0010
0001
0010
0001
0000
0000
0010
0000
,
0100
1000
0100
1000
0000
0000
0100
0000
,
1000
0010
1000
0010
0000
0000
0100
0000
,
0001
1000
0001
0000
,
1000
1000
0100
0100
,
0010
0000
0010
0000
0001
1000
0001
1000
,
0001
0001
0100
0100
,
0010
0000
0010
0000
1000
0001
1000
0001
,
1000
1000
0100
0100
,
0010
0100
0010
0000
0100
0010
0100
0000
,
0010
0010
0001
0001
,
1000
0001
1000
0001
0000
0000
0000
0000
,
1100
1100
0011
0011
,
0001
1000
0001
1000
0001
0000
1000
0000
,
0010
0000
1000
0000
0001
0100
0010
1000
,
0001
0000
0001
0000
,
1000
0100
1000
0000
0100
0000
0000
0000
,
0010
0001
0010
0000
0001
0000
0000
0000
,
1000
1000
0010
0010
,
0100
0001
1000
0100
,
0011
0000
0000
1100
0000
0000
0000
0000
,
1000
0000
1000
0000
1000
0000
0001
0100
,
0001
0000
0001
0000
0001
0000
1000
0100
,
1000
0000
1000
0000
1000
0000
0001
0010
,
0001
0000
0001
0000
0001
0000
1000
0010
,
1000
0000
1000
0000
1000
0000
0001
0100
,
0001
0000
0001
0000
0001
0000
0100
0010
,
0100
0000
0100
0000
0100
0000
0010
1000
,
0010
1000
0100
0010
,
0001
1000
0001
1000
0001
0000
1000
0000
,
0000
0001
0000
0100
,
0010
0100
0010
0100
0010
0000
1000
0000
,
0000
0001
0000
0100
,
0001
1000
0100
1000
0000
0000
0000
0000
,
1000
0001
0100
0001
0000
0000
0000
0000
,
1000
0001
0010
0001
0000
0000
0000
0000
,
0001
1000
0010
0000
1000
0000
0001
0000
,
0100
0100
0010
0010
,
0100
0100
0010
0010
,
1000
0010
1000
0010
0000
0000
1000
0000
,
0001
0100
0001
0100
0000
0000
0001
0000
,
1000
1000
1000
1000
1000
1000
1000
1000
,
1000
1000
1000
1000
1000
1000
1000
0000
,
0001
0001
0001
0001
0001
0001
0001
0000
,
0000
0100
0010
0100
0000
0000
0000
0000
,
0001
0000
0100
0000
0010
0000
1000
0010
,
1000
0000
0100
0000
0010
0000
0001
0010
,
0001
0000
0010
0000
0100
0000
1000
0001
,
1000
0000
0001
0000
0100
0000
0010
1000
,
0010
0000
1000
0000
0100
0000
0010
0001
,
0010
0000
0001
0000
0100
0000
0010
1000
,
0010
0000
1000
0000
0100
0000
0010
0001
,
0010
0001
1000
0010
,
1000
1000
0001
0001
,
0000
0100
0000
0010
,
1000
0010
1000
0010
1000
0000
0010
0000
,
0100
0001
0000
1000
,
0001
0010
0001
0010
0000
0000
0100
0000
,
1000
0100
1000
0100
0000
0000
1000
0000
,
0100
0010
0001
1000
,
0001
0100
0010
1000
,
0001
0100
0001
0100
0000
0001
0100
0000
,
0001
1000
0001
1000
0001
1000
0001
1000
,
0100
0000
0100
1000
0001
0000
1000
0000
,
0000
0001
0000
0100
,
0010
0000
1000
0010
1000
0000
0010
0000
,
0000
0100
0000
0001
,
1000
0100
1000
0100
0000
0000
1000
0000
,
0001
0100
0001
0100
0000
0000
0001
0000
,
1000
0100
0010
0001
,
1000
0000
1000
0000
0001
0100
0001
0000
,
1000
0001
1000
0001
0000
0000
1000
0000
,
0010
0100
0010
0100
0000
0000
0010
0000
,
1000
0001
1000
0001
0000
0000
1000
0000
,
0010
0100
0010
0100
0000
0000
0010
0000
,
1000
0001
1000
0001
0000
0000
1000
0000
,
0010
0100
0010
0100
0000
0000
0010
0000
,
1000
0001
1000
0001
0000
1000
0001
0100
,
0020
0000
0000
0200
0000
0000
0330
0000
;
#NOTES:
     dance-single:
     Renard:
     Beginner:
     3:
     0.230,0.275,0.007,0.013,0.000:
0000
0000
0000
0000
,
0000
0000
0000
0000
,
0000
0000
0000
0000
,
0000
0000
0000
0000
,
0000
0000
0000
0000
,
0000
0000
0000
0000
,
0000
0000
0000
0000
,
0000
0000
0000
0000
,
0001
0010
0100
1000
,
0000
1000
0000
1000
,
1000
0100
0010
0001
,
0000
0001
0000
0001
,
0001
0100
0010
1000
,
1000
0010
0100
0001
,
0001
0010
0100
1000
,
1000
0100
0010
0000
,
0001
0000
0001
0000
,
1000
0000
1000
0000
,
0010
0010
0100
0100
,
0010
0010
0100
0000
,
0001
0000
0001
0000
,
1000
0000
1000
0000
,
0100
0100
0010
0010
,
0001
0000
0001
0000
,
1000
0010
1000
0010
,
0100
0100
0100
0100
,
0001
0000
1000
0100
,
0010
0000
0010
0000
,
0001
0001
0001
0000
,
1000
1000
1000
0000
,
0010
0010
0100
0100
,
0010
1000
0010
0100
,
0001
0000
0000
0000
,
1000
1000
1000
0000
,
0001
0001
0001
0000
,
0100
0100
0100
0000
,
0010
0010
0010
0000
,
1000
0010
1000
0000
,
0001
0100
0001
0000
,
1000
0100
1000
0000
,
0001
0010
0001
0000
,
1000
0100
0010
0010
,
0000
0010
0000
0010
,
0001
0100
0010
0010
,
0000
0010
0000
0010
,
1000
1000
1000
0000
,
0001
0001
0001
0000
,
0100
0100
0100
0000
,
0010
0010
0010
0000
,
1000
0000
1000
0000
,
0010
0000
0010
0000
,
0100
0000
0100
0000
,
0001
0000
0001
0000
,
1000
1000
1000
1000
,
1000
1000
1000
1000
,
0100
0100
0100
0100
,
0000
0010
0001
0000
,
1000
0000
1000
0000
,
0001
0100
0010
1000
,
0001
0000
0001
0000
,
1000
0010
0100
0001
,
1000
0000
1000
0000
,
1000
0100
0010
0001
,
0001
0000
0001
0000
,
0001
0010
0100
1000
,
0001
0100
0010
0010
,
0000
1000
0000
0001
,
0100
0100
0010
1000
,
0001
0000
0001
0000
,
1000
0100
0010
0000
,
0001
0010
0100
0000
,
1000
0010
0100
0000
,
0001
0100
0010
0000
,
1000
0000
1000
0000
,
0001
0000
0001
0000
,
0100
0100
0100
0100
,
0000
0010
0000
0100
,
0001
0001
0001
0001
,
0000
1000
0000
1000
,
0001
0001
0001
0000
,
1000
1000
1000
0000
,
0100
0100
0100
0000
,
0010
0000
0001
0000
,
1000
0000
1000
0000
,
0001
0000
0001
0000
,
0100
0000
0100
0000
,
0010
0000
0010
0000
,
1000
0000
1000
0000
,
0001
0000
0001
0000
,
0100
0000
0100
0000
,
2002
0000
0000
3003
;
