#TITLE:Sayonara;
#SUBTITLE:;
#ARTIST:Toy-Box;
#TITLETRANSLIT:;
#SUBTITLETRANSLIT:;
#ARTISTTRANSLIT:;
#CRChallenge:;
#BANNER:sayonara.png;
#BACKGROUND:sayonara-bg.png;
#LYRICSPATH:;
#CDTITLE:!cdtitle.png;
#MUSIC:sayonara.ogg;
#OFFSET:0.000;
#SAMPLESTART:14.465;
#SAMPLELENGTH:12.000;
#SELECTABLE:YES;
#BPMS:0.000=132.000;
#STOPS:;
#BGCHANGES:;
#NOTES:
     dance-single:
     Renard:
     Medium:
     7:
     0.515,0.536,0.340,0.690,0.005:
0000
0000
0000
0000
,
0000
0000
0000
0000
,
0000
0000
0000
0000
,
0000
0000
0000
0000
,
0000
0000
0000
0000
,
0000
0000
0000
0000
,
0000
0000
0000
0000
,
0000
0001
0010
0100
1000
0000
1000
0000
,
2000
3100
0001
0200
0310
0001
0010
2000
,
3010
0002
0013
0100
1000
0000
1001
0000
,
0002
0013
1000
0020
0130
1000
0100
0002
,
0103
2000
3100
0010
0001
0000
1001
0000
,
0020
0031
0100
0002
1003
0100
1000
0020
,
1030
0200
1300
0001
0010
0000
0110
0000
,
0200
1300
0010
2000
3001
0010
0001
0200
,
0301
0020
0031
1000
0001
0000
0110
0000
,
0020
1030
0100
2000
3001
0100
0001
0020
,
0031
0200
0301
1000
0010
0000
0110
0000
,
0200
0301
0010
0002
1003
0010
1000
0200
,
1300
0020
1030
0001
0100
0000
0110
0000
,
0002
0103
1000
0200
0310
1000
0010
0002
,
0013
2000
3010
0100
0001
0000
1001
0000
,
2000
3010
0001
0020
0130
0001
0100
2000
,
3100
0002
0103
0010
1000
0000
1001
0000
,
0200
0000
0310
2000
0000
0000
3100
0000
,
0020
0000
0031
0200
0000
0000
0310
0000
,
2000
0000
3100
0020
0000
0031
0200
0000
,
0320
0000
1030
0200
0000
0000
0310
0000
,
0002
0000
1003
0020
0000
0000
0230
0000
,
0302
0000
0013
0200
0000
0000
1300
0000
,
0020
0000
0130
0002
0000
0000
0013
0000
,
0200
0000
1300
0020
0000
0000
0230
0000
,
0301
0000
0100
0010
0000
0010
1000
0000
,
0100
0000
0010
0001
1000
0010
0100
0001
,
1001
0000
0110
0000
1010
0000
0101
0010
,
1100
0000
0001
1001
0000
0000
1000
0010
,
0110
0000
1001
0000
0110
0000
1001
0100
,
1001
0000
0011
0000
0001
1000
0010
0100
,
1010
0000
0101
0000
1001
0000
1100
0001
,
0110
0000
0010
1001
0000
1000
0100
0010
,
1001
0000
0110
0000
1010
0100
0001
0020
,
0100
0000
0000
0000
0100
0000
0000
0000
0130
0000
0000
0010
0100
0000
1000
0000
,
0002
0103
1000
0200
0000
0310
2000
3020
,
0030
0012
0000
0013
1000
0100
0001
0100
,
0020
0031
0010
2000
0000
3010
0002
0023
,
0000
0130
1000
0100
0002
0003
2100
3000
,
0201
0000
0301
0100
0000
0100
1000
0010
,
0000
0021
0000
0031
0010
1000
0100
0010
,
0001
0000
0001
0020
1030
0010
0100
2000
,
0000
3010
0100
0001
0010
0100
2001
0000
,
0020
0000
0000
0000
,
3030
0000
0000
0000
;
#NOTES:
     dance-single:
     Renard:
     Hard:
     8:
     0.570,0.587,0.330,0.700,0.045:
0000
0000
0000
0000
,
0000
0000
0000
0000
,
0000
0000
0000
0000
,
0000
0000
0000
0000
,
0000
0000
0000
0000
,
0000
0000
0000
0000
,
0000
0000
0000
0000
,
0000
0001
0010
0100
1000
0000
1000
0000
,
2000
3100
0001
0200
0310
0001
0010
2000
,
3010
0000
0002
0000
0013
0000
0100
0000
1000
0001
1000
0000
1001
0000
1000
0000
,
0002
0013
1000
0020
0130
1000
0100
0002
,
0103
0000
2000
0000
3100
0000
0010
0000
0001
1000
0001
0000
1001
0000
0001
0000
,
0020
0031
0100
0002
1003
0100
1000
0020
,
1030
0000
0200
0000
1300
0000
0001
0000
0010
0100
0010
0000
0110
0000
0010
0000
,
0200
1300
0010
2000
3001
0010
0001
0200
,
0301
0000
0020
0000
0031
0000
1000
0000
0001
1000
0001
0000
0110
0000
0100
0000
,
0020
1030
0100
2000
3001
0100
0001
0020
,
0031
0000
0200
0000
0301
0000
1000
0000
0010
0100
0010
0000
0110
0000
0010
0000
,
0200
0301
0010
0002
1003
0010
1000
0200
,
1300
0000
0020
0000
1030
0000
0001
0000
0100
0010
0100
0000
0110
0000
0100
0000
,
0002
0103
1000
0200
0310
1000
0010
0002
,
0013
0000
2000
0000
3010
0000
0100
0000
0001
1000
0001
0000
1001
0000
0001
0000
,
2000
3010
0001
0020
0130
0001
0100
2000
,
3100
0000
0002
0000
0103
0000
0010
0000
1000
0001
1000
0000
1001
0000
0001
0000
,
0200
0000
0310
2000
0000
0000
3100
0000
,
0020
0000
0031
0200
0000
0000
0310
0000
,
2000
0000
3100
0020
0000
0031
0200
0000
,
0320
0000
1030
0200
0000
0000
0310
0000
,
0002
0000
1003
0020
0000
0000
0230
0000
,
0302
0000
0013
0200
0000
0000
1300
0000
,
0020
0000
0130
0002
0000
0000
0013
0000
,
0200
0000
1300
0020
0000
0000
0230
0000
,
0301
0000
0100
0010
0000
0010
1000
0000
,
0100
0000
0010
0001
1000
0010
0100
0001
,
1001
0100
1010
0001
0110
1000
0101
0010
,
1100
0000
0001
1001
0000
0010
1000
0010
,
1010
0100
1001
0010
0101
0010
1001
0100
,
1001
0000
0011
0000
0001
1000
0010
0100
,
1001
0010
1100
0010
1001
0100
1010
0001
,
0110
0000
0010
1001
0000
1000
0100
0010
,
1001
0000
0110
0000
1010
0100
0001
0020
,
0100
0000
0000
0000
0100
0000
0000
0000
0130
0000
0000
0010
0100
0000
1000
0000
,
0002
0103
1000
0200
0010
0310
2000
3020
,
0030
0012
0010
0013
1000
0100
0001
0100
,
0020
0031
0010
2000
0001
3020
0032
0023
,
0000
0130
1000
0100
0002
0003
2100
3000
,
0201
0000
0301
0100
0010
0100
1000
0010
,
0000
0021
0000
0031
0100
1000
0100
0010
,
0001
0000
0001
0020
1030
0010
0100
2000
,
0001
3010
0100
0001
0010
0100
2000
0000
,
0020
0000
0000
0000
,
3030
0000
0000
0000
;
#NOTES:
     dance-single:
     Renard:
     Easy:
     5:
     0.242,0.275,0.020,0.000,0.000:
0000
0000
0000
0000
,
0000
0000
0000
0000
,
0000
0000
0000
0000
,
0000
0000
0000
0000
,
0000
0000
0000
0000
,
0000
0000
0000
0000
,
0000
0000
0000
0000
,
0000
0000
0000
0000
,
1000
0000
0001
0100
0000
0000
0001
1000
,
0000
0100
0000
0000
1000
0000
0001
0000
,
0100
0000
0010
1000
0000
0000
0001
0010
,
0000
0100
1000
0001
,
0100
0000
0010
1000
0000
0000
0001
0100
,
0000
0001
0000
0000
1000
0000
0100
0000
,
0010
0000
0001
1000
0000
0000
0010
1000
,
0000
0001
0100
0010
,
1000
0000
0100
0010
0000
0000
0001
0010
,
0000
0100
0000
0000
1000
0000
0010
0000
,
0100
0000
0001
1000
0000
0000
0010
0100
,
0000
0010
1000
0100
,
0010
0000
0001
0010
0000
0000
0100
1000
,
0000
0001
0000
0000
0100
0000
0010
0000
,
1000
0000
0001
0100
0000
0000
0010
1000
,
0000
0010
1000
0100
,
0010
0000
0001
0010
0000
0000
0001
0000
,
0010
0000
0001
0010
0000
0000
0001
0000
,
0010
0000
0000
0100
0000
0000
1000
0000
,
0010
0000
0000
0100
0000
0000
0001
0000
,
0010
0000
0000
0001
0000
0000
0010
0000
,
0100
0000
0000
1000
0000
0000
0010
0000
,
0100
0000
0000
0001
0000
0000
0010
0000
,
0100
0000
0000
1000
0000
0000
0010
0000
,
0100
0100
0010
0010
,
1000
1000
0001
0001
,
1000
0000
1100
0000
0010
0000
0001
0010
,
0100
0000
1000
0100
0000
0000
1000
0000
,
0001
0000
0100
0000
0010
0000
1000
0001
,
0000
0000
1000
0000
0100
0000
0010
0001
,
0010
0100
1000
0001
,
0100
0000
0010
1000
0000
0000
0100
0000
,
0010
0000
0001
0000
0010
0000
0100
1000
,
0001
0001
0001
0100
,
0010
0000
1000
0010
0000
0000
0100
0001
,
0000
1000
0000
0000
0100
0000
0010
0000
,
0001
0000
1000
0010
0000
0000
0100
0001
,
0000
1000
0100
0010
,
0001
0000
0010
0100
0000
0000
1000
0100
,
0000
0010
0000
0000
0001
0000
1000
0000
,
0010
0000
0100
0001
0000
0000
0100
0010
,
0000
0000
1000
0100
0010
0000
0001
0000
,
1001
0000
0000
0000
;
#NOTES:
     dance-single:
     Renard:
     Beginner:
     2:
     0.120,0.175,0.000,0.020,0.000:
0000
0000
0000
0000
,
0000
0000
0000
0000
,
0000
0000
0000
0000
,
0000
0000
0000
0000
,
0000
0000
0000
0000
,
0000
0000
0000
0000
,
0000
0000
0000
0000
,
0000
0000
0000
0000
,
1000
0000
0001
0000
,
0100
0000
0000
0000
,
0001
0000
1000
0000
,
0100
0000
0000
0000
,
0010
0000
0001
0000
,
1000
0000
0000
0000
,
0010
0000
1000
0000
,
0001
0000
0000
0000
,
1000
0000
0100
0000
,
0001
0000
0000
0000
,
1000
0000
0010
0000
,
0001
0000
0000
0000
,
0001
0000
0100
0000
,
1000
0000
0000
0000
,
0001
0000
0010
0000
,
1000
0000
0001
1000
,
0200
0000
0000
0000
,
0000
0000
0000
0000
,
1300
0000
1000
0000
,
0001
0001
0001
0000
,
0100
0000
0100
0000
,
0010
0010
0010
0000
,
1000
0000
1000
0000
,
0010
0000
0010
0000
,
0100
0000
0100
0000
,
0001
0001
0001
1000
,
0100
0100
1000
0000
,
0100
0000
1000
0000
,
0001
0001
0010
0000
,
0001
0000
0010
0000
,
0100
0100
1000
0000
,
0100
0000
1000
0000
,
0001
0001
0100
0000
,
0020
0000
0000
0000
,
1030
0000
1000
0000
,
1000
0000
0000
0000
,
0001
0000
0001
0000
,
0001
0000
0000
0000
,
0100
0000
0010
0000
,
0100
0000
0000
0000
,
0010
0000
0100
0000
,
0010
1000
0010
0100
,
0001
0000
0000
0000
;
