#TITLE:Save Our Souls;
#SUBTITLE:;
#ARTIST:Darwin feat. Justin;
#TITLETRANSLIT:;
#SUBTITLETRANSLIT:;
#ARTISTTRANSLIT:;
#GENRE:;
#CRChallenge:;
#MENUCOLOR:;
#BANNER:souls.jpg;
#BACKGROUND:souls-bg.jpg;
#LYRICSPATH:;
#CDTITLE:;
#MUSIC:souls.ogg;
#OFFSET:0.000;
#SAMPLESTART:52.364;
#SAMPLELENGTH:12.000;
#SELECTABLE:YES;
#LISTSORT:;
#BPMS:0.000=165.000;
#STOPS:;
#TICKCOUNT:0.000=2;
#BGCHANGES:;
#KEYSOUNDS:;
#ATTACKS:;
#NOTES:
     dance-single:
     Renard:
     Medium:
     8:
     0.509,0.552,0.019,0.386,0.085:
0000
0000
0000
0000
,
0000
0000
0000
0000
,
0000
0000
0000
0000
,
0000
0000
0000
0000
,
2000
0000
3100
0000
0010
0001
0100
0000
,
0002
0000
0013
0000
0010
0100
1000
0000
,
0020
0000
0130
0000
0001
0010
0100
1000
,
0020
0130
0020
0130
,
0002
0000
0013
0000
0100
1000
0010
0100
,
0002
0000
1003
0000
0100
0010
0001
0000
,
2000
3010
2000
3010
,
0200
0000
0301
0000
0010
0001
0010
0000
,
0002
0000
0013
0000
0100
1000
0100
0000
,
2000
0000
3100
0000
0010
0001
0010
0000
,
0002
0000
0103
0000
0010
1000
0010
0000
,
2000
0000
3100
0000
0010
0001
0010
0000
,
0002
0000
1000
0000
0100
0000
0013
0001
,
0020
0000
0100
0000
1000
0000
0130
1000
,
0010
0100
0001
0010
0100
1000
0010
0100
,
0001
0010
0001
0010
0100
1000
0100
1000
,
0002
0000
0000
0000
,
0020
0000
0003
0000
,
0200
0000
0030
0000
,
2000
0000
0300
0000
,
0020
0000
3000
0000
,
0200
0000
0030
0000
,
0002
0000
0300
0000
,
0020
0000
0003
0000
,
0130
1000
0100
1000
0100
1000
0100
1000
,
0010
1000
0010
1000
0010
1000
0100
1000
,
0001
1000
0001
1000
0001
1000
0001
1000
,
0010
1000
0010
1000
0010
1000
0010
1000
,
0001
0100
0001
0100
0001
0100
0001
0100
,
0001
0010
0001
0010
0001
0010
0001
1000
,
0001
0100
0001
0100
0001
0100
0001
0100
,
0001
1000
0001
1000
0001
1000
0001
0000
,
1000
0000
0000
0000
0100
0000
0010
0000
0000
0000
0001
0000
0000
0010
0000
0100
,
1000
0000
0000
0000
0001
0000
0010
0000
0000
0000
0100
0000
0000
1000
0000
0010
,
1000
0000
0000
0000
0010
0000
0100
0000
0000
0000
0001
0000
0000
1000
0000
0100
,
1000
0000
0000
0000
0001
0000
0010
0000
0000
0000
0001
0000
0000
1000
0000
0010
,
0100
0000
0000
0000
0001
0000
0100
0000
0000
0000
0010
0000
0000
1000
0000
0001
,
0100
0000
0000
0000
0001
0000
1000
0000
0000
0000
0100
0000
0000
1000
0000
0001
,
0010
0000
0000
0000
0001
0000
1000
0000
0000
0000
0100
0000
0000
1000
0000
0001
,
1000
0000
0000
0000
0001
0000
0010
0000
0000
0000
0001
0000
0000
1000
0000
0010
,
1000
0000
0000
0101
0000
0000
0001
0010
,
0100
0000
1000
0100
0000
1000
0000
0001
,
0010
0000
0001
1000
0000
0010
0000
1000
,
0001
0000
0100
0001
0000
1000
0000
0100
,
1000
0000
0001
0010
0000
0001
0000
1000
,
0010
0000
1000
0001
0000
0010
0000
0100
,
1000
0000
0000
0000
0100
0000
0010
0000
0000
0000
0001
0000
1000
0001
1000
0001
,
2000
0000
0000
0000
,
0010
0010
0010
3010
,
1000
0010
0100
0001
0020
0000
0031
0000
,
0010
0001
0010
0100
2000
0000
3010
0000
,
0100
0001
0010
0100
0020
0000
0031
0000
,
2000
0000
3100
0000
0010
0001
1000
0000
,
0010
0100
0001
0010
0200
0000
0310
0000
,
0001
0010
0100
1000
0020
0000
0130
0000
,
0010
1000
0100
0010
0002
0000
0013
0000
,
0200
0000
0000
0000
0000
0000
0000
0000
0000
0000
0000
0000
1300
0000
0000
0000
0000
0000
0000
0000
0000
0000
0000
0000
0020
0000
0000
0000
0000
0000
0000
0000
0000
0000
0000
0030
0020
0000
0000
0000
0000
0000
0000
0000
0000
0000
0000
0000
,
1030
0010
0100
0010
1000
0000
0010
0000
,
1000
0010
0100
0010
2000
0000
3010
0000
,
0100
0001
0100
0010
0100
0000
0001
0000
,
0100
0010
0100
0001
0200
0000
0310
0000
,
0100
0001
0010
0100
1000
0000
0100
0000
,
1000
0100
0010
0001
0020
0000
0031
0000
,
0010
0100
2000
0000
3001
0010
0100
0000
,
2002
0000
0000
0000
,
3003
0000
0000
0000
;
#NOTES:
     dance-single:
     JS:
     Beginner:
     5:
     0.358,0.455,0.546,0.170,0.000:
0000
0000
0000
0000
,
0000
0000
0000
0000
,
0000
0000
0000
0000
,
0000
0000
0000
0000
,
0100
1100
1000
1001
,
1000
1010
0010
0110
,
0010
0011
0001
1001
,
0001
0101
0100
0110
,
0100
0101
0001
1001
,
0001
0011
0010
0110
,
0010
1010
1000
1001
,
1000
1100
0100
0100
,
1000
1010
1000
1010
,
0100
1100
0100
1100
,
0001
0101
0001
0101
,
0010
0011
0010
0011
,
1001
0001
0100
1000
,
1001
1000
0010
0001
,
1001
0100
0010
1000
,
0001
0010
0100
1000
,
0002
0000
0000
0003
,
0200
0000
0000
0300
,
2000
0000
0000
3000
,
0020
0000
0000
0030
,
0002
0000
0000
0003
,
0200
0000
0000
0300
,
0020
0000
0000
0030
,
2000
0000
0000
3000
,
0000
0001
0100
1000
,
0000
1000
0100
0001
,
0000
0100
1000
0010
,
0000
0010
1000
0100
,
0000
1000
0010
0001
,
0000
0001
0010
1000
,
0000
0010
0001
0100
,
0000
0100
0001
0010
,
0002
0000
0000
0003
,
0200
0000
0000
0300
,
2000
0000
0000
3000
,
0020
0000
0000
0030
,
0002
0000
0000
0003
,
0020
0000
0000
0030
,
2000
0000
0000
3000
,
0200
0000
0000
0300
,
0001
0100
0001
0000
,
0100
0010
0100
0000
,
0010
0001
0010
0000
,
0001
1000
0001
0000
,
1000
0010
1000
0000
,
0010
0100
0010
0000
,
0100
1000
0100
0000
,
1000
0001
1000
0000
,
1001
0000
0000
0000
,
0100
1100
0100
0110
,
0100
0101
0100
0110
,
0100
1100
0100
0110
,
0100
0101
0100
0110
,
0010
1010
0010
0110
,
0010
0011
0010
0110
,
0010
1010
0010
0110
,
0010
0011
0010
0110
,
0001
0101
0001
0101
,
1000
1010
1000
1010
,
0001
0011
0001
0011
,
1000
1100
1000
1100
,
0001
0101
0010
0011
,
1000
1010
0100
1100
,
0001
0101
1000
1010
,
2002
0000
0000
0000
,
3003
0000
0000
0000
;
#NOTES:
     dance-single:
     JS:
     Easy:
     6:
     0.428,0.455,0.264,0.113,0.000:
0000
0000
0000
0000
,
0000
0000
0000
0000
,
0000
0000
0000
0000
,
0000
0000
0000
0000
,
1000
0100
0010
0000
0001
0000
1100
0000
,
1000
0010
0100
0000
0001
0000
1010
0000
,
0100
0010
1000
0000
0001
0000
0110
0000
,
1000
0100
0010
0000
0100
0000
1001
0000
,
0001
0100
0010
0000
1000
0000
0101
0000
,
0001
0010
0100
0000
1000
0000
0011
0000
,
0100
0010
0001
0000
1000
0000
0110
0000
,
0001
0100
0010
0000
0100
0000
0100
0000
,
0001
0000
0101
0000
0001
0100
0010
0000
,
0100
0000
0110
0000
0100
0010
1000
0000
,
0010
0000
1010
0000
1000
0001
0010
0000
,
0001
0000
0011
0000
0001
0010
0100
0000
,
1000
0100
0010
0000
0001
0000
0001
0000
,
1000
0010
0100
0000
0001
0000
0001
0000
,
1000
0100
1000
0000
0001
0010
0001
0000
,
1001
0000
1000
1000
,
0002
0000
0000
0000
,
0203
0000
0000
0000
,
2300
0000
0000
0000
,
3020
0000
0000
0000
,
0032
0000
0000
0000
,
0023
0000
0000
0000
,
0230
0000
0000
0000
,
2300
0000
0000
0000
,
3000
0000
0001
0000
0100
0000
0010
0100
,
0000
0000
0010
0000
1000
0000
0010
0100
,
0000
0000
0001
0000
1000
0000
0010
1000
,
0000
0000
0001
0000
0010
0000
0100
1000
,
0000
0000
1000
0000
0100
0000
0010
0100
,
0000
0000
0010
0000
0001
0000
0010
0100
,
0000
0000
1000
0000
0001
0000
0010
0001
,
0000
1000
0010
0110
,
0001
0000
0010
0100
0000
0010
0001
0000
,
0001
0000
1000
0100
0000
1000
0001
0000
,
1000
0000
0010
0100
0000
0010
1000
0000
,
1000
0000
0001
0100
0000
0001
1000
0000
,
0001
0000
0100
0010
0000
1000
0001
0000
,
0001
0000
0010
0100
0000
1000
0001
0000
,
1000
0000
0100
0010
0000
0001
1000
0000
,
1000
0000
0010
0100
0000
0001
1000
0000
,
0001
0000
0000
0100
0000
0100
0001
0000
,
0001
0000
1000
0100
0000
0010
0001
0000
,
1000
0000
0001
0010
0000
0100
1000
0000
,
1000
0000
0001
0100
0000
0010
1000
0000
,
0001
0000
0010
1000
0000
0100
0001
0000
,
0001
0000
0100
1000
0000
0010
0001
0000
,
1000
0000
0010
0001
0000
0100
1000
0000
,
0001
0100
0010
0000
1000
0010
0100
0000
,
2002
0000
0000
3003
,
1000
0100
0001
0000
0100
0000
1100
0000
,
0100
0001
0010
0000
0001
0000
0101
0000
,
0001
0010
1000
0000
0010
0000
0011
0000
,
0010
1000
0100
0000
1000
0000
1010
0000
,
0001
0100
1000
0000
0100
0000
0101
0000
,
0100
1000
0010
0000
1000
0000
1100
0000
,
1000
0010
0001
0000
0010
0000
1010
0000
,
0010
0001
0100
0000
0011
0000
0011
0000
,
1000
0000
1100
0000
0010
1000
0100
0000
,
0010
0000
1010
0000
0001
0010
1000
0000
,
0001
0000
0011
0000
0100
0001
0010
0000
,
0100
0000
0101
0000
1000
0100
0001
0000
,
1000
0100
0010
0100
1000
0000
0001
0000
,
1000
0010
0100
0010
1000
0000
0001
0000
,
1000
0100
0010
0000
0001
0100
0010
0000
,
2002
0000
0000
0000
,
3003
0000
0000
0000
;
