#TITLE:Save Me;
#SUBTITLE:;
#ARTIST:Darren Styles;
#TITLETRANSLIT:;
#SUBTITLETRANSLIT:;
#ARTISTTRANSLIT:;
#CRChallenge:;
#BANNER:save-banner.avi;
#BACKGROUND:save-bg.png;
#LYRICSPATH:;
#CDTITLE:;
#MUSIC:save.ogg;
#OFFSET:0.020;
#SAMPLESTART:54.253;
#SAMPLELENGTH:12.000;
#SELECTABLE:YES;
#DISPLAYBPM:85:170;
#BPMS:0.000=170.000,64.000=85.000,96.000=170.000,252.000=680.000,263.000=169.996,264.000=170.001;
#STOPS:263.000=0.100
;
#BGCHANGES:;
#NOTES:
     dance-single:
     Renard:
     Hard:
     12:
     0.712,1.000,0.205,0.447,0.531:
0000
0000
0000
0000
,
0000
0000
0000
0000
,
0000
0000
0000
0000
,
0000
0000
0000
0000
,
0001
0010
0100
1000
0001
0010
0100
1000
0001
0010
0001
0010
0100
1000
0100
1000
,
0001
0100
0010
1000
0001
0100
0010
1000
0001
0100
0001
0100
0010
1000
0010
1000
,
0001
0010
0001
1000
0001
0010
0001
1000
0001
0010
0001
0010
0001
1000
0001
1000
,
0001
0100
0001
1000
0001
0010
0001
0100
0001
1000
0100
0010
0001
1000
0100
0010
,
0001
0010
1000
0010
0001
0100
1000
0100
,
0001
0010
0100
1000
0010
0000
1010
0000
,
1000
0100
0001
0100
1000
0010
0001
0010
,
1000
0100
0010
0001
1000
0000
1001
0000
,
0001
0010
0100
0000
0100
1000
0010
0000
,
0100
0010
1000
0100
0010
0000
0110
0000
,
0100
1000
1100
0000
1000
0010
1010
0000
,
0001
1000
0001
1000
0001
1000
0001
1000
0001
1000
0001
1000
0001
1000
0001
1000
0001
1000
0001
1000
0001
1000
0001
1000
,
0002
0000
0000
0000
0203
0000
0320
2030
,
0000
3200
0000
0000
0320
0000
0032
0023
,
0000
0000
0032
2003
,
3020
0000
0000
0000
0230
0000
0000
0302
,
0020
0000
0003
0000
0230
0000
2300
3020
,
0000
0230
0000
0302
0000
0000
2003
3200
,
0000
0000
0000
0000
0000
0000
0320
0032
,
0000
0000
0000
0000
0000
0000
1003
0001
1000
0000
0001
0000
1000
0000
1000
0000
,
0001
1000
0001
1000
0001
1000
0001
1000
0001
1000
0001
1000
0001
1000
0001
1000
,
0001
1000
0001
1000
0001
1000
0001
1000
0001
1000
0001
1000
0001
1000
0001
1000
,
0001
1000
0001
1000
0001
1000
0001
1000
0001
1000
0001
1000
0001
1000
0001
1000
,
0001
1000
0001
1000
0001
1000
0001
1000
0001
1000
0001
1000
0001
1000
0001
1000
,
0001
0100
0001
0100
0001
0100
0001
0100
0001
0100
0001
0100
0001
0100
0001
0100
,
0010
1000
0010
1000
0010
1000
0010
1000
0010
1000
0010
1000
0010
1000
0010
1000
,
0100
1000
0100
1000
0100
1000
0100
1000
0001
0010
0001
0010
0001
0010
0001
0010
,
0100
1000
0001
0010
0001
1000
0100
0010
0001
1000
0100
1000
0001
0010
0100
1000
,
0001
0010
0200
0000
0001
0000
0010
2300
,
0000
0001
0000
3020
0000
0100
0000
1000
,
2030
0000
0100
0000
3002
0000
0010
0010
,
0000
0203
0000
0010
0000
1000
0000
0001
,
0302
0000
0010
0000
2003
0000
0100
3200
,
0000
0001
0000
0010
0000
1000
0000
0010
,
0320
0000
0001
0000
1000
0000
0230
0001
,
0000
0001
0000
0010
0000
1000
1300
0100
,
1000
0100
0020
0000
1000
0000
0100
0032
,
0000
1000
0000
0203
0000
0010
0000
0001
,
0302
0000
0010
0000
2003
0000
0100
0100
,
0000
3020
0000
0100
0000
0001
0000
1000
,
2030
0000
0100
0000
3002
0000
0010
0023
,
0000
1000
0000
0100
0000
0001
0000
0100
,
0230
0000
1000
0000
0001
0000
0320
1000
,
0000
1000
0000
0100
0000
0001
0031
0010
,
0001
0010
1000
0010
0001
0010
1000
0010
,
0001
0010
1000
0010
0001
0000
0011
0000
,
0001
0100
1000
0100
0001
0100
1000
0100
,
0001
0100
1000
0100
0001
0101
0101
0000
,
0001
0100
0010
0100
1000
0000
1100
0000
,
1000
0100
0010
0100
0001
0000
0101
0000
,
0001
0010
0100
0010
1000
0000
1010
0000
,
0010
0000
0100
0000
0110
0000
0000
0000
0011
0000
0000
0110
0000
0000
1100
0000
,
1000
0100
0010
0100
0001
0000
0101
0000
,
0001
0100
0010
0100
1000
0000
1100
0000
,
1000
0010
0100
0010
0001
0000
0011
0000
,
0001
0010
0100
0010
1000
0000
1010
0000
,
1000
0100
0010
0001
1000
0000
1001
0000
,
0001
0010
0100
1000
0001
0000
1001
0000
,
0001
0100
0010
1000
0100
0010
0001
0000
,
2002
0000
0000
0000
,
0000
0000
0000
0000
,
0000
0000
0000
0000
,
0M20
0M00
0M00
0M00
0M00
0M00
0M00
0M00
,
3M33
0000
0000
0000
;
#NOTES:
     dance-single:
     Renard:
     Medium:
     9:
     0.565,0.646,0.373,0.233,0.037:
0000
0000
0000
0000
,
0000
0000
0000
0000
,
0000
0000
0000
0000
,
0000
0000
0000
0000
,
1000
0000
1000
0001
1000
0000
1000
0001
,
1000
0000
1000
0001
1000
0000
1000
0001
,
1000
0001
1000
0001
1000
0001
1000
1000
,
0001
0000
0001
0000
1000
0000
1000
0000
0001
1000
0001
1000
0001
1000
0001
1000
,
0001
0110
1000
0110
,
0010
1000
0100
0000
0010
0001
0010
0100
,
1000
0110
0001
0110
,
1000
0100
0010
0000
0001
0010
0100
1000
,
0001
0110
1000
0110
,
0010
1000
0001
0010
0100
0000
1000
0010
,
0100
1010
0100
0101
,
2002
0000
0000
0000
,
3010
00M0
0M00
M000
02M3
M000
032M
2M30
,
000M
3M20
000M
M000
2M30
00M0
320M
M320
,
0M00
M000
000M
0M00
M032
00M0
0M23
M000
,
023M
00M0
230M
3M02
02M0
M000
00M0
M003
,
002M
M000
030M
0M00
200M
0M30
320M
M020
,
030M
M002
0M30
M200
00M3
M000
001M
M020
,
000M
M000
M000
000M
M000
030M
1M00
200M
,
0M00
0000
000M
0000
3M30
0000
100M
0010
1M00
0000
001M
0000
1M00
0000
001M
0000
,
1000
0010
1000
0010
1000
0010
1000
1000
,
0010
1000
0010
1000
0010
1000
0010
1000
,
1000
0010
1000
0010
1000
0010
1000
1000
,
0010
1000
0010
1000
0010
1000
0010
1000
,
0001
0100
0001
0100
0001
0100
0001
0001
,
0100
0001
0100
0001
0100
0001
0100
0001
,
0001
0100
0001
0100
0001
0100
0001
0001
,
0100
0001
0100
0001
0100
0001
0100
0001
,
0001
0100
0010
0100
0001
0100
1000
1000
,
0100
0010
0100
0001
0100
0010
0100
0001
,
0001
0010
0100
0010
1000
0010
0100
0100
,
0010
1000
0010
0001
0010
0100
0010
0001
,
0001
1000
0010
1000
0100
1000
0001
0001
,
1000
0010
1000
0100
1000
0001
1000
0001
,
0001
0100
0001
0010
0001
1000
0001
0001
,
0100
0001
0010
0001
1000
0001
0010
0001
,
0100
0010
0100
1000
0100
0010
0100
0100
,
0001
0100
0010
0100
1000
0100
0010
0100
,
0001
1000
0010
1000
0100
1000
0001
0001
,
1000
0010
1000
0100
1000
0001
1000
0001
,
0001
0010
0100
0010
1000
0010
0100
0100
,
0010
0001
0010
1000
0010
0100
0010
0001
,
0001
1000
0001
0100
0001
0010
0001
0001
,
1000
0001
0100
0010
1000
0001
0100
0010
,
0100
0101
0100
1100
,
0100
0101
0100
1100
,
0010
1010
0010
0011
,
0010
0000
0000
0000
1010
0000
0000
0000
0010
0000
0000
0000
0011
0000
0000
0001
,
0010
1010
0100
0101
,
0010
0110
1000
0101
,
1000
0011
0010
1100
,
0100
0000
0000
0000
1010
0000
0000
0000
1001
0000
0000
1001
0000
0000
1001
0000
,
0000
0101
0100
1100
,
0000
0101
0001
0011
,
0000
0110
0100
1100
,
0000
0000
0000
0000
1010
0000
0000
0000
0100
0000
0000
0000
0101
0000
0000
0001
,
1000
0001
1000
0001
0100
0000
0110
0000
,
0001
1000
0010
0100
0001
0000
0101
0000
,
0001
1000
0100
0010
0001
0000
1001
0000
,
0220
0000
0000
0000
,
0000
0000
0000
0000
,
0000
0000
0000
0330
,
1001
0000
0000
0000
;
#NOTES:
     dance-single:
     Renard:
     Easy:
     5:
     0.300,0.338,0.000,0.177,0.000:
0000
0000
0000
0000
,
0000
0000
0000
0000
,
0000
0000
0000
0000
,
0000
0000
0000
0000
,
1000
0100
0010
0001
,
0001
0010
0100
1000
,
1000
0100
0010
0001
,
2000
0000
0000
0000
,
3001
0100
0001
1000
,
0001
0000
0100
0000
0001
0010
0001
0010
,
0001
1000
0001
0100
,
0001
1000
0100
2000
,
3020
0000
0000
0000
,
0130
0000
0001
0000
0010
0000
0100
1000
,
0200
0000
2300
0000
,
3002
0000
0000
0000
0000
0000
0000
0003
,
0020
0000
0002
0030
,
0200
0000
0010
1000
,
0010
0000
0003
0000
0020
0000
0000
0300
,
2000
0030
0200
0000
0010
0000
0010
0000
,
3310
0000
2000
3002
,
0200
0000
0020
0000
,
2000
0000
0000
0000
3030
0000
0010
0020
,
0000
0000
0333
0000
,
0001
0000
0001
0000
0001
0000
0000
1000
,
0000
0001
0000
1000
0000
0000
0000
0000
,
1000
0000
1000
0000
1000
0000
0000
0001
,
0000
1000
0000
0001
0000
0000
0000
0000
,
0100
0000
0100
0000
0100
0000
0000
0010
,
0000
0100
0000
0010
0000
0000
0000
0000
,
0010
0000
0010
0000
0010
0000
0000
1000
,
0000
0010
0000
1000
0000
0010
0000
1000
,
0001
0000
0100
0000
0001
0000
0000
1000
,
0000
0100
0000
1000
0000
0001
0000
0000
,
0010
0000
0001
0000
1000
0000
0000
0010
,
0000
1000
0000
0001
0000
0100
0000
0000
,
0001
0000
0010
0000
0100
0000
0000
1000
,
0000
0010
0000
1000
0000
0001
0000
0000
,
0100
0000
0001
0000
0010
0000
0000
0001
,
0000
1000
0000
0010
0000
1000
0000
0000
,
0100
0000
1000
0000
0001
0000
0000
0010
,
0000
0001
0000
0100
0000
0010
0000
0000
,
1000
0000
0100
0000
0010
0000
0000
0001
,
0000
1000
0000
0010
0000
0100
0000
0000
,
0001
0000
0010
0000
0100
0000
0000
1000
,
0000
0001
0000
0100
0000
0010
0000
1000
,
0010
0000
1000
0000
0001
0000
0100
0001
,
0000
1000
0000
0100
0000
0010
0000
0001
,
1000
1000
0001
0001
,
1000
0000
1000
0000
0001
0100
0001
0000
,
1000
1000
0001
0001
,
1000
0000
0001
0000
1000
0100
1000
0000
,
0001
0001
1000
1000
,
0001
0000
0001
0000
0010
0001
0010
0000
,
0001
0001
1000
1000
,
0010
0000
1000
0000
0001
0000
0000
0001
,
0100
0010
1000
0010
,
0000
0100
0001
0100
,
0000
0001
1000
0100
,
0000
0000
1000
0000
0001
0000
0100
0001
,
0100
0001
0000
1000
,
0000
0000
0100
0000
0000
0000
1000
0001
,
1000
0000
0001
0000
0100
0000
0010
1000
,
0002
0000
0000
0000
,
0000
0000
0000
0000
,
0000
0000
0000
0000
,
1003
0000
0000
0000
;
#NOTES:
     dance-single:
     Renard:
     Beginner:
     2:
     0.238,0.277,0.037,0.280,0.000:
0000
0000
0000
0000
,
0000
0000
0000
0000
,
0000
0000
0000
0000
,
0000
0000
0000
0000
,
0000
0000
0000
0000
,
0000
0000
0000
0000
,
0000
0000
0000
0000
,
2002
0000
0000
3003
,
2000
0000
0000
0000
,
3200
0000
0320
0000
,
0032
0000
0000
0000
,
0023
0000
0032
0203
,
0320
0000
2030
0000
,
3200
0000
2300
0000
,
3002
0000
2003
0000
,
3020
0000
0000
0000
,
2030
0000
0200
0000
,
0020
0000
3330
0000
,
0002
0000
0200
0000
,
0020
0000
0333
0000
,
0002
0000
2000
0000
,
0020
0000
3033
0000
,
2000
0000
0002
0000
,
0020
0000
3033
0000
,
1000
0001
1001
0000
,
0001
0000
1000
0000
,
0001
1000
1001
0000
,
1000
0000
0001
0000
,
1000
0001
1000
0000
,
0001
1000
0001
0000
,
1000
0001
1000
0001
,
1000
1000
0001
0001
,
0100
0010
1000
0000
,
0010
0000
1000
0010
,
0100
0001
0100
0000
,
0001
0000
1000
0001
,
0010
0001
1000
0000
,
0001
0000
1000
0000
,
0100
1000
0001
0000
,
1000
0000
0100
1000
,
0010
1000
0001
0000
,
0100
0000
0001
0000
,
0010
0001
1000
0000
,
0001
0000
0100
0000
,
0010
1000
0010
0000
,
0100
0000
0001
0000
,
0001
1000
0010
1000
,
0001
0100
0010
1000
,
0010
1000
0010
0000
,
1000
0010
1000
0010
,
0100
0001
0100
0001
,
0000
0001
0000
0001
,
0001
1000
0100
1000
,
0000
0001
0010
0001
,
0000
0001
1000
0010
,
0000
0000
0100
0000
0100
0000
0000
0100
,
0010
1000
0000
1000
,
0000
0001
0000
0001
,
0100
0010
0000
0010
,
1000
0100
0000
0100
,
0010
0001
1000
0001
,
0000
0100
0010
0100
,
0000
0010
1000
0010
,
2002
0000
0000
0000
,
0000
0000
0000
0000
,
0000
0000
0000
0000
,
3003
0000
0000
0000
;
