#TITLE:Russian Roulette;
#SUBTITLE:;
#ARTIST:Bazooka;
#TITLETRANSLIT:;
#SUBTITLETRANSLIT:;
#ARTISTTRANSLIT:;
#CRChallenge:;
#BANNER:roulette.png;
#BACKGROUND:roulette-bg.png;
#LYRICSPATH:;
#CDTITLE:!cdtitle.png;
#MUSIC:roulette.ogg;
#OFFSET:0.078;
#SAMPLESTART:13.181;
#SAMPLELENGTH:12.000;
#SELECTABLE:YES;
#BPMS:0.000=145.000;
#STOPS:0.000=0.080
;
#BGCHANGES:;
#NOTES:
     dance-single:
     Renard:
     Hard:
     11:
     0.892,0.883,0.221,0.000,0.977:
0000
0000
0000
0000
,
0000
0000
0000
0000
,
0000
0000
0000
0000
,
0000
0000
0000
0000
,
0000
0000
0000
0000
,
1000
0000
0100
0000
0010
0000
0001
1000
0100
0010
0001
0010
0001
0000
1000
0010
,
0100
0001
0100
0010
1000
0100
0010
0001
0010
0100
1000
0001
0100
0000
0010
1000
,
0001
0000
0100
0000
0010
0000
1000
0100
0010
0001
0010
0100
1000
0000
0001
0100
,
0010
1000
0100
0010
0001
0010
0100
1000
0001
0100
0010
1000
0100
0000
1100
0000
,
1000
0000
1000
0000
1000
0000
0001
0001
0010
0100
1000
0010
1000
0000
0010
0010
,
0100
0001
0010
0100
1000
0001
0010
0010
0001
0001
1000
0100
0010
0000
0010
0000
,
0001
0000
0001
0000
0001
0000
1000
1000
0100
0010
0001
0100
0001
0000
0100
0100
,
0010
0000
1000
1000
0010
0000
0100
0000
0101
0000
1010
0000
1001
0000
0000
0000
,
0001
0000
0001
0000
0001
0000
1000
1000
0100
0010
0001
0100
0001
0000
0100
0100
,
0010
1000
0100
0010
0001
1000
0100
0100
1000
1000
0001
0010
0100
0000
0100
0000
,
1000
0000
1000
0000
1000
0000
0001
0001
0010
0100
1000
0010
1000
0000
0010
0010
,
0100
0001
0100
0010
1000
0010
0100
0001
0100
0010
1000
0001
0100
0000
0110
0000
,
1001
0000
0110
0000
1010
0000
0010
1000
0001
0001
0100
0010
1000
0000
0100
1000
,
0100
1000
0001
0100
0010
1000
0100
0010
0001
0100
0010
1000
0001
0000
0100
0000
,
0110
0000
1010
0000
1000
0000
0001
0001
0010
0100
1000
0001
1000
0000
0010
0100
,
0001
0000
0100
0010
1000
0000
0110
0000
0011
0000
1100
0000
1001
0000
0000
0001
,
0100
0000
0010
0000
1000
0000
0100
0100
0010
0001
1000
0010
0100
0000
0001
0100
,
0010
1000
0100
0010
0001
0001
0010
0100
1000
0001
0100
0010
1000
0000
0001
0100
,
0010
0000
1000
0000
1100
0000
1000
0001
0100
0010
1000
0001
1000
0000
0010
0100
,
0001
0100
0010
1000
0100
0010
0001
0010
0100
1000
0001
0100
0010
1000
0100
1000
,
0001
0100
0001
0000
0100
0010
0100
0000
0010
1000
0010
0000
1000
0100
1000
0000
,
0001
0010
0100
1000
0001
0100
0010
1000
0100
0000
1000
0000
0001
0000
0100
0000
,
0010
1000
0010
0000
1000
0100
1000
0000
0001
0010
0001
0000
1000
0010
1000
0000
,
0001
0100
0010
1000
0100
0010
0001
0000
0011
0000
0011
0000
0011
0000
0000
0000
,
0001
0000
0010
0100
1000
0000
0001
0100
0010
0000
1000
0100
0010
0000
0001
1000
,
0010
0100
0001
0100
0010
1000
0100
0010
0001
0000
0010
0000
0011
0000
0010
0100
,
1000
0000
0001
0000
0100
0000
0010
1000
0001
0100
0010
1000
0100
0000
0010
0001
,
0010
0100
1000
0001
0100
0010
1000
0001
0100
0010
1000
0100
0010
0000
0001
0000
,
0010
0100
1000
0010
0100
0001
0100
0010
,
1000
0100
0010
0001
0010
0100
1000
0001
,
0100
0010
1000
0100
0010
0001
0010
0100
,
1000
0000
0010
0000
0100
0000
0001
0000
1000
0000
0010
1000
0010
0000
0100
0001
,
0100
0000
0001
0000
0010
0000
0100
0000
1000
0000
0001
0000
0100
0000
0010
0100
,
0010
0000
1000
0000
0100
0000
0010
0000
0001
0000
1000
0100
1000
0000
0001
0100
,
0001
0000
0100
0000
0010
0000
1000
0000
0100
0000
0010
0001
0010
0000
0100
1000
,
0100
1000
0001
0100
0010
1000
0100
0010
,
0001
0000
0010
0000
0100
0000
1000
0100
1000
0100
1000
0100
1000
0000
0001
0100
,
0010
0000
0010
0000
0010
0000
1000
0100
0010
0001
0010
0100
1000
0000
0001
0100
,
0010
0000
1000
0000
0010
0000
0100
0001
0010
0100
1000
0001
0100
0000
0010
1000
,
0001
0000
0001
0000
0001
0000
1000
0100
0010
0001
1000
0010
0100
0000
0001
0100
,
0001
0000
0100
0010
0100
0000
0010
0000
1000
0000
0100
0010
0100
0000
0010
0000
,
0001
0000
0100
0010
0100
0000
0010
0000
1000
0000
0100
0010
0100
0000
0010
0000
,
0001
0000
0100
0010
0100
0000
0010
1000
0100
0000
0010
0001
0010
0000
0100
1000
,
0001
0100
0010
1000
0100
0010
0001
0010
0100
1000
0001
0100
0010
1000
0100
0010
,
0001
0000
0000
0000
;
#NOTES:
     dance-single:
     Renard:
     Medium:
     9:
     0.668,0.712,0.012,0.023,0.390:
0000
0000
0000
0000
,
0000
0000
0000
0000
,
0000
0000
0000
0000
,
0000
0000
0000
0000
,
0000
0000
0000
0000
,
0001
0000
0001
0000
0001
0000
0010
0100
0010
0000
0100
0000
0100
0000
1000
0010
,
1000
0010
0100
0001
0100
0010
1000
1000
,
0010
0000
0010
0000
0010
0000
0100
0001
0100
0000
0010
0000
0010
0000
0010
0000
,
1000
0100
0010
0001
0010
0100
1000
0001
0010
0100
1000
0100
0010
0000
0010
0000
,
0001
0000
0001
0000
0001
0000
0010
0100
0010
0000
0100
0000
1000
0000
0010
0100
,
0010
0100
0001
1000
0100
0010
0001
0001
,
0010
0000
0010
0000
0100
0000
1000
0010
1000
0000
0010
0000
0100
0000
0001
0000
,
1000
0000
1000
0100
0010
0000
0001
0000
1000
0000
1000
0000
1000
0000
0000
0001
,
0100
0000
0010
0000
1000
0000
0100
1000
0100
0000
1000
0000
0010
0000
0100
0000
,
0001
0000
0001
0100
0010
0000
1000
0000
0100
0000
0010
0000
0001
0000
0001
0000
,
0010
0000
0010
0000
0100
0000
1000
0010
1000
0000
0010
0000
0100
0000
0100
0000
,
0001
0000
0001
0100
0000
0100
0010
0000
0010
1000
0000
1000
0100
0000
0100
0000
,
1000
0000
0100
0000
0010
0000
0001
0010
0001
0000
0010
0000
0100
0000
1000
0100
,
1000
0000
0001
0000
0100
0000
0010
0000
1000
0000
0010
1000
0010
0000
1000
0000
,
0001
0000
0100
0000
0010
0000
1000
0010
1000
0000
0100
0000
0010
0000
0001
0010
,
0001
0000
0010
0100
1000
0000
0001
0000
0100
0000
0010
0000
0010
0000
0000
0010
,
1000
0000
0100
0000
0010
0000
0001
0010
0001
0000
0010
0000
0100
0000
1000
0100
,
1000
0001
0100
0010
1000
0100
0010
0010
,
0001
0000
0001
0000
1000
0000
0010
0100
0010
0000
1000
0000
0010
0000
0100
0000
,
0001
0000
0001
0100
0000
0100
0010
0000
0010
1000
0000
1000
0100
0000
0010
0000
,
0001
0000
0010
0000
0100
0000
1000
0100
1000
0100
1000
0100
1000
0000
0001
1000
,
0001
1000
0010
0100
0001
0010
0100
0100
,
1000
0000
0001
0000
0100
0000
0010
0100
0010
0100
0010
0100
0010
0000
1000
0010
,
1000
0000
0010
0000
1000
0000
0100
0000
0010
0000
0010
0000
0010
0000
0000
0001
,
0010
0000
0010
0000
0100
0000
1000
0100
1000
0100
1000
0100
1000
0000
0001
1000
,
0001
1000
0010
0100
0001
0010
0001
0001
,
0010
0000
0010
0000
0100
0000
1000
0100
1000
0100
1000
0100
1000
0000
0001
0000
,
1000
0000
1000
0010
0000
0010
0100
0000
0100
0001
0000
0001
0100
0000
0010
0000
,
1000
0010
0001
0010
1000
0010
0001
0010
,
1000
0100
0001
0100
1000
0100
0001
0100
,
1000
0100
0010
0000
0001
0100
0010
0000
,
1000
0010
0100
0000
0001
0010
0100
0000
,
0010
0001
0010
1000
0010
0001
0010
1000
,
0010
0001
0100
1000
0100
0001
0100
1000
,
0100
0001
0010
1000
0010
0001
0010
1000
,
0010
0100
1000
0010
0100
0001
1000
0000
,
0100
0000
0100
0000
0100
0000
1000
0100
1000
0000
0100
0000
0100
0000
1000
0000
,
0001
0000
0001
0000
0001
0000
0010
0001
0010
0000
0001
0000
0010
0000
0010
0000
,
0001
0000
0001
0000
1000
0000
0001
1000
0001
0000
1000
0000
0001
0000
0001
0000
,
1000
0000
1000
0000
0010
0000
1000
0010
1000
0000
0010
0000
0010
0000
1000
0000
,
0001
0000
0001
0100
0010
0000
0010
0000
1000
0000
1000
0010
0100
0000
0100
0000
,
0001
0000
0001
0100
0010
0000
0010
0000
1000
0000
1000
0010
0100
0000
0010
0000
,
1000
0000
0010
1000
0010
0000
1000
0010
1000
0000
0010
1000
0010
0000
1000
0020
,
0200
0000
0000
0000
0000
0000
0000
0330
,
1001
0000
0000
0000
;
#NOTES:
     dance-single:
     Renard:
     Easy:
     6:
     0.312,0.342,0.000,0.047,0.000:
0000
0000
0000
0000
,
0000
0000
0000
0000
,
0000
0000
0000
0000
,
0000
0000
0000
0000
,
0000
0000
0000
0000
,
0000
0000
0000
0000
,
0000
0000
0000
0000
,
0000
0000
0000
0000
,
0000
0000
0000
0000
,
1000
1000
0001
0100
0010
0010
1000
0000
,
0100
0010
0001
0000
,
1000
1000
0010
0100
0001
0001
0010
0000
,
0100
1000
0010
0000
,
0100
0100
0001
1000
0010
0010
1000
0100
,
0010
0000
0001
0000
,
1000
1000
0010
0100
0001
0001
0100
0010
,
1000
0000
0010
0000
,
1000
0000
0100
0000
0010
0001
0010
0000
,
0100
1000
0100
0000
1000
0000
0010
0000
,
0100
0001
0100
0000
0010
1000
0010
0000
,
1000
0100
0010
0001
,
1000
0100
1000
0000
0001
1000
0001
0000
,
0100
0010
1000
0001
,
0010
0001
0010
0000
0100
0010
0100
0000
,
1000
0000
0000
0000
,
0100
1000
0010
0100
,
0001
0100
0001
0000
1000
0001
1000
0000
,
0100
0010
0001
1000
,
0010
1000
0010
0000
1000
0100
1000
0000
,
0001
0010
0100
1000
,
0001
0100
0001
0000
0100
0010
0100
0000
,
0010
1000
0100
0010
,
0001
0010
0100
1000
,
0001
0001
0100
0010
,
1000
1000
0100
0010
,
0001
0001
0010
0100
,
1000
1000
0010
0100
,
0001
0000
0010
0000
0100
0000
1000
0100
,
1000
0000
0010
0000
0100
0000
0001
0010
,
0001
0010
0100
1000
,
0010
0100
0001
1000
,
0200
0000
2300
0000
,
3010
0000
0100
0000
0001
0100
0001
0000
,
0200
0000
0320
0000
,
1030
0000
0100
0000
0010
0001
0010
0000
,
0100
0100
1000
1000
,
0010
0010
0100
0100
,
0001
0010
0100
1000
,
0001
0100
0001
0100
0010
0100
0010
0100
,
0010
0000
0000
0000
;
#NOTES:
     dance-single:
     Renard:
     Beginner:
     3:
     0.301,0.370,0.244,0.023,0.000:
0000
0000
0000
0000
,
0000
0000
0000
0000
,
0000
0000
0000
0000
,
0000
0000
0000
0000
,
0000
0000
0000
0000
,
0001
0001
1000
1000
,
0010
0100
0010
0100
,
0001
0001
1000
1000
,
0010
0100
0001
1000
,
0001
0000
1001
0000
,
1000
0000
1001
0000
,
0001
0000
1001
0000
,
0010
0100
0010
0100
,
0010
0000
0110
0000
,
0100
0000
0110
0000
,
0010
0000
0110
0000
,
0001
1000
0001
0000
,
1000
1100
0001
0101
,
1000
1100
0001
0101
,
1000
1100
0001
0101
,
1000
1100
0001
0101
,
1000
1010
0001
0011
,
1000
1010
0001
0011
,
1000
1100
0001
0101
,
1000
1000
1000
1000
,
0001
0100
1000
0100
,
0001
0010
1000
0010
,
0001
0100
1000
0100
,
0001
0010
1000
0010
,
0001
0100
1000
0100
,
0001
0010
1000
0010
,
0001
0100
1000
0100
,
0001
0001
1000
1000
,
0001
0100
1000
0010
,
0001
0100
1000
0010
,
0001
0100
1000
0010
,
0001
0100
1000
0010
,
0001
0010
1000
0100
,
0001
0010
1000
0100
,
0001
0010
1000
0100
,
0001
0010
1000
0100
,
0002
0000
0000
0000
,
1003
1000
1000
1000
,
2000
0000
0000
0000
,
3001
0001
0001
0001
,
0001
0100
1000
0010
,
0001
0010
1000
0100
,
0001
0100
1000
0010
,
0001
0100
0001
0010
,
1001
0000
0000
0000
;
