#TITLE:Run!;
#SUBTITLE:;
#ARTIST:Novasonic;
#TITLETRANSLIT:;
#SUBTITLETRANSLIT:;
#ARTISTTRANSLIT:;
#CRChallenge:;
#BANNER:run-banner.avi;
#BACKGROUND:run-bg.png;
#LYRICSPATH:;
#CDTITLE:!cdtitle.png;
#MUSIC:run.ogg;
#OFFSET:0.000;
#SAMPLESTART:6.817;
#SAMPLELENGTH:12.000;
#SELECTABLE:YES;
#BPMS:0.000=140.000;
#STOPS:;
#BGCHANGES:;
#NOTES:
     dance-single:
     Renard:
     Medium:
     9:
     0.602,0.587,0.240,0.000,0.249:
0000
0000
0000
0000
,
0000
0000
0000
0000
,
0000
0000
0000
0000
,
0000
0000
0000
0000
,
1100
0000
0011
0000
1000
0100
0010
0001
,
0100
0010
1000
0010
0100
0001
0010
0000
,
0011
0000
1100
0000
1000
0000
0010
0100
,
0001
0010
0100
1000
0001
0100
0010
0000
,
1010
0000
0101
0000
0001
0100
0010
1000
,
0100
1000
0001
0010
0001
1000
0100
0000
,
0011
0000
1100
0000
1000
0010
0100
0001
,
0100
0010
1000
0001
0010
0100
1000
0000
,
0001
0000
0010
0001
0010
0000
0001
0000
0001
0000
0001
0000
0100
0000
0010
1000
,
0000
0010
1000
0100
0010
0001
0010
0100
,
1000
0001
1000
0001
1000
0000
0010
0000
0010
0000
0010
0000
1000
0000
0001
1000
,
0001
1000
0100
0010
0001
1000
0001
0000
,
0100
0000
0001
0100
0001
0000
0100
0000
0100
0000
0100
0000
0010
0000
1000
0100
,
1000
0001
0010
0100
1000
0001
0100
0000
,
0010
1000
0010
1000
0010
0000
0100
0000
0100
0000
0100
0000
0010
0000
1000
0100
,
0010
0000
0000
0000
0000
0010
1001
0100
,
0001
0000
0100
0001
0100
0000
0000
0000
0001
0000
1000
0100
1000
0000
0000
0000
,
0001
0000
0010
0001
0010
0000
0000
0000
0001
0000
1000
0000
0010
0000
1000
0000
,
0100
0000
1000
0001
1000
0000
0000
0000
0001
0000
0100
0001
0100
0000
0000
0000
,
0001
0000
1000
0100
1000
0000
0001
0100
0001
0000
1000
0100
1000
0000
0001
0000
,
1000
0000
0100
1000
0100
0000
1000
0000
0001
0000
0100
0000
0001
0000
0100
0000
,
0000
0000
0001
0010
0001
0000
0010
0000
0100
0000
1000
0100
1000
0000
0001
0000
,
0000
0000
1000
0010
1000
0000
0001
0100
0001
0000
1000
0000
0100
0000
0010
0000
,
0001
0000
1000
0000
0100
0000
0010
0000
0001
1000
0001
1000
0001
0000
1000
0000
,
0101
0010
1100
0000
0010
0000
0100
0010
,
1000
0100
0010
0001
0010
0100
1000
0000
,
1100
0010
0101
0000
0010
0000
0100
1000
,
0010
0100
0001
0100
0010
1000
0010
0000
,
0101
0010
1100
0000
0010
0000
0100
0010
,
1000
0100
0010
0001
1000
0100
1000
0000
,
1100
0010
0101
0000
0100
0000
0010
0100
,
1000
0010
0100
0001
0100
0010
1000
0000
,
0001
0000
0010
0001
0010
0000
000M
0000
000M
0000
000M
0000
0010
0000
0100
0010
,
0000
0010
0001
0010
0100
1000
0100
0010
,
0001
1000
0001
1000
0001
0000
0M00
0000
0M00
0000
0M00
0000
0001
0000
1000
0001
,
1000
0001
0010
0100
1000
0001
1000
0000
,
0010
0000
1000
0010
1000
0000
00M0
0000
00M0
0000
00M0
0000
0100
0000
0001
0010
,
0001
1000
0100
0010
0001
1000
0010
0000
,
0100
0001
0100
0001
0100
0000
00M0
0000
00M0
0000
00M0
0000
0100
0000
0001
0010
,
0100
0000
0000
0000
0000
0100
1001
0010
,
0001
0000
0010
0100
1000
0000
0001
0000
0100
0000
0000
0000
0010
0000
1000
0000
,
0100
0000
0010
0001
0010
0000
0001
0000
0010
0000
0000
0000
0100
0000
1000
0000
,
0001
0000
0100
0010
0100
0000
0010
0000
1000
0000
0100
1000
0100
0000
1000
0000
,
0001
0000
0010
0000
0100
0000
1000
0000
0001
0000
1000
0001
1000
0000
0001
0000
,
0000
0000
0100
0010
0100
0000
0010
0000
1000
0000
0100
1000
0100
0000
1000
0000
,
0000
0000
0001
0010
0001
0000
0010
0000
0100
0000
1000
0100
1000
0000
0001
0000
,
0000
0000
1000
0010
1000
0000
0001
0000
0100
0000
0001
1000
0001
0000
1000
0000
,
0100
0010
0001
0010
0100
1000
0001
0100
,
0001
0000
0000
0001
0000
1000
0100
1000
0001
1000
0001
1000
0001
0000
1000
0001
,
1000
0100
1100
0000
0010
0001
0011
0000
,
0001
0100
0010
0110
0000
0010
1000
0100
,
0010
0001
0011
0000
0010
0100
0110
0000
,
0100
1000
0010
1010
0000
1000
0010
0100
,
0001
0100
0101
0000
0001
0010
0011
0000
,
0010
0100
0100
0110
0000
0000
0010
0100
,
1000
1000
0100
0100
0010
0010
0001
0001
,
1000
1000
0100
0100
0010
0010
0001
0001
,
1000
0000
1000
0000
0100
0000
0000
1000
0000
0000
1000
0000
0100
0000
0000
0000
,
1000
0000
1000
0000
0100
0000
0000
1000
0000
0000
1000
0000
0100
1000
0001
0010
;
#NOTES:
     dance-single:
     Renard:
     Hard:
     11:
     0.781,0.838,0.772,0.018,0.515:
0000
0000
0000
0000
,
0000
0000
0000
0000
,
0000
0000
0000
0000
,
0000
0000
0000
0000
,
0011
0100
1010
0000
0100
0000
1010
0100
,
0011
0100
1001
1100
0011
1000
0110
0000
,
0110
1000
1001
0000
1000
0000
0110
1000
,
0101
1000
0100
1000
0101
1010
1001
0000
,
1100
0010
1001
0000
0100
0000
1010
0100
,
1000
0001
0110
1000
0101
1010
1001
0000
,
1100
0010
1001
0000
0100
0000
0011
1000
,
0110
1000
1100
0001
0010
0100
1001
0000
,
0001
0010
0100
1000
0001
0100
0010
1000
0100
0000
0100
0000
0100
0000
1000
0001
,
0100
0000
0010
0000
1000
0100
0010
0001
0010
0100
1000
0001
0100
0000
0010
0000
,
1000
0100
0010
0001
0010
0100
1000
0001
0100
0000
0100
0000
0010
0000
1000
0100
,
0010
0000
0001
0000
0010
0100
1000
0001
0100
0000
0010
0000
1000
0000
0001
0000
,
0010
0100
1000
0001
0100
0010
1000
0000
0100
0000
0100
0000
1000
0000
0001
0010
,
0100
0000
1000
0000
0001
0000
0100
0000
0010
1000
0001
0010
0100
0000
1000
0000
,
0001
0010
0100
1000
0001
0100
0010
0000
1000
0000
1000
0000
0010
0000
0100
0001
,
0010
0000
0000
0000
1001
0100
1010
0100
,
0001
0010
0100
1000
0001
0000
0100
0000
0010
1000
0100
0010
0001
0000
0010
0000
,
0100
1000
0001
0100
0010
1000
0100
0010
0001
0010
0100
1000
0001
0000
0100
0000
,
0010
1000
0100
0010
0001
0000
0010
0000
0100
1000
0001
0100
0010
0000
1000
0000
,
0100
0000
0010
0001
0010
0000
0100
1000
0100
0000
1000
0001
1000
0000
0001
0000
,
0100
0010
1000
0100
0010
0000
0001
0000
0010
0100
1000
0001
0100
0000
0010
0000
,
1000
0000
0100
0010
0001
0010
0100
1000
0001
0100
0010
1000
0100
0000
0010
0000
,
0001
0010
0100
1000
0001
0100
0010
1000
0100
1000
0001
0010
0100
0000
1000
0000
,
0001
0000
0100
0010
1000
0000
0100
0010
0001
0010
0100
1000
0001
0100
0010
1000
,
1100
0010
1001
0000
0100
0000
1010
0100
,
0001
0110
0001
1000
0110
1001
1010
0000
,
1100
0010
1001
0000
0100
0000
0101
1000
,
0100
0010
1001
0100
1010
0100
1001
0000
,
0101
0100
0011
0000
0100
0000
0011
0100
,
1000
0101
1010
0001
0100
1010
0101
0000
,
0110
1000
1100
0000
1000
0000
0101
0010
,
1000
0101
1000
0100
1010
0101
1010
0000
,
0001
0001
0100
0010
1000
0000
0100
0000
0010
0000
0001
0000
0010
0000
0001
0001
,
0010
0100
1000
0001
0100
0010
1000
0000
,
0010
0010
1000
0100
0010
0000
0001
0000
0010
0000
0100
0000
1000
0000
0001
0001
,
1000
0000
0010
0000
0100
0000
0001
0100
0010
0000
1000
0000
0001
0000
0000
0000
,
0010
0010
0001
0010
0100
0000
0100
0000
1000
0000
0001
0000
0100
0000
0010
0010
,
1000
0100
0010
0001
0010
0100
1000
0000
,
0001
0001
0100
0010
1000
0000
0100
0000
0010
0000
0001
0000
1000
0000
0010
0010
,
0100
0000
0000
0000
0000
1001
0100
1010
,
0100
0000
0001
0100
0010
0000
1000
0000
0100
0000
0000
0000
0010
0001
0010
0100
,
1000
0000
0001
0100
0010
0000
1000
0100
0010
0000
0001
0000
0010
0000
0000
0000
,
0100
1000
0001
0100
0010
1000
0100
0010
0001
0000
0010
0000
0100
0000
1000
0000
,
0001
0100
0010
1000
0100
0010
0001
0010
0100
1000
0001
0100
0010
0000
1000
0000
,
0001
0010
0100
1000
0001
0000
0100
0000
0010
1000
0001
0100
0010
0000
1000
0000
,
0100
0010
0001
0010
0100
1000
0001
0100
0010
1000
0100
0010
0001
0000
0010
0000
,
0100
1000
0001
0100
0010
0000
1000
0000
0100
0010
0001
0010
0100
0000
1000
0000
,
0001
0100
0010
1000
0100
0010
0001
0010
0100
1000
0001
0100
0010
1000
0100
0010
,
0001
0000
0000
0000
,
0101
1000
0110
0000
0110
1000
0101
0000
,
0110
1000
0100
0010
1001
0100
1010
0000
,
1010
0100
0011
0000
0100
1001
0100
1000
,
0101
1000
0110
1000
0101
1000
0110
0000
,
1001
0100
0010
1001
0100
0010
1001
0100
,
0010
1000
0100
0010
1001
0100
1010
0100
,
1001
0100
1010
1000
1100
0010
1001
0100
,
1010
0001
1100
0011
1000
0110
1000
0001
,
2002
0000
0000
0000
,
0000
0000
0000
0000
0000
0000
0000
0000
0000
0000
3003
0000
0001
0001
0010
0100
;
#NOTES:
     dance-single:
     Jinxie:
     Easy:
     6:
     0.392,0.000,0.124,0.213,0.000:
0000
0000
0000
0000
,
0000
0000
0000
0000
,
0000
0000
0000
0000
,
0000
0000
0000
0000
,
0010
1000
0100
0000
0010
0001
0100
0000
,
0010
1000
0100
0220
0000
0000
0330
0000
,
0010
0001
0100
0000
0010
1000
0100
0000
,
0010
0001
0100
0220
0000
0000
0330
0000
,
0010
1000
0100
0000
0100
1000
0010
0000
,
0010
1000
0100
2200
0000
0000
3300
0000
,
0010
0001
0100
0000
0100
0001
0010
0000
,
0010
0001
0100
0220
0000
0000
0330
0000
,
1000
0000
0001
0000
1000
0010
1000
0000
,
0001
0000
0010
0000
0100
1000
0100
0000
,
1000
0000
0010
0000
0100
0001
0100
0000
,
0010
0000
0100
0000
0001
0010
0001
0000
,
0100
0000
0010
0000
1000
0100
1000
0000
,
0010
0000
1000
0000
0100
0010
0100
0000
,
0010
0000
0001
0000
0010
0100
0010
0000
,
0100
0000
1000
0000
,
0010
1000
0100
0000
0100
0000
0010
0000
,
0100
0010
0001
0001
,
0100
0010
0100
0000
0001
0000
0010
0000
,
0100
1000
0001
1000
,
0100
0010
0001
0000
0010
0000
0100
0000
,
1000
0100
0010
0001
,
0100
0010
0100
0000
0010
0000
1000
0000
,
0100
0010
0001
0010
,
0100
1000
0100
0000
0100
1000
0010
0000
,
0010
0100
0001
0022
0000
0000
0033
0000
,
0010
0100
1000
0000
1000
0100
0010
0000
,
0010
0001
0100
0220
0000
0000
0330
0000
,
0010
0100
0001
0000
0001
1000
0100
0000
,
0100
1000
0010
0220
0000
0000
0330
0000
,
0001
0100
0010
0000
0010
0100
0100
0000
,
0100
0010
1000
2002
0000
0000
3003
0000
,
0010
0000
1000
0000
0001
0010
0001
0000
,
1000
0010
0100
0001
,
0010
0100
1000
0000
0100
0000
0010
0000
,
0100
0100
0100
1000
,
1000
0100
0010
0000
0010
0000
0010
0000
,
0100
1000
0010
1000
,
0100
0010
0001
0000
0001
0010
0100
0000
,
1000
0000
0000
0010
0000
0000
0100
0000
,
0001
0010
0100
0000
0100
0000
1000
0000
,
1000
0010
0100
0000
0100
0000
0001
0000
,
0010
0100
1000
0000
1000
0000
0010
0000
,
0010
1000
0100
0000
0010
0000
0001
0000
,
0010
0100
1000
0000
1000
0000
0010
0000
,
1000
0100
0010
0000
0001
0000
0100
0000
,
0001
0010
0100
0000
0010
0000
0001
0000
,
0100
0010
1000
0000
0010
0000
1000
0000
,
0000
0000
0000
0000
,
1000
0010
1000
0000
1000
0100
0010
0000
,
0010
0100
0010
0022
0000
0000
0033
0000
,
0100
1000
0010
0000
0010
1000
0010
0000
,
0010
0100
0001
0202
0000
0000
0303
0000
,
0010
1000
0100
0000
0100
0010
0001
0000
,
0001
0100
0010
2020
0000
0000
3030
0000
,
0010
0100
0001
0000
0001
0100
0010
0000
,
0010
1000
0100
0011
0000
0000
1100
0000
,
2002
0000
0000
0000
,
3003
0000
0000
0000
;
#NOTES:
     dance-single:
     Jinxie:
     Beginner:
     2:
     0.191,0.000,0.009,0.044,0.000:
0000
0000
0000
0000
,
0000
0000
0000
0000
,
0000
0000
0000
0000
,
0000
0000
0000
0000
,
0001
0000
1000
0000
,
0010
0000
0000
0000
,
0001
0000
0010
0000
,
0100
0000
0000
0000
,
0010
0000
1000
0000
,
0001
0000
0000
0000
,
0010
0000
0100
0000
,
0001
0000
0000
0000
,
1000
0010
1000
0000
,
0100
0010
0001
0000
,
0010
0100
1000
0000
,
0010
0100
0001
0000
,
0100
0010
0100
0000
,
0010
1000
0100
0000
,
0100
1000
0010
0000
,
0200
0000
0000
0300
,
0001
1000
0010
1000
,
0000
0100
0010
0001
,
0100
0100
0010
1000
,
0000
0100
0010
0001
,
0100
0010
1000
0100
,
0000
0010
0001
0010
,
0100
1000
0010
0100
,
0000
0100
0001
0010
,
0100
0000
1000
0000
,
0010
0000
0000
0000
,
0010
0000
0100
0000
,
0001
0000
0000
0000
,
0001
0000
0100
0000
,
0010
0000
0000
0000
,
1000
0000
0100
0000
,
0010
0000
0000
0000
,
0001
1000
0010
0100
,
0001
0010
0100
1000
,
0001
1000
0010
0100
,
0001
0010
0100
1000
,
0001
1000
0010
0100
,
0001
0010
0001
0100
,
0010
1000
0010
0100
,
0002
0000
0000
0003
,
1000
0010
1000
0001
,
0000
1000
0010
0100
,
0001
0100
0010
1000
,
0000
0100
0010
0001
,
0010
0100
1000
0010
,
0000
1000
0010
0100
,
0001
0100
0010
0100
,
0000
0001
0010
0100
,
2000
0000
0000
3000
,
0010
0000
1000
0000
,
0001
0000
0000
0000
,
0001
0000
1000
0000
,
0010
0000
0000
0000
,
0010
0000
0100
0000
,
0010
0000
0000
0000
,
1000
0000
0001
0000
,
1000
0000
0000
0000
,
2002
0000
0000
0000
,
3003
0000
0000
0000
;
