#TITLE:Rotterdom Nation 94.5;
#SUBTITLE:;
#ARTIST:SamplingMasters MEGA Remix;
#TITLETRANSLIT:;
#SUBTITLETRANSLIT:;
#ARTISTTRANSLIT:;
#CRChallenge:;
#BANNER:94.png;
#BACKGROUND:94-bg.png;
#LYRICSPATH:;
#CDTITLE:;
#MUSIC:94.ogg;
#OFFSET:0.000;
#SAMPLESTART:31.980;
#SAMPLELENGTH:12.000;
#SELECTABLE:YES;
#BPMS:0.000=210.000;
#STOPS:;
#BGCHANGES:;
#NOTES:
     dance-single:
     Nonstop:
     Challenge:
     10:
     0.644,0.711,0.203,0.063,0.000:
0000
0000
0000
0000
,
0000
0000
0000
0000
,
0000
0000
0000
0000
,
0000
0000
0000
0000
,
0000
0000
0000
0000
,
0000
0000
0000
0000
,
0000
0000
0000
0000
,
0000
0000
0000
0000
,
1000
0000
0100
1000
0001
0000
0100
0001
,
1000
1000
1000
1000
,
0001
0000
0100
0010
1000
0000
0001
0000
,
0010
0100
1000
1100
,
1000
0000
0001
0100
0010
0000
1000
0100
,
0010
0010
0001
0001
,
0100
0000
0010
1000
0001
0000
0010
0000
,
0100
1000
0100
0010
0001
0010
0100
1000
,
1100
0000
0000
0000
,
0011
0000
0000
0000
,
0001
0010
0100
0000
1000
0010
0100
0000
,
0001
0100
0010
1000
0000
1000
0100
0010
,
0001
0010
0100
0000
1000
0010
0100
0000
,
0001
0000
0100
0010
0000
1000
0100
0010
,
0001
0000
0010
0100
0000
1000
0001
0000
,
0100
0010
1000
0100
0000
0010
0001
0010
,
0100
0000
1000
0001
0000
0100
0010
0000
,
2000
0000
0000
0000
,
3001
0000
0010
0100
1000
0100
1000
0100
,
1000
0010
0100
0001
0100
0000
0000
0000
,
0010
1000
0100
0000
0010
0001
0010
0000
,
0100
1000
0001
0001
0100
0010
1000
0000
,
0010
0100
0010
0100
0001
0100
0001
0100
,
0010
1000
0100
0010
0001
0001
0001
0000
,
0010
0100
1000
0000
0001
0100
0010
0000
,
1000
0100
0010
0010
0100
1000
0010
0000
,
0100
0001
0100
0001
0100
0010
0100
0010
,
0100
0010
1000
0100
0010
0010
0010
0000
,
0001
0000
0010
0000
0100
1000
0100
0010
,
0001
0000
0010
0000
0100
1000
0100
0010
,
0001
0000
0010
0000
0100
1000
0100
0010
,
0001
0000
0010
0000
0100
1000
0001
0100
,
0010
0000
1000
0000
0010
0100
0001
0100
,
0010
0000
1000
0000
0010
0100
0001
0100
,
0010
0000
1000
0000
0010
0100
0001
0100
,
0010
1000
0100
0010
0001
0000
0010
0000
,
0001
0000
0000
0000
0011
0000
0000
0010
,
0000
0100
0000
1000
0000
0000
1001
0000
,
1000
0000
0000
0000
0010
0000
0000
0100
,
0000
0001
0000
1000
0000
0100
1000
0000
,
0001
0100
0010
1000
0100
0000
0010
0000
,
0001
0010
0000
0100
0000
1000
0000
0001
,
0000
0100
0010
1000
0100
0000
0010
0000
,
0001
0010
0100
1000
0000
0001
0100
0000
,
0000
0010
1000
0000
0100
0010
0001
0010
,
0100
1000
0000
0001
0000
1000
0000
0010
,
0000
0100
0001
0100
0010
0000
1000
0000
,
0100
0010
0000
0001
0000
0010
0100
0000
,
1100
0000
0011
0000
1100
0000
1000
0001
,
0100
0000
0110
0000
0110
0000
0010
1000
,
0001
0000
1001
0000
1001
0000
1000
0010
,
0100
0001
0010
0100
1000
0000
0001
0001
,
1000
0000
0100
0000
0010
0000
0001
0010
,
0100
0000
1000
0000
0001
0000
0100
0100
,
0001
0000
0100
0000
0010
1000
0100
0010
,
0001
0010
0100
1000
0001
0000
1000
0001
,
0100
0000
0100
0000
0010
1000
0100
0010
,
0001
0000
0010
0100
1000
0000
0001
0100
,
0010
1000
0001
0100
0010
1000
0100
0010
,
0001
0000
0010
0100
1000
0001
0001
0000
,
0100
0010
1000
0100
0010
0001
0010
0100
,
1000
0000
0001
0100
0010
0000
1000
0010
,
0100
0001
0010
0100
1000
0001
0100
0010
,
1000
0000
0010
0010
0100
0001
0001
0000
,
0010
0000
0100
1000
0001
0000
0100
0000
,
0010
1000
0000
0101
0000
1010
0000
0010
,
1000
0100
0010
0001
0010
0000
0100
0000
,
1000
0100
0000
0011
0000
1100
0000
0001
,
1000
0010
0100
0001
0100
0000
0010
0000
,
1000
0010
0000
0101
0000
1010
0000
0010
,
1000
0100
0010
0000
0001
0010
0100
0000
,
2000
0000
0000
0000
,
0002
0000
0000
3003
,
1000
0001
1000
0001
0100
0001
0100
0001
,
0100
0010
1000
0100
0010
0001
0010
0100
,
1000
0100
1000
0100
1000
0001
1000
0001
,
0100
0010
1000
0100
0010
0001
0010
0001
,
1000
0001
1000
0001
1000
0010
1000
0010
,
1000
0001
0100
0010
1000
0100
0010
0001
,
0010
0001
0010
0001
1000
0001
1000
0001
,
0100
0010
1000
0100
0010
0001
0010
0001
,
0010
0000
0010
0000
0010
0000
0100
0100
,
0010
0000
0010
0000
0010
0000
0100
0100
,
0010
0000
0010
0000
0010
0100
0010
0100
,
0010
0100
0010
0100
0010
0000
0100
0100
,
0010
0000
0010
0000
0010
0000
0100
0100
,
0010
0000
0010
0000
0010
0000
0100
0100
,
0010
0000
0010
0000
0010
0100
0010
0100
,
0010
0100
0010
0100
0010
0000
0100
0100
,
0010
0000
0011
0000
0000
0100
0000
1000
,
0010
0000
0110
0000
0000
0010
0000
1000
,
0100
0000
1100
0000
0000
1000
0000
0100
,
0010
0011
1100
0011
,
1001
0000
0101
0000
0000
0010
0000
1000
,
0100
0000
0011
0000
0000
0100
0000
1000
,
0001
0000
0101
0000
0000
0010
0000
1000
,
1001
0000
0000
0000
,
0001
0100
0010
1000
0100
0010
0001
0000
,
0010
0100
1000
0001
0100
0010
1000
0000
,
0010
0100
0001
0010
0100
1000
0001
0000
,
0010
0100
1000
0001
0100
0000
0010
0000
,
1000
0010
0100
0001
0010
0100
1000
0000
,
1000
0100
0010
0001
0100
0010
1000
0000
,
1000
0010
0100
0001
0010
0100
1000
0001
,
0200
0000
0000
0000
,
0310
0000
0100
0001
0100
0010
0100
0001
,
0100
0000
0100
0010
1000
0000
0010
0000
,
1000
0000
0100
0010
0001
0010
0100
1000
,
0001
0000
0000
0000
,
0010
0000
0001
0010
0100
1000
0001
0000
,
0020
0000
0000
0000
,
0002
0000
0000
0000
0000
0000
0000
0033
,
0001
0010
0100
0000
1000
0100
0010
0000
,
0001
0010
0100
0000
1000
0100
0010
0000
,
0001
0010
0001
0010
0001
0010
0001
0010
,
0100
0100
0100
0100
,
1000
0010
0100
0000
0001
0100
0010
0000
,
1000
0010
0100
0000
0001
0100
0010
0000
,
1000
0010
1000
0010
1000
0010
1000
0010
,
0100
0001
0100
0010
,
1000
0000
0000
0000
,
0220
0000
0000
0330
,
0001
0000
0000
0000
,
0220
0000
0000
0330
,
1011
0000
0000
0000
;
