#TITLE:Rotterdom 94.5;
#SUBTITLE:;
#ARTIST:SamplingMasters MEGA;
#TITLETRANSLIT:;
#SUBTITLETRANSLIT:;
#ARTISTTRANSLIT:;
#GENRE:;
#CRChallenge:;
#MENUCOLOR:;
#BANNER:rotterdom.png;
#BACKGROUND:rotterdom-bg.png;
#LYRICSPATH:;
#CDTITLE:;
#MUSIC:rotterdom.ogg;
#OFFSET:0.000;
#SAMPLESTART:43.616;
#SAMPLELENGTH:12.000;
#SELECTABLE:YES;
#LISTSORT:;
#BPMS:0.000=220.000;
#STOPS:;
#TICKCOUNT:0.000=2;
#BGCHANGES:;
#KEYSOUNDS:;
#ATTACKS:;
#NOTES:
     dance-single:
     Renard:
     Medium:
     9:
     0.702,0.826,0.476,0.101,0.000:
0000
0000
0000
0000
,
0000
0000
0000
0000
,
0000
0000
0000
0000
,
0000
0000
0000
0000
,
0000
0000
0000
0000
,
0000
0000
0000
0000
,
0000
0000
0000
0000
,
0000
0000
0000
0000
,
0001
1000
0001
0000
0100
0000
0010
0000
,
1000
0100
0000
0010
0000
0001
0000
1000
,
0010
0100
0010
0000
1000
0000
0100
0000
,
0010
0001
0000
1000
0000
0010
0000
0000
,
0100
0001
0100
0000
0010
0000
1000
0000
,
0100
0010
0000
0001
0000
0010
0000
0100
,
1000
0001
1000
0000
0001
0000
0100
0000
,
0010
1000
0000
0010
0000
0100
0000
0000
,
0001
0000
0001
0000
0001
0000
0100
0100
,
0001
0000
0001
0000
0001
0000
0100
0100
,
0001
0000
0001
0000
0001
0100
0001
0100
,
0001
0100
0001
0100
0001
0000
0100
0100
,
0001
0000
0001
0000
0001
0000
0100
0100
,
0001
0000
0001
0000
0001
0000
0100
0100
,
0001
0000
0001
0000
0001
0100
0001
0100
,
0001
0100
0001
0100
0001
0000
0100
0100
,
0001
0100
0001
0010
0001
1000
0001
0100
,
0001
0010
0001
1000
0001
0100
0001
0010
,
0001
1000
0001
0100
0001
0010
0001
1000
,
0001
0100
0010
1000
0100
0000
1001
0000
,
1000
0100
1000
0010
1000
0001
1000
0100
,
1000
0010
1000
0001
1000
0100
1000
0010
,
1000
0001
1000
0100
1000
0010
1000
0001
,
2000
0000
0001
3001
1000
0000
0001
1000
,
0001
0000
1001
0000
0000
0110
0000
0010
,
1000
0000
0101
0000
0000
1010
0000
1000
,
0100
0000
0011
0000
0000
1100
0000
1000
,
0010
0000
0100
0000
0001
0100
0010
1000
,
0100
0000
0011
0000
0000
1001
0000
0100
,
1000
0000
1001
0000
0000
1010
0000
0100
,
0001
0000
1010
0000
0000
0100
0000
0002
,
0020
0000
0000
0033
,
0011
0000
0100
1000
0000
0010
0100
0000
,
0101
0000
0010
1000
0000
0100
0010
0000
,
0011
0000
0010
0100
0000
1000
0001
0000
,
0101
0000
0010
1000
0000
0100
0010
0001
,
0010
0000
0100
1000
0000
0001
0100
0000
,
0110
0000
0010
1000
0000
0100
0010
0000
,
0011
0000
0010
0100
0000
1000
0001
0100
,
0020
1000
0001
0130
,
0010
0010
0110
0000
0100
0100
0110
0000
,
0010
0010
0110
0000
0110
0000
0000
0000
,
0010
0100
0001
0100
0010
0000
0100
0000
,
0001
0010
0100
0010
0001
0000
0010
0000
,
0001
0100
0010
0100
0001
0000
0100
0000
,
0010
0100
0001
0010
0100
0010
0001
0100
,
0010
0100
0001
0000
0100
0000
0010
0000
,
0100
0001
0010
0100
0010
0000
0001
0000
,
0100
0010
0100
0001
0100
0010
0100
0001
,
0010
0100
0010
0001
0100
0000
0010
0000
,
1000
0000
0010
1000
0001
0100
0001
0100
,
0010
0000
1000
0010
0100
0001
0100
0001
,
1000
0000
0010
1000
0001
0100
0001
0100
,
0010
0000
1000
0001
1000
0001
1000
0000
,
0001
0000
0100
0001
1000
0010
1000
0010
,
0100
0000
0001
0100
0010
1000
0010
1000
,
0001
0000
0100
0001
1000
0010
1000
0010
,
0110
1001
0110
1001
,
0001
0100
0010
0000
1000
0000
0100
0000
,
0010
0001
0000
1000
0000
0010
0000
0100
,
0010
1000
0100
0000
0010
0000
0001
0000
,
1000
0010
0000
0100
0000
0001
0100
0001
,
0100
0010
1000
0000
0100
0000
0010
0000
,
0001
0010
0100
1000
0000
0001
0000
0100
,
0010
1000
0010
0000
0100
0000
0001
0100
,
0010
1000
0100
1000
0001
1000
0010
0000
,
1001
0000
1001
0000
1001
0000
0001
0001
,
1001
0000
1001
0000
1001
0000
1000
1000
,
1001
0000
1001
0000
1001
0001
1000
0001
,
1000
0001
1000
0001
1000
0000
0001
0001
,
1001
0000
1001
0000
1001
0000
1000
1000
,
1001
0000
1001
0000
1001
0000
0001
0001
,
1001
0000
1001
0000
1001
1000
0001
1000
,
0001
1000
0001
1000
0001
0000
1000
1000
,
2002
0000
0000
0000
,
0100
0000
3013
0000
,
2002
0000
0000
0000
,
0100
0000
3013
0000
,
0212
0000
0000
0000
,
0000
0000
0000
0000
,
0000
0000
0000
0000
,
0000
0000
0000
0000
,
0000
0000
0303
0000
;
#NOTES:
     dance-single:
     Renard:
     Hard:
     9:
     0.770,0.917,0.953,0.101,0.010:
0000
0000
0000
0000
,
0000
0000
0000
0000
,
0000
0000
0000
0000
,
0000
0000
0000
0000
,
0000
0000
0000
0000
,
0000
0000
0000
0000
,
0000
0000
0000
0000
,
0000
0000
0000
0000
,
0001
1000
0001
0000
0100
0000
0010
0000
,
1000
0100
0000
0010
0000
0001
0000
1000
,
0010
0100
0010
0000
1000
0000
0100
0000
,
0010
0001
0000
1000
0000
0010
0000
0000
,
0100
0001
0100
0000
0010
0000
1000
0000
,
0100
0010
0000
0001
0000
0010
0000
0100
,
1000
0001
1000
0000
0001
0000
0100
0000
,
0010
1000
0000
0010
0000
0100
0000
0000
,
0001
0000
0001
0000
0001
0000
0100
0100
,
0001
0000
0001
0000
0001
0000
0100
0100
,
0001
0000
0001
0000
0001
0100
0001
0100
,
0001
0100
0001
0100
0001
0000
0100
0100
,
0001
0000
0001
0000
0001
0000
0100
0100
,
0001
0000
0001
0000
0001
0000
0100
0100
,
0001
0000
0001
0000
0001
0100
0001
0100
,
0001
0100
0001
0100
0001
0000
0100
0100
,
0001
0011
0000
0101
0000
1001
0000
0101
,
0001
0011
0000
0101
0000
1001
0000
0011
,
0001
0011
0000
0101
0000
1001
0000
0101
,
0001
0011
0000
1001
0000
0101
0000
1001
,
1000
1100
0000
1010
0000
1001
0000
1010
,
1000
1100
0000
1010
0000
1001
0000
1100
,
1000
1100
0000
1010
0000
1001
0000
1010
,
2000
0000
0000
0000
0001
0000
0001
0000
3010
0000
0000
0000
0010
1000
0010
0000
,
1010
0000
1001
0000
0000
0110
0000
1010
,
0101
0000
0101
0000
0000
1010
0000
1001
,
1100
0000
0011
0000
0000
1100
0000
1001
,
0110
0000
0101
0000
0000
0101
0000
1010
,
1001
0000
0011
0000
0000
1001
0000
0101
,
1010
0000
1001
0000
0000
1010
0000
0101
,
0011
0000
1001
0000
0000
1100
0000
0002
,
0020
0000
0000
0033
,
0011
0000
0100
1000
0000
0010
0100
0000
,
0101
0000
0010
1000
0000
0100
0010
0000
,
0011
0000
0010
0100
0000
1000
0001
0000
,
0101
0000
0010
1000
0000
0100
0010
0001
,
0010
0000
0100
1000
0000
0001
0100
0000
,
0110
0000
0010
1000
0000
0100
0010
0000
,
0011
0000
0010
0100
0000
1000
0001
0100
,
0020
1000
0001
0130
,
0010
0010
0110
0000
0100
0100
0110
0000
,
0010
0010
0110
0000
0110
0000
0000
0000
,
0001
0100
1000
0100
0001
0100
1000
0100
,
0001
0010
1000
0010
0001
0010
1000
0010
,
0001
0100
1000
0100
0001
0100
1000
0100
,
0001
0010
1000
0010
0001
0100
1000
0100
,
0001
0010
1000
0010
0001
0010
1000
0010
,
0001
0100
1000
0100
0001
0100
1000
0100
,
0001
0010
1000
0010
0001
0010
1000
0010
,
0001
0000
0000
0000
1000
0000
1000
0000
0001
0000
0000
0000
0001
1000
0001
0000
,
1000
0000
0001
0001
0100
0100
0010
0010
,
1000
0000
0001
0001
0010
0010
0100
0100
,
1000
0000
0010
0010
0100
0100
0001
0001
,
1000
0000
0100
0010
0001
0010
0100
1000
,
0001
0000
0100
0100
0010
0010
1000
1000
,
0010
0000
0100
0100
0001
0001
1000
1000
,
0001
0000
0010
0010
0100
0100
1000
1000
,
0110
1001
0110
1001
,
0001
0100
0010
0000
1000
0000
0100
0000
,
0010
0001
0000
1000
0000
0010
0000
0100
,
0010
1000
0100
0000
0010
0000
0001
0000
,
1000
0010
0000
0100
0000
0001
0100
0001
,
0100
0010
1000
0000
0100
0000
0010
0000
,
0001
0010
0100
1000
0000
0001
0000
0100
,
0010
1000
0010
0000
0100
0000
0001
0100
,
0010
1000
0100
1000
0001
1000
0010
0000
,
1001
0000
1011
0000
1001
0000
0001
0001
,
1001
0000
1011
0000
1001
0000
1000
1000
,
1001
0000
1011
0000
1001
0001
1000
0001
,
1000
0001
1000
0001
1000
0000
0001
0001
,
1001
0000
1011
0000
1001
0000
1000
1000
,
1001
0000
1011
0000
1001
0000
0001
0001
,
1001
0000
1011
0000
1001
1000
0001
1000
,
0001
1000
0001
1000
0001
0000
1000
1000
,
2002
0000
0000
0000
,
0110
0000
3113
0000
,
2002
0000
0000
0000
,
0110
0000
3113
0000
,
1212
0000
0000
0000
,
0000
0000
0000
0000
,
0000
0000
0000
0000
,
0000
0000
0000
0000
,
0000
0000
0303
0000
;
#NOTES:
     dance-single:
     JS:
     Easy:
     7:
     0.449,0.550,0.142,0.081,0.000:
0000
0000
0000
0000
,
0000
0000
0000
0000
,
0000
0000
0000
0000
,
0000
0000
0000
0000
,
0000
0000
0000
0000
,
0000
0000
0000
0000
,
0000
0000
0000
0000
,
0000
0000
0000
0000
,
0001
0100
0010
1000
,
0010
0100
0001
1000
,
0001
0010
0100
1000
,
0100
0010
0001
1000
,
0001
0100
0010
1000
,
0010
0100
0001
1000
,
0001
0010
0100
1000
,
0100
0010
0001
1000
,
0002
0000
0000
0003
,
0000
0000
0000
0000
,
2000
0000
0000
3000
,
0100
0000
0010
0000
,
0002
0000
0000
0003
,
0000
0000
0000
0000
,
2000
0000
0000
3000
,
0100
0000
0100
0000
,
1000
0000
0000
0000
1000
0000
1000
0010
,
1000
0000
0000
0000
1000
0000
1000
0001
,
1000
0000
0000
0000
1000
0000
1000
0100
,
1000
0100
0000
0100
0000
0010
0000
0010
,
0001
0000
0000
0000
0001
0000
0001
0010
,
0001
0000
0000
0000
0001
0000
0001
1000
,
0001
0000
0000
0000
0001
0000
0001
0100
,
0001
0000
1000
0000
,
0001
0010
0001
0100
,
0001
0010
0001
0100
,
0001
0010
0001
1000
,
0001
0000
0010
0000
0001
1000
0001
0000
,
1000
0010
1000
0100
,
1000
0010
1000
0100
,
1000
0010
1000
0001
,
2002
0000
0000
3003
,
1000
0000
0100
1000
0000
0000
0100
0000
,
0010
0000
0100
0010
0000
0000
0100
0000
,
0010
0000
0001
0010
0000
0000
0001
0000
,
0100
0000
0010
1000
0000
0000
0001
0000
,
1000
0000
0100
0010
0000
0000
0100
0000
,
1000
0000
0001
0100
0000
0000
0001
0000
,
1000
0000
0100
0010
0000
0000
0100
0000
,
1000
0010
0100
0001
,
1000
1100
0001
0101
,
1000
1100
1001
0000
,
1000
0100
0010
0000
0001
0000
0001
0000
,
1000
0010
0100
0000
0001
0000
0001
0000
,
1000
0100
0010
0000
0001
0000
0001
0000
,
0100
0000
0010
0000
1000
0001
1000
0000
,
0001
0100
0010
0000
1000
0000
1000
0000
,
0001
0010
0100
0000
1000
0000
1000
0000
,
0001
0100
0010
0000
1000
0000
1000
0000
,
0100
0010
1001
0000
,
1000
0000
0010
0000
0100
0010
0100
0000
,
0001
0000
0010
0000
0100
0010
0100
0000
,
1000
0000
0010
0000
0100
0010
0100
0000
,
0001
0100
0010
0000
1000
0000
0000
0000
,
0001
0000
0100
0000
0010
0100
0010
0000
,
1000
0000
0100
0000
0010
0100
0010
0000
,
0001
0000
0100
0000
0010
0100
0010
0000
,
1000
0001
1001
0000
,
0000
1000
0100
0000
1000
0000
0100
0000
,
1000
0001
0000
1000
0000
0001
1000
0001
,
0000
0001
0100
0000
0001
0000
0100
0000
,
0001
0100
0000
0001
0000
1000
0001
1000
,
0000
1000
0010
0000
1000
0000
0010
0000
,
0100
0010
0000
0100
0000
0100
0010
0100
,
0000
0001
0010
0000
0001
0000
0010
0000
,
0100
0010
0000
0100
0000
0100
0010
0100
,
1000
0100
0100
0000
,
0001
0100
0100
0000
,
1000
0100
0010
0001
,
0100
0010
1000
0000
,
0001
0100
0100
0000
,
1000
0100
0100
0000
,
0001
0100
0010
1000
,
0100
0010
0001
0000
,
1001
0000
0000
0000
,
1100
0000
0011
0000
,
1001
0000
0000
0000
,
0101
0000
1010
0000
,
2002
0000
0000
0000
,
0000
0000
0000
0000
,
0000
0000
0000
0000
,
0000
0000
0000
0000
,
0000
0000
3003
0000
;
#NOTES:
     dance-single:
     JS:
     Beginner:
     3:
     0.272,0.413,0.122,0.081,0.000:
0000
0000
0000
0000
,
0000
0000
0000
0000
,
0000
0000
0000
0000
,
0000
0000
0000
0000
,
0000
0000
0000
0000
,
0000
0000
0000
0000
,
0000
0000
0000
0000
,
0000
0000
0000
0000
,
0001
0000
0100
0000
,
0010
0000
1000
0000
,
0001
0000
0010
0000
,
0100
0000
1000
0000
,
0010
0000
0100
0000
,
0001
0000
1000
0000
,
0100
0000
0010
0000
,
0001
0000
1000
0000
,
0002
0000
0000
0003
,
0000
0000
0000
0000
,
2000
0000
0000
3000
,
1000
0000
1000
0000
,
0020
0000
0000
0030
,
0000
0000
0000
0000
,
0200
0000
0000
0300
,
0100
0000
0100
0000
,
0001
0000
0100
0000
,
0001
0000
0100
0000
,
0010
0000
0100
0000
,
0010
0000
1000
0000
,
0001
0000
0010
0000
,
0001
0000
0010
0000
,
0100
0000
0010
0000
,
0100
0000
1000
0000
,
0000
0001
0000
1000
,
0000
0001
0000
1000
,
0000
0010
0000
0100
,
0001
0001
0001
0001
,
0000
1000
0000
0001
,
0000
1000
0000
0001
,
0000
0010
0000
0100
,
2002
0000
0000
3003
,
1000
0000
0000
1000
,
0100
0000
0000
0100
,
0010
0000
0000
0010
,
0001
0000
0000
0001
,
1000
0000
0000
1000
,
0010
0000
0000
0010
,
0100
0000
0000
0100
,
0001
0000
0000
0001
,
0000
0010
0000
0100
,
0000
0010
0100
0000
,
1000
0000
0100
0000
,
0001
0000
0100
0000
,
1000
0000
0100
0000
,
1000
1000
1000
0000
,
0001
0000
0100
0000
,
1000
0000
0100
0000
,
0001
0000
0100
0000
,
0001
0001
0001
0000
,
1000
1000
1000
0000
,
0100
0100
0100
0000
,
0010
0010
0010
0000
,
0001
0001
0001
0000
,
1000
1000
1000
0000
,
0010
0010
0010
0000
,
0100
0100
0100
0000
,
0001
0001
0001
0000
,
1000
0000
0110
0000
,
0001
0000
0110
0000
,
1000
0000
1001
0000
,
0001
0000
1001
0000
,
0100
0000
1001
0000
,
0010
0000
1001
0000
,
0100
0000
0110
0000
,
0010
0000
0110
0000
,
1000
1000
1000
0000
,
0001
0001
0001
0000
,
0100
0100
0100
0100
,
0010
0010
0010
0000
,
1000
1000
1000
0000
,
0100
0100
0100
0000
,
0010
0010
0010
0010
,
0001
0001
0001
0000
,
0110
0000
0000
0000
,
0100
0000
0100
0000
,
1001
0000
0000
0000
,
0010
0000
0010
0000
,
2002
0000
0000
0000
,
0000
0000
0000
0000
,
0000
0000
0000
0000
,
0000
0000
0000
0000
,
0000
0000
3003
0000
;
