#TITLE:Rotterdam Nation;
#SUBTITLE:;
#ARTIST:SamplingMasters MEGA;
#TITLETRANSLIT:;
#SUBTITLETRANSLIT:;
#ARTISTTRANSLIT:;
#GENRE:;
#CRChallenge:;
#MENUCOLOR:;
#BANNER:nation.png;
#BACKGROUND:nation-bg.png;
#LYRICSPATH:;
#CDTITLE:!CDtitle.png;
#MUSIC:nation.ogg;
#OFFSET:0.000;
#SAMPLESTART:21.540;
#SAMPLELENGTH:12.000;
#SELECTABLE:YES;
#LISTSORT:;
#DISPLAYBPM:100.000:200.000;
#BPMS:0.000=200.000,130.000=400.000,146.000=200.000,178.000=100.000,186.000=200.000,250.000=400.000,258.000=180.000;
#STOPS:60.000=0.900
,61.000=0.900
,62.000=0.900
,127.000=0.900
,128.000=0.900
,129.000=0.900
;
#TICKCOUNT:0.000=2;
#BGCHANGES:;
#KEYSOUNDS:;
#ATTACKS:;
#NOTES:
     dance-single:
     Renard:
     Medium:
     9:
     0.606,0.775,0.396,0.107,0.037:
0000
0000
0000
0000
,
0000
0000
0000
0000
,
0000
0000
0000
0000
,
0000
0000
0000
0000
,
0000
0000
0000
0000
,
0000
0000
0000
0000
,
0000
0000
0000
0000
,
0000
0000
0000
0000
,
1000
0000
0001
0001
0100
0000
0010
0010
,
1000
0010
1000
0010
,
0100
0000
0001
0001
0010
0000
0100
0100
,
1000
0000
0000
0001
0000
0000
0001
0000
1000
0000
0000
0000
0001
0000
0000
0000
,
0100
0000
0010
0010
1000
0000
0001
0001
,
0100
0010
0100
0010
,
1000
0000
0001
0001
0010
0000
0100
0200
,
0020
0330
0000
0000
2002
3003
0000
0000
0220
0330
0000
0000
1000
0000
0000
0000
,
0110
0101
0110
1000
,
0110
0101
0110
1000
,
0110
0000
0101
0000
0110
0000
0010
1000
,
0100
0010
0001
0000
1000
0000
0001
0000
,
1010
1100
1010
0001
,
1100
1010
1100
0001
,
1010
1100
1010
1000
,
0001
0100
0010
0000
1000
0010
0100
0001
,
0100
0000
0100
0010
0100
0000
0100
0001
,
0100
0000
0100
0010
0100
0000
0100
0010
,
1000
0010
0100
0001
0100
0000
1001
0000
,
0110
0000
1001
0000
0110
0000
1000
0010
,
1000
0000
0001
0100
0001
0000
1000
0010
,
1000
0000
0001
0100
0001
0000
0100
0010
,
0100
0010
0100
0001
0100
0000
1001
0000
,
0110
1001
0110
1001
,
1011
1110
0022
0000
,
0000
0000
0000
0000
,
0000
0000
0000
0000
,
0000
0000
0000
0000
,
0033
0000
0000
0000
0001
0010
0100
0000
,
0001
0010
0100
0000
0001
0010
0100
0100
,
0001
0010
0100
0000
0001
0010
0001
0010
,
0001
0010
0001
0010
0001
0010
0001
0010
,
0001
0010
0100
0000
1000
0100
0010
0000
,
1000
0100
0010
0000
1000
0100
0010
0010
,
1000
0100
0010
0000
1000
0100
1000
0100
,
1000
0100
1000
0100
1000
0100
1000
0100
,
1000
0000
0100
0000
1000
0000
0000
0000
1000
0000
0000
0000
0101
0000
0000
0010
,
0000
1000
0000
0100
0000
0000
0010
0000
0001
0000
0000
0000
0110
0000
0000
0010
,
0000
1000
0000
0001
0000
0000
1001
0000
0001
0000
0100
0000
0001
0000
0100
0000
,
0001
0100
0001
0100
0010
0000
1000
1000
,
0100
0000
0010
0010
0100
1000
0100
1000
,
0100
1000
0100
1000
0100
0000
1000
1000
,
0010
0010
0100
0000
0001
0010
0001
0010
,
0001
0010
0001
0010
0100
0000
1000
1000
,
0010
0000
0100
0100
0010
1000
0010
1000
,
0010
1000
0010
1000
0100
0000
0010
0010
,
0001
0001
1000
0000
0001
0000
0100
0000
,
1000
0000
0100
0000
0001
0010
0000
1000
,
0000
0010
0100
1000
0010
0000
0100
0000
,
0001
0000
0100
0000
0010
1000
0000
0100
,
0000
0001
0000
0100
0010
0000
0001
0000
,
0010
0000
0100
0000
1000
0010
0000
0001
,
0000
0010
0100
0001
1000
0000
0100
0000
,
0010
0001
2002
0000
,
0000
0000
0000
0000
,
0000
0000
0000
0000
,
3003
0000
0000
0000
0001
0100
0001
0100
,
1000
0100
1000
0100
0010
0001
0010
0001
,
0010
1000
0010
1000
0100
1000
0100
1000
,
0100
0001
0100
0001
1000
0010
1000
0010
,
0001
0010
0001
0010
0100
1000
0010
0001
,
0010
0100
1000
0100
0001
0010
1000
0010
,
0100
0010
0100
0001
0100
1000
0010
0001
,
0010
0100
1000
0100
0001
0010
1000
0010
,
0100
0001
0100
0000
1001
0000
0000
0000
;
#NOTES:
     dance-single:
     JS:
     Easy:
     7:
     0.463,0.659,0.620,0.171,0.032:
0000
0000
0000
0000
,
0000
0000
0000
0000
,
0000
0000
0000
0000
,
0000
0000
0000
0000
,
0000
0000
0000
0000
,
0000
0000
0000
0000
,
0000
0000
0000
0000
,
0000
0000
0000
0000
,
1001
1000
0100
0010
,
0000
0000
0000
0000
,
1001
0001
0100
0010
,
0000
0000
0000
0000
,
1100
0100
0010
0001
,
0000
0000
0000
0000
,
0101
0100
0010
1000
,
0002
0003
0000
0000
0000
0000
0000
0000
0000
0000
0000
0000
0000
0000
0000
0000
2000
3000
0000
0000
0000
0000
0000
0000
0000
0000
0000
0000
0000
0000
0000
0000
0220
0330
0000
0000
0000
0000
0000
0000
0000
0000
0000
0000
0000
0000
0000
0000
0001
0000
0000
0000
0000
0000
0000
0000
0000
0000
0000
0000
0000
0000
0000
0000
,
0000
0100
0000
0000
0010
0000
0000
0100
,
0000
0000
0001
0000
0000
1000
0000
0000
,
0100
0000
0000
1000
0000
0000
0100
0000
,
0010
0000
0001
0010
0001
0000
1000
0000
,
0000
0100
0000
0000
0010
0000
0000
0100
,
0000
0000
1000
0000
0000
0001
0000
0000
,
0100
0000
0000
0001
0000
0000
0100
0000
,
0010
0000
1000
0010
1000
0000
0001
0000
,
1100
0001
1100
0001
,
1100
0001
1100
0001
,
0001
0001
0001
1100
,
1100
1100
1100
1000
,
0011
1000
0011
1000
,
0011
1000
0011
1000
,
1000
1000
1000
0011
,
0011
0000
0000
0000
0000
0000
0000
0000
0000
0000
0000
0000
0000
0000
0000
0000
0011
0000
0000
0000
0000
0000
0000
0000
0000
0000
0000
0000
0000
0000
0000
0000
0011
0000
0000
0000
0000
0000
0000
0000
0000
0000
0000
0000
0000
0000
0000
0000
2200
3300
0000
0000
0000
0000
0000
0000
0000
0000
0000
0000
0000
0000
0000
0000
,
0220
0330
0000
0000
0000
0000
0000
0000
0000
0000
0000
0000
0000
0000
0000
0000
0022
0033
0000
0000
0000
0000
0000
0000
0000
0000
0000
0000
0000
0000
0000
0000
2002
0000
0000
0000
0000
0000
0000
0000
0000
0000
0000
0000
0000
0000
0000
0000
0000
0000
0000
0000
0000
0000
0000
0000
0000
0000
0000
0000
0000
0000
0000
0000
,
0000
0000
0000
0000
,
0000
0000
0000
0000
,
0000
0000
0000
0000
,
3003
0000
1100
0010
,
1100
0010
1100
0010
,
1100
0010
1100
1100
,
1100
1100
1001
1001
,
1001
0010
0101
0010
,
0101
0010
0101
0010
,
0101
0010
0101
0101
,
0101
0101
1001
1001
,
1001
0000
0000
0000
0010
0000
0000
0000
1100
0000
0000
0000
0001
0000
0000
1000
,
0000
1000
0000
0001
0000
0000
1001
0000
0001
0000
0000
0000
1000
0000
0000
0001
,
0000
0001
0000
1000
0000
0000
1000
0000
0001
0000
0000
0000
0100
0000
0000
0000
,
0010
1000
0010
0000
1000
0000
0101
0000
,
1000
0101
1000
0100
,
0010
0001
0010
0000
0001
0000
1100
0000
,
0001
1100
0001
0010
,
0001
1000
0001
0000
0100
0000
1010
0000
,
0100
1010
1000
0010
,
1000
0001
1000
0000
0100
0000
0010
0000
,
0010
0000
0001
0000
1000
0000
0000
0100
,
0000
0000
0010
0000
0000
0001
0000
0000
,
0100
0000
0000
0100
0001
0000
0000
0100
,
0000
0000
0010
0000
0000
1000
0000
0000
,
0100
0000
0000
0100
1000
0000
0000
0001
,
0000
0000
0100
0000
0000
0010
0000
0000
,
1000
0000
0000
1000
0001
0000
0000
1000
,
0000
0100
0220
0000
,
0000
0330
2002
0000
,
0000
0000
0000
0000
,
3003
0000
0000
0000
1000
0100
0000
0100
,
0000
0100
0000
0100
0010
0100
0000
0100
,
1000
0100
1000
0000
0001
0100
0000
0100
,
0000
0100
0000
0100
0010
0100
0000
0100
,
0001
0100
0001
0000
1000
0001
0000
0001
,
0000
0001
0000
0001
0100
0001
0000
0001
,
0010
0001
0010
0000
0001
1000
0000
1000
,
0000
1000
0000
1000
0100
1000
0000
1000
,
0010
1000
0010
0000
1001
0000
0000
0000
;
#NOTES:
     dance-single:
     JS:
     Beginner:
     3:
     0.286,0.349,0.160,0.000,0.000:
0000
0000
0000
0000
,
0000
0000
0000
0000
,
0000
0000
0000
0000
,
0000
0000
0000
0000
,
0000
0000
0000
0000
,
0000
0000
0000
0000
,
0000
0000
0000
0000
,
0000
0000
0000
0000
,
1000
1000
1000
1000
,
0000
0000
0000
0000
,
0001
0001
0001
0001
,
0000
0000
0000
0000
,
0100
0100
0100
0100
,
0000
0000
0000
0000
,
0010
0010
0010
0010
,
1000
0001
1000
0001
,
0000
0100
0000
0010
,
0000
0100
0000
0001
,
0000
0100
0000
1001
,
0000
1001
0000
1000
,
0000
0100
0000
0010
,
0000
0100
0000
1000
,
0000
0100
0000
1001
,
0000
1001
0000
1000
,
0001
1000
0001
1000
,
0001
1000
0001
1000
,
0001
1000
0001
1000
,
1000
1000
0000
0100
,
0010
0100
0010
0100
,
0010
0100
0010
0100
,
0010
0100
0010
0100
,
0100
0100
0000
0001
,
1000
0001
1000
0000
,
0000
0000
0000
0000
,
0000
0000
0000
0000
,
0000
0000
0000
0000
,
0000
0000
0001
0100
,
0001
0100
0001
0100
,
0001
0100
0001
0001
,
0001
0001
1000
1000
,
1000
0000
1000
0100
,
1000
0100
1000
0100
,
1000
0100
1000
1000
,
1000
1000
0001
0001
,
0001
0000
1000
0100
,
0010
0001
1000
0010
,
0100
0001
1000
0100
,
0010
0000
1001
0000
,
1001
0000
0001
0100
,
0010
0000
1001
0000
,
1001
0000
1000
0010
,
0100
0000
0110
0000
,
0110
0000
0001
0010
,
0100
0000
0010
0000
,
0001
0000
1000
0000
,
0001
0000
0100
0000
,
1001
0000
0001
0000
,
1000
0000
0100
0000
,
1001
0000
1000
0000
,
0010
0000
0100
0000
,
0101
0000
0001
0000
,
0010
0000
0100
0000
,
0000
0000
1001
0000
,
0000
0000
0000
0000
,
0000
0000
1000
1000
,
1000
1000
0100
0100
,
0010
0000
0001
0001
,
0001
0001
0100
0100
,
0010
0000
1000
1000
,
1000
1000
0001
0001
,
0100
0000
0001
0001
,
0001
0001
1000
1000
,
0100
0000
1001
0000
;
