#TITLE:Rottel-Da-Station;
#SUBTITLE:;
#ARTIST:SamplingMasters CHANG;
#TITLETRANSLIT:;
#SUBTITLETRANSLIT:;
#ARTISTTRANSLIT:;
#GENRE:;
#CRChallenge:;
#MENUCOLOR:;
#BANNER:rottel.png;
#BACKGROUND:rottel-bg.png;
#LYRICSPATH:;
#CDTITLE:;
#MUSIC:rottel.ogg;
#OFFSET:0.000;
#SAMPLESTART:9.560;
#SAMPLELENGTH:12.000;
#SELECTABLE:YES;
#LISTSORT:;
#BPMS:0.000=200.000;
#STOPS:188.000=0.600
;
#TICKCOUNT:0.000=2;
#BGCHANGES:;
#KEYSOUNDS:;
#ATTACKS:;
#NOTES:
     dance-single:
     Renard:
     Medium:
     9:
     0.773,0.862,0.392,0.150,0.158:
0000
0000
0000
0000
,
0000
0000
0000
0000
,
0000
0000
0000
0000
,
0000
0000
0000
0000
,
2002
0000
0000
3013
0000
0000
0000
0000
,
0001
0010
0001
0010
0001
0010
0001
0010
0001
0010
0001
0010
0001
0010
0001
0000
,
2000
0002
0000
3013
0000
0000
0000
0000
,
0001
0010
0001
0010
0001
0010
0001
0010
0001
0010
0001
0010
0002
0000
0000
0000
,
1003
0100
0010
0001
0100
0010
0100
0010
,
1000
0100
0010
0001
0100
0010
0100
0010
,
1000
0100
0010
0001
0100
0010
0100
0010
,
1000
0001
1000
0001
0010
0100
0010
0100
,
1000
0001
0010
0100
1000
0010
0100
0010
,
0100
0001
0010
0100
1000
0010
0100
0010
,
0100
0001
0010
0100
1000
0001
0100
0010
,
1000
0001
1000
0001
0100
0010
0100
0000
,
0010
1000
0001
0100
0010
1000
0100
1000
,
0001
0010
0100
1000
0001
0100
0010
1000
,
0001
0010
0001
0010
0100
1000
0100
1000
,
0010
0010
0010
0010
0010
0010
0010
0010
,
0100
0001
0100
0010
1000
0100
1000
0001
,
0010
0001
1000
0010
0100
0001
0100
0010
,
1000
0100
0010
0001
1000
0010
0100
0001
,
2000
0100
0010
3001
,
1100
0000
1100
0000
0001
0010
0100
1000
,
0001
0100
0010
1000
0100
0010
0001
0000
,
0101
0000
0101
0000
0001
0100
0010
1000
,
0100
0010
0001
0010
0100
1000
0001
0000
,
1010
0000
1010
0000
0001
0100
0010
1000
,
0100
0010
0001
0010
0100
1000
0001
0000
,
0101
0000
0101
0000
0001
0100
0010
1000
,
0001
0010
0100
1000
0001
0100
0010
0000
,
0110
0000
0000
0110
0000
0000
0110
0000
0000
0000
0010
0000
1000
0000
0100
0000
,
0010
0000
0000
0011
0000
0000
0011
0000
0000
0000
0010
0000
0100
0000
1000
0000
,
0001
0000
0000
0101
0000
0000
0101
0000
0000
0000
0100
0000
0010
0000
1000
0000
,
0100
0010
1001
0110
,
0201
0000
0000
0001
0000
0000
0001
0000
0000
0000
0010
0000
0000
0000
0010
0000
,
0010
0000
0000
0010
0000
0000
0010
0000
0000
0000
0010
0000
0000
0000
0010
0000
,
1000
0000
0000
1000
0000
0000
1000
0000
0000
0000
1000
0000
0000
0000
1000
0000
,
0010
0000
0000
0000
0000
0000
0000
0000
0000
0000
0000
0000
0000
0000
0000
0000
0000
0000
0000
0000
0000
0000
0000
0000
0000
0000
0000
0000
0000
0000
0000
0000
0000
0000
0000
0000
0000
0000
0000
0000
0000
0000
0000
0000
0000
0000
0000
0000
0010
0000
0000
0000
0000
0000
0000
0000
0000
0000
0000
0000
0000
0000
0000
0000
0000
0000
0000
0000
0000
0000
0000
0000
0000
0000
0000
0000
0000
0000
0000
0000
0000
0000
0000
0000
0000
0000
0000
0000
0000
0000
0000
0000
0000
0000
0000
0000
0010
0000
0000
0000
0000
0000
0000
0000
0000
0000
0000
0000
0000
0000
0000
0000
0000
0000
0000
0000
0000
0000
0000
0000
0010
0000
0000
0000
0000
0000
0000
0000
0000
0000
0000
0000
0000
0000
0000
0000
0000
0000
0000
0000
0000
0000
0000
0000
0010
0000
0000
0000
0000
0000
0000
0000
0000
0000
0000
0000
0000
0000
0000
0000
0000
0000
0000
0000
0000
0000
0000
0000
0010
0300
0000
0000
0000
0000
0000
0000
0000
0000
0000
0000
0000
0000
0000
0000
0000
0000
0000
0000
0000
0000
0000
0000
,
0010
0000
0000
0100
0000
0000
0010
0000
0000
0000
1000
0000
0100
0000
0010
0000
,
0001
0000
0000
0010
0000
0000
0001
0000
0000
0000
0010
0000
0100
0000
1000
0000
,
0001
0000
0000
0100
0000
0000
0001
0000
0000
0000
0100
0000
0010
0000
1000
0000
,
0100
0010
0001
0010
0100
1000
0001
0100
,
0010
0000
0000
1000
0000
0000
0010
0000
0000
0000
1000
0000
0100
0000
0010
0000
,
0001
0000
0000
1000
0000
0000
0100
0000
0000
0000
1000
0000
0001
0000
0100
0000
,
0010
1000
0001
0100
0010
1000
0100
0020
,
0030
0000
0000
0000
0001
0000
1000
0001
1000
0000
0000
0000
0010
0000
0001
0000
,
0000
0010
0000
0100
0000
0001
0010
0000
,
0100
0000
1000
0000
0000
0000
0010
0100
0010
0000
0100
0000
0001
0000
1000
0000
,
0000
0100
0010
0000
0001
0001
1000
0000
,
0001
0001
1000
0001
1000
0000
0010
0001
,
0000
0010
0000
0100
0000
0001
0010
0000
,
0100
0000
1000
0000
0000
0000
0010
0100
0010
0000
0010
0000
0100
0000
0000
0000
,
0010
0010
0001
0000
0010
1000
0010
0000
,
0100
0000
0001
0000
0000
0000
1000
0001
1000
0000
0100
0000
0010
0000
0001
0000
,
1000
0000
0000
1000
0010
0000
0000
0000
2002
0000
0000
0000
0000
0000
3013
0000
,
0000
0000
0000
0000
0001
0010
0100
1000
,
0001
0000
0000
0100
0010
0000
2000
0000
0002
0000
0000
0000
0000
0000
3013
0000
,
0000
0000
0000
0000
0000
0000
0000
0000
1001
0000
0000
0202
0000
0000
0313
0000
,
0000
0000
0000
0000
0000
0000
0000
0000
1001
0000
0000
2200
0000
0000
3310
0000
,
0000
0000
0000
0000
0110
0000
0000
1001
,
0110
0000
0000
0110
1001
0000
1001
0000
,
0110
0000
1001
0000
0001
0100
1000
0100
,
0001
0100
1000
0100
0001
0010
1000
0010
,
0001
0010
1000
0010
0001
0100
1000
0100
,
0001
0010
1000
0010
0001
0100
0010
1000
,
0100
0010
0001
0000
1000
0100
0001
0100
,
1000
0100
0001
0100
1000
0010
0001
0010
,
1000
0010
0001
0010
1000
0100
0001
0100
,
1000
0010
0001
0010
1000
0100
0010
0001
,
1000
0001
1000
0000
0001
0100
0001
0100
,
0010
0100
0010
0100
0001
1000
0001
1000
,
0100
1000
0100
1000
0010
1000
0010
1000
,
0010
0001
0010
0001
0010
0100
0001
0010
,
0100
0000
1000
0001
1001
0000
0000
0000
,
0000
0000
0000
0110
0000
1001
0000
0000
,
0000
0110
1001
0000
,
0000
0000
0000
2000
0001
0000
0001
0000
,
0010
0000
0000
0000
0100
0000
0000
0000
3100
0000
0000
1000
0000
0000
0001
0000
,
0000
0000
0010
0000
0100
0000
1000
0000
0001
0000
0000
0100
0000
0000
0001
0000
,
0000
0000
0010
0000
0100
0000
1000
0000
0001
0000
0000
0100
0000
0000
0010
0000
,
0000
1000
0010
0100
0001
0010
0100
1000
,
0100
0000
0010
0000
0001
0000
1000
0000
0010
0000
0000
1000
0000
0000
0100
0000
,
0000
0000
1000
0000
0100
0000
0010
0000
0001
0000
0000
1000
0000
0001
0000
0000
,
0000
0100
0001
1000
0001
0100
0010
0100
,
1000
0100
0010
0100
0001
0010
0100
0010
,
1000
0010
0100
0010
0011
0000
0000
0011
,
0000
0000
0000
0000
0100
1000
0010
0100
,
0001
1000
0100
0000
1100
0000
0000
1001
,
0000
0000
0000
0000
1000
0010
0100
0001
,
0010
0100
1000
0000
0101
0000
0000
1001
,
0000
0000
0000
0000
1000
0001
0100
0010
,
1000
0100
0010
0001
1001
1001
0000
0110
,
0000
0000
0000
0000
0010
1000
0001
0100
,
0010
1000
0100
0010
2001
0000
0000
0000
,
0000
0001
0000
0000
0010
0000
0000
0000
,
0000
0100
0000
0000
0010
0000
0000
0000
,
0000
0001
0000
0000
3001
0000
0000
0000
;
#NOTES:
     dance-single:
     JS:
     Easy:
     7:
     0.524,0.616,0.408,0.200,0.004:
0000
0000
0000
0000
,
0000
0000
0000
0000
,
0000
0000
0000
0000
,
0000
0000
0000
0000
,
1100
0000
0000
0001
0000
0000
0000
0000
,
1000
0010
1000
0000
0001
0010
0001
0000
,
0101
0001
0000
1000
0000
0000
0000
0000
,
0001
0100
0001
0000
1000
0100
1000
0000
,
0001
0100
0010
1000
,
0010
0000
0100
0001
0000
0001
0010
0100
,
1000
0100
0010
0001
,
0010
0000
0100
1000
0000
1000
0010
0100
,
0001
1000
0100
1000
,
0010
0000
1000
0100
0000
0100
0010
0001
,
1000
0001
0100
0001
,
0010
0000
0001
0100
0000
0100
0010
1000
,
0002
0000
1000
0000
1000
0000
0000
0100
,
0000
0100
0000
0000
0010
0000
0013
0000
,
2000
0000
0001
0000
0001
0000
0000
3100
,
1000
0010
1000
0000
0001
0100
0001
0000
,
0020
0000
0001
0000
0001
0000
0000
0100
,
0000
0100
0000
0000
0001
0000
0031
0000
,
0200
0000
0001
0000
0001
0000
0000
0310
,
1000
0010
0100
0001
,
1000
0011
1100
0011
,
2000
0100
0002
3003
,
0001
1010
0101
1010
,
0002
0100
2000
3003
,
1000
1010
0110
0101
,
0012
1000
0200
0303
,
1000
0011
1001
0101
,
2020
0030
0002
3003
,
1000
0010
0100
0001
,
0100
0000
0010
1000
0000
1000
0100
0010
,
0001
0010
0100
1000
,
0100
0000
0010
0001
0000
0001
0100
0010
,
2000
0000
0000
0000
,
0200
0000
0000
0000
,
0002
0000
0000
3303
,
1000
0001
1000
0000
0001
1000
0001
0000
,
1000
0001
0010
0001
,
0100
0000
0001
0010
0000
0010
0100
1000
,
0001
1000
0010
1000
,
0100
0000
1000
0010
0000
0010
0100
0000
,
0101
1000
0001
1000
,
0011
1000
0001
1000
,
0001
0100
0001
0000
1000
0010
1000
0000
,
2002
3003
0000
0000
0000
0000
0000
0000
0000
0000
0000
0000
0000
0000
0000
0000
0000
0000
0000
0000
0000
0000
0000
0000
0000
0000
0000
0000
0000
0000
0000
0000
0100
0000
0000
0000
0000
0000
0000
0000
0000
0000
0000
0000
0000
0000
0000
0000
0010
0000
0000
0000
0000
0000
0000
0000
0000
0000
0000
0000
0000
0000
0000
0000
,
1000
0001
1000
0000
0100
0000
0010
0000
,
0001
1000
0001
0000
0100
0000
0010
0000
,
1000
0001
1000
0000
1100
0000
0011
0000
,
1001
0000
0100
0010
,
0001
1000
0001
0000
0100
0000
0010
0000
,
1000
0001
1000
0000
0100
0000
0010
0000
,
0001
1000
0001
0000
1001
0000
1000
0000
,
0100
0000
0010
0000
0001
0000
0000
0100
,
0000
0000
0010
0000
0110
0000
0000
1001
,
0000
0000
0000
0000
1000
0000
0000
0100
,
0000
0000
0010
0000
0100
0010
0000
1001
,
0000
0000
0000
0000
1100
0000
0000
0001
,
0000
0000
0000
0000
1010
0000
1000
0001
,
0000
0000
1100
0000
,
0101
0000
1100
0101
,
1000
0100
0010
0001
1000
0000
0100
0000
,
0010
0001
1000
0010
,
0100
0000
0001
0000
1000
0000
0001
1000
,
0000
1000
0000
0001
1000
0000
0100
0000
,
0010
1001
0001
0100
,
0010
0000
1000
0000
0001
0000
1000
0001
,
0000
0001
0000
1000
0001
0000
0001
0000
,
0001
0000
0000
0001
0000
0000
0001
0000
0001
0000
0000
0000
0010
0000
0000
0000
,
0100
1000
0001
0101
,
1010
0101
1002
0100
,
0020
0033
1000
1100
,
0011
1100
2001
0100
,
0020
3030
1001
0000
,
0000
0000
0000
0100
0000
0100
0000
0000
,
0000
0010
1001
0000
,
0000
0000
0000
0001
1000
0000
0100
0000
,
0010
0001
1000
0100
,
0010
0000
0100
0000
0001
0000
0100
0010
,
0000
0010
0100
1000
0001
0000
0100
0000
,
0010
0000
0100
0000
1000
0000
0100
0010
,
0000
0010
0100
0001
1000
0000
0010
0000
,
1000
0000
0001
0000
1000
0000
0100
1000
,
0000
1000
0010
0100
0001
0000
0010
0000
,
0001
0000
1000
0000
0001
0100
0000
0010
,
1000
0000
1001
0000
0101
0000
0000
1000
,
0000
0000
0001
0100
,
0010
0000
1000
0000
1100
1000
0000
0001
,
0001
0000
1000
0100
,
0010
0000
0001
0000
1100
0000
0000
0010
,
0000
0000
0001
0010
,
0100
0000
1000
0000
0101
0100
0000
0010
,
0010
0000
1000
0010
,
0100
0001
2002
0000
,
0000
0000
0000
0000
,
0000
0000
0000
0000
,
0000
0000
3003
0000
;
#NOTES:
     dance-single:
     JS:
     Beginner:
     4:
     0.313,0.369,0.175,0.275,0.000:
0000
0000
0000
0000
,
0000
0000
0000
0000
,
0000
0000
0000
0000
,
0000
0000
0000
0000
,
2200
0000
0000
3300
0000
0000
0000
0000
,
1000
0000
0001
0000
,
0202
0000
0000
0303
0000
0000
0000
0000
,
0001
0000
1000
0000
,
0001
0100
0100
0000
,
0100
0010
0010
0000
,
0010
1000
1000
0000
,
0001
0000
0001
0000
,
1000
0100
0100
0000
,
0100
0010
0010
0000
,
0010
0001
0001
0000
,
1000
0000
1000
0000
,
0001
0001
0001
0001
,
0100
0001
0001
0000
,
1000
1000
1000
1000
,
0100
1000
1000
0000
,
0010
0010
0010
0010
,
0100
0010
0010
0000
,
0100
0100
0100
0100
,
0010
0000
1001
0000
,
1000
0000
0100
0000
,
0020
0000
0000
0030
,
0001
0000
0100
0000
,
0020
0000
0000
0030
,
1000
0000
0001
0000
,
0200
0000
0000
0300
,
0001
0000
1000
0000
,
0200
0000
0000
0300
,
1000
0100
0100
0000
,
0100
1000
1000
0000
,
1000
0001
0001
0000
,
0001
1000
1000
0000
,
2002
0000
0000
0000
,
0000
0000
0000
0000
,
3013
0000
0000
0000
,
1000
1000
0001
0001
,
1000
0100
0100
0000
,
0100
0001
0001
0000
,
0001
0100
0100
0000
,
0100
1000
1000
0000
,
0001
0010
0010
0000
,
0010
1000
1000
0000
,
1000
0010
0010
0000
,
0002
0003
0000
0000
0000
0000
0000
0000
0000
0000
0000
0000
0000
0000
0000
0000
0000
0000
0000
0000
0000
0000
0000
0000
0000
0000
0000
0000
0000
0000
0000
0000
1001
0000
0000
0000
0000
0000
0000
0000
0000
0000
0000
0000
0000
0000
0000
0000
0000
0000
0000
0000
0000
0000
0000
0000
0000
0000
0000
0000
0000
0000
0000
0000
,
1000
0000
0110
0000
,
0100
0000
1001
0000
,
0001
0000
0110
0000
,
0010
0000
1001
0000
,
0001
0000
0110
0000
,
0100
0000
1001
0000
,
1000
0000
0110
0000
,
0000
0000
1000
0000
,
1000
0000
0000
0000
2200
0000
0000
3300
,
0000
0000
0001
0000
,
0001
0000
0000
0000
0202
0000
0000
0303
,
0000
0000
0000
0000
2002
0000
0000
3003
,
0000
0000
0000
0000
0220
0000
0000
0330
,
0000
0000
1000
0000
,
0001
0000
1000
0001
,
1000
0001
1000
1000
,
1000
0000
0010
0010
,
0010
0000
0100
0100
,
0100
0100
0001
1000
,
1000
0000
0001
0001
,
0001
0000
0010
0010
,
0010
0000
0100
0100
,
0100
0100
1000
0001
,
0001
0000
1000
0000
,
0001
0000
0020
0000
,
0000
0030
0001
0000
,
1000
0000
0020
0000
,
0000
0030
0100
0000
,
0010
0000
2000
0000
,
0000
3000
0100
0000
,
0010
0000
0002
0000
,
0000
0003
1000
0010
,
0010
0000
0010
0100
,
0100
0000
0100
0001
,
0001
0000
1000
0000
,
1000
0000
0001
0010
,
0010
0000
0010
0100
,
0100
0000
0100
1000
,
1000
0000
0001
0000
,
0001
0000
0000
0000
2020
0000
0000
3030
,
0000
0000
1000
0000
,
1000
0000
0000
0000
0022
0000
0000
0033
,
0000
0000
0001
0000
,
0001
0000
0000
0000
2002
0000
0000
3003
,
0000
0000
0100
0000
,
0100
0000
0000
0000
0220
0000
0000
0330
,
0000
0000
0010
0000
,
0010
0000
2002
0000
,
0000
0000
0000
0000
,
0000
0000
0000
0000
,
0000
0000
3003
0000
;
