#TITLE:Rottel-Da-Star;
#SUBTITLE:;
#ARTIST:SamplingMasters CHANG;
#TITLETRANSLIT:;
#SUBTITLETRANSLIT:;
#ARTISTTRANSLIT:;
#GENRE:;
#CRChallenge:;
#MENUCOLOR:;
#BANNER:rds.png;
#BACKGROUND:rds-bg.png;
#LYRICSPATH:;
#CDTITLE:;
#MUSIC:rds.ogg;
#OFFSET:0.000;
#SAMPLESTART:29.960;
#SAMPLELENGTH:12.000;
#SELECTABLE:YES;
#LISTSORT:;
#BPMS:0.000=200.000;
#STOPS:;
#TICKCOUNT:0.000=2;
#BGCHANGES:;
#KEYSOUNDS:;
#ATTACKS:;
#NOTES:
     dance-single:
     Renard:
     Medium:
     9:
     0.823,0.820,0.585,0.105,0.048:
0000
0000
0000
0000
,
0001
1000
0000
1001
0000
0110
0000
0010
,
0100
0001
0000
1010
0000
0101
0000
1000
,
0010
0100
0000
0001
0100
0010
1000
0100
,
0010
0000
0001
0000
0010
0000
0001
0000
0010
0000
0001
0010
0001
0010
0001
0010
,
0001
1000
0000
1001
0000
0110
0000
0010
,
0100
0001
0000
1001
0000
0110
0000
0010
,
1000
0001
0000
0100
0010
1000
0100
0010
,
0002
0000
0013
0100
2000
0000
0001
0000
,
3001
0100
0010
1000
0000
1010
0000
1000
,
0010
0100
0001
0010
0000
0011
0000
0001
,
0010
0100
1000
0001
0100
0010
1000
0100
,
0010
0001
0010
0001
1000
0100
1000
0100
,
1000
0000
0001
0100
0000
0010
1000
0001
,
0100
0000
0010
1000
0000
0001
0010
0100
,
1000
0000
0001
0100
0010
0000
1000
0100
,
0010
0001
0010
0100
1000
0000
0001
0000
,
0100
0000
0001
1000
0000
0000
0000
1100
,
0000
0000
0011
1001
,
0110
0000
0010
0100
0000
0000
0000
1001
,
0000
0000
0000
0000
0000
0000
0000
0000
0110
0000
0000
1001
0000
0000
0110
0000
,
1001
0000
0001
1000
0000
0100
0010
0001
,
0000
1000
0010
0100
0001
0100
0010
1000
,
0001
0100
0001
0100
1000
0100
1000
0100
,
0010
0100
0001
0010
0100
1000
0001
1000
,
0001
0100
0010
1000
0000
1010
0000
1000
,
0010
0100
0001
0010
0000
0011
0000
0001
,
0010
0100
0000
1000
0001
0100
0010
1000
,
0010
0000
0000
0000
0010
0000
0000
0000
0100
0000
0001
0100
0001
0100
0001
0100
,
0010
1000
0000
1010
0000
0101
0000
0100
,
0010
1000
0000
1001
0000
1100
0000
1000
,
0100
0010
0000
0010
0001
1000
0010
0100
,
0001
0000
0001
0100
1010
0000
0000
0000
,
0001
0100
0001
0100
0010
0100
0010
0100
,
0010
1000
0010
1000
0100
1000
0100
1000
,
0001
0010
0001
0010
0100
0010
0100
0010
,
0100
1000
0100
0010
0001
1000
0010
0000
,
0100
0001
0100
0001
0100
0010
0100
0010
,
1000
0010
1000
0010
1000
0100
1000
0100
,
1000
0001
0010
0001
0010
0100
0010
0100
,
1000
0001
0100
0010
1000
0000
0001
0000
,
1001
0000
0010
0000
0100
0000
0001
1000
,
0000
0100
0010
0000
0001
0000
1000
0000
,
0100
1000
0001
1000
0010
1000
0100
1000
,
0001
0010
0100
0000
1100
0000
1000
0000
,
0010
0100
0001
0000
0110
0000
0100
0010
,
0000
1000
0001
0000
1100
0000
1000
0000
,
0001
0000
0001
0000
0000
0000
1000
0001
1000
0000
0001
0000
0100
0000
0000
0000
,
2002
0020
0000
3033
,
0001
0100
0010
1000
0100
0000
1100
0000
,
1000
0100
0010
0001
0100
0000
0101
0000
,
0001
0100
0010
1000
0100
0000
1100
0000
,
1000
1001
0100
1001
,
0001
0010
0100
1000
0001
0000
0101
0000
,
0001
0100
0010
1000
0100
0000
1100
0000
,
1000
0001
0010
0001
1000
0010
0100
0001
,
2000
0200
0020
3331
,
1100
0100
0010
0001
0100
0010
1000
0100
,
0010
0001
0100
0010
1000
0001
0100
0001
,
0101
0100
0010
1000
0100
0010
0001
1000
,
1100
1001
0110
1001
,
0101
0100
0010
1000
0100
0010
0001
1000
,
0100
0010
0001
0100
0010
1000
0100
0000
,
1100
1000
0010
0100
0001
0010
0100
1000
,
1100
1001
1010
1001
,
0001
0001
0001
0000
0100
0100
0100
0000
,
0010
1000
0001
1000
0010
1000
0100
0000
,
0100
0100
0100
0000
1000
1000
1000
0000
,
0010
1000
0001
0100
0010
1000
0001
0000
,
0010
0010
0010
0000
0001
0001
0001
0000
,
0100
0001
0100
0010
1000
0001
0010
0100
,
1000
1000
1000
0000
0010
0010
0010
0000
,
0100
0001
0100
0010
1000
0001
0100
0010
,
1000
0001
0100
0010
0000
1000
0010
0000
,
1000
0001
0100
0010
0000
1000
0001
0000
,
1000
0010
0100
0001
0000
1000
0010
0000
,
1000
0010
0100
0001
0000
1000
0001
1000
,
0001
1000
0100
0010
0000
0001
0010
0000
,
0001
1000
0100
0010
0000
0001
1000
0000
,
0001
0010
0100
1000
0000
0001
0100
0000
,
0001
1000
0010
0000
2002
0000
3013
0000
,
0001
0100
1000
0100
0001
0010
1000
0010
,
0001
0100
1000
0100
0001
0010
1000
0010
,
0001
0100
1000
0100
0001
0010
0100
1000
,
0010
0000
1000
0000
0010
0000
1000
0000
0001
0000
0100
0001
0100
0001
0100
0001
,
0100
1000
0100
1000
0100
0010
0100
0010
,
0001
0010
0001
0010
1000
0010
1000
0010
,
1000
0100
0001
0100
1000
0010
0001
0010
,
1000
0100
0010
0001
1000
0010
0100
0001
,
1001
1001
0000
0000
1010
1010
0000
0000
,
0101
0101
0000
0000
0011
0011
0000
0000
,
1100
1100
0000
0000
0011
0011
0000
0000
,
1001
0000
0110
0000
0000
1001
0000
0000
,
0220
0000
0000
0000
,
0330
0000
0000
0000
;
#NOTES:
     dance-single:
     JS:
     Easy:
     7:
     0.550,0.533,0.209,0.105,0.004:
0000
0000
0000
0000
,
1000
0001
0000
0001
0000
0001
0000
0000
,
0100
0001
0000
0001
0000
0001
0000
0000
,
0010
0001
0000
0000
0001
0010
0100
1000
,
0000
0100
0010
0010
,
0001
1000
0000
1000
0000
1000
0000
0000
,
0100
1000
0000
1000
0000
1000
0000
0000
,
0010
1000
0000
0000
1000
0010
0100
0001
,
0202
0000
1000
0303
,
0001
0000
0100
0001
0000
0100
0000
0000
,
0010
0000
1000
0010
0000
1000
0000
0000
,
1000
0100
0000
0010
0001
0010
0001
0000
,
0100
0100
0110
0000
,
1000
0000
0100
1000
0000
0100
0000
0000
,
0010
0000
0001
0010
0000
0001
0000
0000
,
0001
0100
0000
0010
1000
0010
1000
0000
,
0001
0000
0010
0000
0001
1000
0001
0000
,
1100
0000
0000
0101
0000
0000
0000
1001
,
0000
0000
0010
0010
,
0101
0000
0000
1100
0000
0000
0000
1001
,
0000
0000
0000
0000
0000
0000
0000
0000
0001
0000
0000
1000
0000
0000
0001
0000
,
1000
0000
0100
0000
0010
0000
0001
0010
,
0001
0000
0100
0000
0010
0000
1000
0010
,
1000
0100
1000
0000
0001
0100
0001
0000
,
1100
0010
0101
0010
,
0001
1000
0000
1000
0000
1000
0000
0000
,
0010
1000
0000
1000
0000
1000
0000
0000
,
0100
1000
0000
0000
1000
0100
0010
0001
,
0000
0000
0000
0000
,
1000
0001
0000
0001
0000
0001
0000
0000
,
0010
0001
0000
0001
0000
0001
0000
0000
,
0100
0001
0000
0000
0001
0100
0010
1000
,
2200
0000
0001
3300
,
1000
0000
0010
1000
0000
0010
0000
0000
,
0100
0000
0001
0100
0000
0001
0000
0000
,
0001
0010
0000
0100
1000
0100
1000
0000
,
0010
0010
0110
0000
,
0001
0000
0010
0001
0000
0010
0000
0000
,
0100
0000
1000
0100
0000
1000
0000
0000
,
1000
0010
0000
0100
0001
0100
0001
0000
,
1000
0000
0100
0000
1000
0001
1000
0000
,
0001
0000
0100
0000
0010
0000
0100
0001
,
0000
0001
1000
0000
0001
0000
0000
0000
,
1000
0000
1000
0010
0000
0010
0100
0000
,
0100
0010
1000
0000
0001
0000
0000
0000
,
1000
0000
0100
0000
0010
0000
0100
1000
,
0000
1000
0001
0000
1000
0000
0000
0000
,
0001
0010
0000
0001
1000
0001
1000
0000
,
2002
0000
0000
3003
,
1000
0000
0100
1000
0000
0100
1000
0000
,
0001
0000
0010
0001
0000
0010
0001
0000
,
1000
0000
0010
1000
0000
0010
1000
0000
,
0001
0010
0100
1000
,
0001
0000
0100
0001
0000
0100
0001
0000
,
1000
0000
0010
1000
0000
0010
1000
0000
,
0001
0000
0010
0001
0000
0010
0001
0000
,
2000
0100
0002
3003
,
1000
0000
0010
0000
1000
0001
1000
0000
,
0001
0000
0010
0000
0001
1000
0001
0000
,
0100
0000
0010
0000
0100
0001
1000
0000
,
0100
0000
0010
0000
0100
1000
0001
0000
,
1000
0000
0010
0000
0100
0001
0100
0000
,
0001
0000
0010
0000
0100
1000
0100
0000
,
1000
0000
0001
0000
0100
0010
1000
0000
,
0002
0100
2000
3003
,
1000
0100
0000
0100
1000
0000
0010
0000
,
1000
0100
0000
0100
1000
0000
0001
0000
,
1000
0010
0000
0010
1000
0000
0100
0000
,
1000
1000
0001
0000
1000
1000
0001
0000
,
0001
0100
0000
0100
0001
0000
0010
0000
,
0001
0100
0000
0100
0001
0000
1000
0000
,
0001
0010
0000
0010
0001
0000
0100
0000
,
0001
0001
1000
0000
0001
0001
1000
0000
,
0001
0000
0100
0010
0000
0100
0010
0000
,
1000
0000
0100
0010
0000
0100
0010
0000
,
0001
0000
0100
0010
0000
0100
0010
0000
,
1000
0000
0001
0010
0001
0010
0001
0000
,
1000
0000
0100
0010
0000
0100
0010
0000
,
0001
0000
0100
0010
0000
0100
0010
0000
,
1000
0000
0100
0010
0000
0100
0010
0000
,
0001
0100
0010
1001
,
1000
0001
0000
0001
0000
0001
0000
0000
,
0100
0001
0000
0001
0000
0001
0000
0000
,
0010
0001
0000
0000
0001
0010
0100
1000
,
0000
0100
0010
0010
,
0001
1000
0000
1000
0000
1000
0000
0000
,
0100
1000
0000
1000
0000
1000
0000
0000
,
0010
1000
0000
0000
1000
0010
0100
0001
,
1000
0100
1001
0000
,
1000
1100
0001
0101
,
1000
1100
0001
0101
,
1000
1010
0001
0011
,
1000
0000
1100
0000
0000
0011
0000
0000
,
2002
0000
0000
0000
,
3003
0000
0000
0000
;
#NOTES:
     dance-single:
     JS:
     Beginner:
     3:
     0.358,0.369,0.314,0.035,0.000:
0000
0000
0000
0000
,
1100
0000
1000
0000
,
0101
0000
0001
0000
,
1100
0000
0101
0000
,
1000
1000
1000
0000
,
0011
0000
1000
0000
,
1010
0000
0001
0000
,
0011
0000
1010
0000
,
0001
0001
1001
0000
,
1000
0100
1000
0000
,
0001
0010
0001
0000
,
1000
0010
1000
0000
,
0010
0010
0110
0000
,
0001
0100
0001
0000
,
1000
0010
1000
0000
,
0001
0010
0001
0000
,
1000
1000
0001
0001
,
1000
0000
0000
1000
0000
0000
0000
1000
,
0000
0000
0000
0000
,
0001
0000
0000
0001
0000
0000
0000
0001
,
0000
0000
0000
0000
,
0100
0010
0100
0000
,
0010
0100
0010
0000
,
1100
0000
0011
0000
,
0010
0010
0100
0100
,
1001
0000
1000
0000
,
0110
0000
0100
0000
,
1001
0000
0110
0000
,
0000
0000
0000
0000
,
1001
0000
0001
0000
,
0110
0000
0100
0000
,
1001
0000
0110
0000
,
1000
1000
1001
0000
,
1000
0010
0100
0000
,
0001
0100
0010
0000
,
1000
0010
0100
0000
,
0100
0100
0110
0000
,
0001
0010
0100
0000
,
1000
0100
0010
0000
,
0001
0010
0100
0000
,
0100
0100
0110
0000
,
1000
0100
1000
0000
,
0010
0000
0001
0000
,
0100
0000
1000
0000
,
0010
0000
1001
0000
,
0001
0100
0001
0000
,
0010
0000
1000
0000
,
0100
0000
0001
0000
,
2002
0000
0000
3003
,
1000
1000
1000
0000
,
0010
0010
0010
0000
,
0100
0100
0100
0000
,
0001
0001
0001
0001
,
1000
1000
1000
0000
,
0100
0100
0100
0000
,
0010
0010
0010
0000
,
0001
0000
1001
0000
,
1000
0100
0010
0000
,
0010
0100
1000
0000
,
0001
0100
0010
0000
,
0010
0100
0001
0000
,
0001
0010
0100
0000
,
0100
0010
0001
0000
,
1000
0010
0100
0000
,
0100
0010
1000
0000
,
0001
0000
0001
0100
,
0100
0000
0100
0010
,
0010
0000
0010
1000
,
1000
0001
1000
0001
,
1000
0000
1000
0100
,
0100
0000
0100
0010
,
0010
0000
0010
0001
,
0001
1000
0001
1000
,
0001
0100
1000
0000
,
1000
0100
0001
0000
,
0001
0010
1000
0000
,
1000
0010
0001
0000
,
1000
0100
0001
0000
,
0001
0100
1000
0000
,
1000
0010
0001
0000
,
0010
0000
0000
0010
,
1100
0000
1000
0000
,
0101
0000
0001
0000
,
1100
0000
0101
0000
,
1000
1000
1000
0000
,
0011
0000
1000
0000
,
1010
0000
0001
0000
,
0011
0000
1010
0000
,
0001
0001
1001
0000
,
1000
0001
1000
0001
,
0100
0001
0100
0001
,
1000
0100
1000
0100
,
1000
0000
0001
0000
,
2002
0000
0000
0000
,
3003
0000
0000
0000
;
