#TITLE:Rock You;
#SUBTITLE:;
#ARTIST:Azrael;
#TITLETRANSLIT:;
#SUBTITLETRANSLIT:;
#ARTISTTRANSLIT:;
#CRChallenge:;
#BANNER:rock.jpg;
#BACKGROUND:rock-bg.jpg;
#LYRICSPATH:;
#CDTITLE:;
#MUSIC:rock.ogg;
#OFFSET:0.000;
#SAMPLESTART:81.937;
#SAMPLELENGTH:12.000;
#SELECTABLE:YES;
#BPMS:0.000=175.000,32.000=87.500,64.000=175.000,136.000=87.500,167.000=175.000;
#STOPS:;
#BGCHANGES:;
#NOTES:
     dance-single:
     Renard:
     Medium:
     9:
     0.566,0.786,0.379,0.028,0.583:
0000
0000
0000
0000
,
0000
0000
0000
0000
,
0000
0000
0000
0000
,
0000
0000
0000
0000
,
1000
1000
0001
0001
,
0010
0000
0000
0010
0000
0000
0100
0000
0000
0100
0000
0010
,
0001
1000
0010
0100
,
0001
0000
0000
0100
0000
0000
0010
1000
0010
1000
0000
0000
,
0010
0000
1000
0010
0000
1000
0010
0000
0000
1000
0000
0000
0001
0000
0000
0001
0000
0000
0100
0000
0001
0010
0000
0001
,
0010
0000
0000
0100
0000
1000
0100
0000
1000
0001
0000
0100
0010
0000
0000
0010
0000
0000
0010
0000
1000
0010
0000
0000
,
0100
0000
0001
0000
0000
0001
1000
0000
0000
0000
0000
1000
0100
0000
0000
1100
0000
0000
1100
0000
0000
0000
0000
0000
,
1000
0000
1000
0001
0000
0000
0100
0000
0010
1000
0000
0000
0010
0000
0100
0001
0000
0000
1001
0000
0000
0000
0000
0000
,
1000
0000
0100
0010
0000
0001
0010
0000
0000
0010
0000
0001
0010
0000
0000
0100
0000
0000
1000
0000
0100
1000
0000
0001
,
0100
0000
0000
0010
0000
1000
0010
0000
1000
0001
0000
0000
1001
0000
0000
1001
0000
0000
0110
0000
0010
1000
0000
0000
,
0010
0000
1000
0000
0000
0001
0100
0000
0000
0000
0000
0001
1000
0000
0000
1100
0000
0000
0011
0000
0000
0000
0000
0000
,
0001
0000
0001
0010
0000
0000
0100
0000
0000
1000
0000
0000
0010
0000
0100
0001
0000
0100
0000
0000
0000
0010
0000
1000
,
0020
0000
0000
0000
,
0000
0000
0000
0130
,
1001
1000
1001
0001
,
1001
1000
1001
0001
,
0110
0000
0000
0110
0000
0000
0010
0000
0010
1000
0000
1000
,
0001
0000
0000
0001
0000
0000
0100
0000
0100
0010
0000
0010
,
1000
1000
1001
0001
,
0011
0010
0110
0100
,
1100
0000
0000
1100
0000
0000
1000
0000
1000
0001
0000
0001
,
0100
0000
0100
0010
0000
0010
1000
0000
0000
1000
0000
0000
,
1010
1000
1001
0001
,
0101
0100
0110
0010
,
1010
0000
0000
1010
0000
0000
1000
0000
1000
0001
0000
0001
,
0100
0000
0000
0100
0000
0000
0001
0000
0001
0010
0000
0010
,
0100
0100
1000
1000
,
0010
0010
0100
0100
,
0001
0000
0100
0000
0010
0000
1000
0000
0100
0010
0001
0000
,
0011
0000
0000
1001
,
1000
0000
1000
0001
0000
0100
0010
0000
0000
1000
0000
0000
0010
0000
0000
0100
0000
0000
0001
0000
0010
0001
0000
1000
,
0100
0000
0000
1000
0000
0001
0010
0000
0001
1000
0000
0010
0100
0000
0000
0100
0000
0000
0100
0000
0001
1000
0000
0000
,
0100
0000
1000
0000
0000
0001
0010
0000
0000
0000
0000
0001
1000
0000
0000
0110
0000
0000
0110
0000
0000
0000
0000
0000
,
0010
0000
1000
0001
0000
0000
0100
0000
0001
1000
0000
0000
0100
0000
0010
0001
0000
0000
0011
0000
0000
0000
0000
0000
,
0010
0000
0100
1000
0000
0001
0010
0000
0000
0001
0000
1000
0010
0000
0000
0100
0000
0000
0001
0000
0100
0010
0000
0100
,
0010
0000
0000
1000
0000
0010
1000
0000
0001
0100
0000
0001
1000
0000
0000
1100
0000
0000
1100
0000
1000
0001
0000
0000
,
0010
0000
0100
0000
0000
1000
0100
0000
0000
0000
0000
1000
0001
0000
0000
0010
0000
0000
0011
0000
0000
0000
0000
0000
,
0010
0000
0100
1000
0000
0010
0100
0000
0001
0100
0000
0000
0010
0000
1000
0001
0000
0000
2002
0000
0000
0000
0000
0000
,
0000
0000
0000
0000
,
0000
0000
0000
3003
,
0110
0000
0000
0010
0000
0010
1000
0000
1000
0001
0000
0001
,
0100
0000
0100
0001
0000
0001
0010
0000
0010
0100
0000
0100
,
1000
0000
1000
0010
0000
0000
0010
0000
0000
0100
0000
0001
,
0100
0010
1000
0010
0000
1000
0010
0000
0010
0100
0000
0100
,
0001
0010
0001
0010
0000
0010
0100
0000
0100
1000
0000
1000
,
0010
0000
0010
0100
0000
0100
0001
0000
0001
0010
0000
0010
,
0100
0000
0100
1000
0000
0000
1000
0000
0000
0001
0100
0001
,
0100
0000
0000
0010
0000
0000
0010
0000
0000
1000
0100
1000
,
0100
0000
0100
1000
0000
1000
0001
0000
0000
0010
0000
0010
,
0001
0000
0000
1000
0000
1000
0010
0000
0000
0100
0000
0100
,
0001
0000
0000
0010
0000
0000
0010
0000
0000
0001
1000
0001
,
1000
0000
0000
0100
0000
0000
0100
0000
0000
1000
0001
1000
,
0001
0000
0000
0010
0000
0010
0100
0000
0000
1000
0000
1000
,
0010
0000
0000
0100
0000
0100
0001
0000
0000
1000
0000
1000
,
0100
0000
0000
0011
0000
1100
0000
1001
0000
0110
0000
0010
,
1000
0001
0000
0110
0000
0000
0000
0000
0000
0000
0000
0000
;
#NOTES:
     dance-single:
     Renard:
     Easy:
     6:
     0.364,0.477,0.123,0.038,0.090:
0000
0000
0000
0000
,
0000
0000
0000
0000
,
0000
0000
0000
0000
,
0000
0000
0000
0000
,
1000
0001
1000
0001
,
1000
0000
0000
0001
0000
0000
1000
0000
0000
0001
0000
1000
,
0001
1000
0001
1000
,
0001
0100
0010
1000
,
0001
0001
1000
1000
0100
0100
0010
0001
,
1000
1000
0010
0100
0001
0001
0001
0001
,
0010
0000
0010
0000
0100
1000
0100
0000
,
1000
0001
0100
0010
1000
0001
1001
0000
,
1000
0001
0100
0100
0001
0001
0010
0100
,
1000
1000
0010
0010
0100
0100
0100
0000
,
0001
0100
0101
0000
0001
0100
0101
0000
,
0001
1000
0100
0010
0001
1000
0010
0200
,
0002
0000
0000
0000
,
0000
0000
0000
0303
,
0001
0001
0100
0100
,
0010
0010
1000
1000
,
0100
0100
0000
0000
,
0010
0010
0000
0000
,
0001
0001
1000
1000
,
0010
0010
0100
0100
,
0001
0000
0000
0001
0000
0000
0100
0000
0000
0100
0000
0010
,
1000
0010
1000
0000
,
0010
0010
0100
0100
,
0001
0000
0000
0001
0000
0000
1000
0000
0000
1000
0000
0100
,
1000
0000
0000
1000
0000
0000
0000
0000
0000
0000
0000
0001
,
0010
0000
0000
0010
0000
0000
0000
0000
0000
0000
0000
0001
,
0100
0100
0010
0010
,
1000
1000
0001
0001
,
1000
0000
0001
0000
1000
0000
0001
0000
1000
0000
0001
0000
,
1000
0000
0000
1001
,
1000
0001
1000
1000
0001
0001
1000
0001
,
0100
0100
0010
0010
1000
1000
1000
0000
,
0100
0010
0110
0000
0010
0001
0011
0000
,
0001
1000
0010
0100
0001
1000
1001
0000
,
1000
0100
1000
1000
0001
0001
0010
0010
,
0100
0100
1000
0010
0100
0100
0001
0000
,
0100
0010
0110
0000
0010
1000
1010
0000
,
0001
0100
0001
0010
0100
2000
0002
0000
,
0000
0000
0000
0000
,
0000
0000
0000
0000
,
3003
0000
0000
1000
0000
0000
0001
0000
1000
0001
0000
0000
,
1000
0010
0100
0001
,
0000
0000
0000
0010
0000
0000
0100
0000
1000
0100
0000
0000
,
1000
0001
0010
0001
,
0000
0000
0000
1000
0000
0000
0010
0000
0100
0001
0000
0000
,
0100
0010
1000
0100
,
0000
0000
0000
0010
0000
0000
0001
0000
1000
0001
0000
0000
,
1000
0001
0010
0100
,
0000
0000
0000
1000
0000
0000
0001
0000
0100
0001
0000
0000
,
0100
0010
1000
0100
,
0000
0000
0000
0010
0000
0000
0001
0000
1000
0001
0000
0000
,
1000
0010
0100
0001
,
0000
1100
0100
1100
,
1000
1001
0001
0101
,
0000
0000
0000
0001
0000
0100
0000
0010
0000
1000
0000
0010
,
0000
0100
0000
0001
0000
0000
0000
0000
0000
0000
0000
0000
;
#NOTES:
     dance-single:
     Renard:
     Beginner:
     3:
     0.256,0.337,0.076,0.085,0.000:
0000
0000
0000
0000
,
0000
0000
0000
0000
,
0000
0000
0000
0000
,
0000
0000
0000
0000
,
1000
1000
0001
0001
,
1000
1000
0001
0001
,
1000
1000
0001
0001
,
1000
0001
1000
0001
,
0200
0310
0010
0010
,
0200
0310
0010
0010
,
2000
3001
0002
1003
,
0001
0100
0010
1001
,
1000
1000
0100
1000
,
0001
0001
0010
0001
,
1000
1010
0001
0101
,
0001
1000
0001
2000
,
0002
0000
0000
0000
,
0000
0000
3003
1001
,
1000
1000
0001
0001
,
1000
1000
0001
0001
,
0100
0100
0000
0000
,
0010
0010
0000
0000
,
1000
1000
0001
0001
,
0010
0010
0100
0100
,
1000
1000
0000
0000
,
0001
0001
0000
0000
,
1000
0000
0001
0000
,
0100
0000
0010
0000
,
1000
1000
0000
0000
,
0001
0001
0000
0000
,
0010
0000
0100
0000
,
1000
0000
0001
0000
,
0100
0100
0100
0010
,
1000
0000
0000
1010
,
1000
0001
0100
0001
,
1000
0100
0010
0001
,
2000
3001
0002
1003
,
0001
0100
0010
1010
,
1000
0010
1000
0010
,
0100
0001
0100
0001
,
0010
0001
1000
0100
,
1000
0100
0010
0002
,
0000
0000
0000
0000
,
0000
0000
0003
0000
,
1001
1000
0000
0001
,
0100
0010
0000
1000
,
0010
0100
0100
0100
,
0000
0010
0010
0010
,
0000
1000
0000
0100
,
0010
0001
0000
0010
,
0100
1000
1000
1000
,
0000
0001
0001
0001
,
0000
0100
0010
0100
,
0000
0010
1000
0010
,
0000
0100
0100
0100
,
0000
0001
0100
0001
,
0000
0010
0010
0100
,
0000
1000
1000
0001
,
0000
0100
0010
1000
,
0001
0110
0000
0000
;
