#TITLE:Rock Me Amadeus;
#SUBTITLE:;
#ARTIST:Falco;
#TITLETRANSLIT:;
#SUBTITLETRANSLIT:;
#ARTISTTRANSLIT:;
#CRChallenge:;
#BANNER:amadeus.png;
#BACKGROUND:amadeus-bg.png;
#LYRICSPATH:;
#CDTITLE:;
#MUSIC:amadeus.ogg;
#OFFSET:0.000;
#SAMPLESTART:48.480;
#SAMPLELENGTH:12.000;
#SELECTABLE:YES;
#BPMS:0.000=88.380;
#STOPS:;
#BGCHANGES:;
#NOTES:
     dance-single:
     Renard:
     Hard:
     9:
     0.621,0.578,0.361,0.020,0.971:
0000
0000
0000
0000
,
0000
0000
0000
0000
,
1000
0100
0010
0001
0000
0001
0010
0100
0000
0100
1000
0010
0000
1000
0010
0000
,
1000
0010
0100
0001
0000
0001
0100
0010
0000
0010
1000
0001
0000
0010
0001
0000
,
1000
0100
0010
0001
0000
0001
0010
0100
0000
0100
1000
0010
0000
0100
0010
0000
,
1000
0000
0010
0000
0110
0000
0000
0000
0010
1000
0001
0000
1001
0000
1001
0000
,
1000
0100
0010
0001
0000
0001
0010
0100
0000
0100
1000
0010
0000
0010
1000
0000
,
0001
0100
0010
1000
0000
1000
0001
0010
0000
0010
0001
1000
0000
0001
0010
0000
,
0100
1000
0001
0100
0000
0100
0001
1000
0000
1000
0100
1000
0000
0001
0010
0000
,
0100
1000
0100
0010
0001
0000
1000
0001
0100
0000
0001
0000
1001
0000
1000
0000
,
0100
0000
0010
0001
0010
0100
1000
0001
1000
0000
0010
1000
0000
1000
0010
0100
,
0001
0010
0100
1000
0100
0000
0010
0001
1000
0001
0000
0101
0000
0001
0100
0010
,
1000
0001
1000
0100
0010
0000
0010
0100
1000
0001
0100
0010
1000
0000
0000
1000
,
0010
1000
0000
0001
0000
0100
0001
0010
0100
1000
0100
0010
0001
1000
0100
1000
,
0001
0010
0000
0100
0000
1000
0100
0010
0001
1000
0010
0100
0001
0000
0100
0001
,
1000
0010
0000
1000
0000
0010
1000
0001
0010
0100
1000
0100
0000
1000
0001
0100
,
0010
0000
0010
1000
0001
0100
0001
0100
0001
1000
0000
1001
0000
1000
0100
0000
,
0010
0001
0010
0100
1000
0000
0001
0010
0100
1000
0001
0010
0001
0000
0010
0001
,
0011
0000
0010
0100
0110
0000
0000
0000
0100
1000
0000
1000
0010
0000
0100
0001
,
0101
0000
0001
1000
1001
0000
0000
0000
1000
0100
0000
0100
0010
0000
0001
0010
,
0011
0000
0010
0100
0110
0000
0100
0000
1000
0001
0000
0100
0000
0001
1000
0100
,
0010
0001
0000
0000
0011
0000
0010
0100
1000
0001
0010
0100
1000
0001
0100
0010
,
0110
0000
1001
0000
1010
0000
1000
0000
0010
0100
0000
0101
0000
0001
1000
0000
,
1100
0000
0011
0000
1001
0000
0001
0000
0100
0010
0000
1000
0010
0000
1001
0000
,
1000
0000
0100
0000
0110
0000
0010
0000
0001
0010
0100
1000
0000
1000
0001
0000
,
0001
0001
0000
0010
0010
0000
0100
0100
0000
1000
1000
0000
0001
0010
0100
1000
,
0001
0100
0010
1000
1010
0000
1000
0100
0000
0100
0010
0001
0010
0000
0100
1000
,
0001
0100
0010
1000
1010
0000
1000
0100
0000
0100
0000
0010
0001
0000
0010
0100
,
1000
0001
0010
0100
0110
0000
0100
1000
0010
0100
0000
0100
0000
0001
0100
0010
,
1000
1000
0000
1000
0000
1000
0000
1000
1000
0000
0011
0000
0011
0000
0000
0000
,
1000
0001
0000
0001
0000
0001
0000
0001
1000
0010
1000
0010
1000
0010
1000
0010
,
0100
0001
1000
0100
0010
0000
0001
0010
0100
0100
0100
0000
1000
0000
1100
0000
,
1000
0100
0010
0001
0010
0100
1000
0001
0010
0100
1000
0100
0010
0001
1000
0001
,
0100
0010
1000
1010
0000
1000
0100
1100
0000
1000
0001
1001
0000
0001
0010
0000
,
0001
0010
0100
1100
0000
1000
0001
1001
0000
0001
0100
0101
0000
0100
0010
0000
,
0010
1000
0100
1100
0000
1000
0001
1001
0000
0001
0010
0011
0000
0010
0100
1000
,
0002
0200
0000
0000
0000
0000
0000
0000
0000
0000
0000
0000
0000
0000
0000
0000
,
0303
0000
0000
0000
;
#NOTES:
     dance-single:
     Renard:
     Medium:
     9:
     0.555,0.524,0.361,0.020,0.771:
0000
0000
0000
0000
,
0000
0000
0000
0000
,
1000
0100
1000
0100
0000
1000
0001
1000
0000
0001
0100
0001
0000
0010
0001
0000
,
1000
0100
1000
0100
0000
1000
0001
1000
0000
0001
0100
0001
0000
0010
0001
0000
,
1000
0100
1000
0100
0000
1000
0001
1000
0000
0001
0100
0001
0000
0010
0001
0000
,
1000
0000
0100
0000
1001
0000
0000
0000
1000
0001
0100
0000
1001
0000
0000
0000
,
0001
0100
0001
1000
0000
0001
1000
0010
0000
1000
0100
1000
0000
0001
1000
0000
,
0001
0100
0001
0010
0000
0001
1000
0001
0000
1000
0100
1000
0000
0010
1000
0000
,
0001
1000
0001
0100
0000
0001
1000
0001
0000
0010
0001
0010
0000
0100
1000
0000
,
0001
0010
0100
0000
1000
0000
0100
1000
0001
0000
0100
0000
1001
0000
0000
0000
,
0001
0100
0010
0000
0110
0000
0000
0000
0010
1000
0001
0000
1001
0000
0000
0000
,
1000
0100
0010
0000
0110
0000
0010
0000
0001
1000
0000
1001
0000
0000
0000
0000
,
1000
0001
0100
0000
0101
0000
0001
0000
1000
0100
0010
0001
1000
0000
0000
0000
,
0001
0100
0010
0000
1000
0000
0010
0000
1000
0001
1000
0000
1001
0000
0000
0000
,
0001
0100
0001
0000
1001
0000
1000
0100
1000
0000
0001
0000
1001
0000
0000
0000
,
1000
0010
1000
0000
1010
0000
1000
0000
0001
0100
0000
0101
0000
0000
0001
0000
,
1000
0100
1000
0000
0011
0000
0000
0000
0100
1000
0000
1001
0000
0000
1000
0000
,
0001
0100
0000
0010
0000
1000
0001
0100
0010
1000
0001
0000
1001
0000
0001
1000
,
0100
0010
0001
0010
0100
1000
0000
0000
0000
0001
0000
0010
0100
0000
1000
0001
,
0100
0010
1000
0001
0100
0010
0000
0000
0000
1000
0000
0010
1000
0000
0001
0010
,
0100
1000
0001
0010
0100
1000
0000
0000
0000
0001
0000
0100
0000
0010
1000
0001
,
1000
0100
0000
0000
1100
0000
0000
0000
1000
0100
0010
0001
1000
0001
1000
0000
,
0110
0000
1001
0000
1010
0000
1000
0000
0010
0100
0000
0101
0000
0001
1000
0000
,
1100
0000
0011
0000
1001
0000
0001
0000
0100
0010
0000
1000
0010
0000
1001
0000
,
1000
0000
0100
0000
0110
0000
0010
0000
0001
0010
0100
1000
0000
1000
0001
0000
,
0001
0001
0000
0010
0010
0000
0100
0100
0000
1000
1000
0000
0001
0010
0100
1000
,
0001
0100
0010
1000
0001
1000
0000
0000
0001
0010
0000
0010
0100
0000
1000
0100
,
0010
0001
1000
0010
0100
0010
0000
0000
1000
0010
0000
0010
1000
0000
0001
0010
,
0100
1000
0001
0100
0010
1000
0000
0000
0001
0000
0010
0000
1100
0000
0001
1000
,
0001
0001
0000
0001
0000
0001
0000
0001
0001
0000
1100
0000
1100
0000
0000
0000
,
0001
1000
0000
1000
0000
1000
0000
1000
0001
0100
0001
0100
0001
0100
0001
0100
,
0010
1000
0001
0010
0100
0000
1000
0100
0010
0010
0010
0000
0001
0000
0011
0000
,
0001
0010
0100
1000
0100
0010
0001
1000
0100
0010
0001
0010
0100
1000
0001
1000
,
0001
0100
0001
0000
1001
0000
0000
0000
1000
0100
1000
0100
0000
1000
0001
0000
,
0101
0000
1010
0000
1001
0000
0000
0000
1000
0100
0010
0001
0000
0001
0010
0000
,
0110
0000
1001
0000
1010
0000
0000
0000
1000
0010
0100
0001
0000
0010
0100
1000
,
0002
0200
0000
0000
0000
0000
0000
0000
0000
0000
0000
0000
0000
0000
0000
0000
,
0303
0000
0000
0000
;
#NOTES:
     dance-single:
     Renard:
     Easy:
     5:
     0.356,0.361,0.390,0.117,0.000:
0000
0000
0000
0000
,
0001
0001
0001
0001
0001
0001
0001
0001
,
1000
0000
0100
0000
0010
0010
0001
0100
,
0010
0000
1000
0000
0100
0100
0010
0001
,
1000
0000
0010
0000
0100
0100
0001
1000
,
0100
0000
2000
0000
0002
0000
0010
3003
,
1000
0001
1001
0000
0101
0000
0110
0000
,
0010
1000
1010
0000
1001
0000
0101
0000
,
0001
1000
1100
0000
1001
0000
0011
0000
,
0001
0001
0001
0001
0001
0000
1000
0000
,
0010
0100
0010
0100
0001
0000
0001
0000
,
0100
0010
0100
0010
1000
0000
1000
0000
,
0010
0100
0001
0000
0100
0010
1000
0000
,
0001
1000
0001
1000
0010
0010
0010
0010
,
0100
0000
0100
0000
0001
1000
0100
0000
,
1000
1000
0001
0000
0100
0100
0010
0000
,
1000
0010
0100
0001
1000
1000
1000
0000
,
0001
0000
0010
0100
1000
0001
0100
0010
,
0110
0010
0110
0000
0010
0000
0110
0000
,
1001
0001
1001
0000
1001
0000
1001
0000
,
0110
0100
0110
0000
0110
0000
0110
0000
,
1001
1000
1001
0000
1001
0000
1001
0000
,
0110
0100
0101
0000
0001
1000
0100
0000
,
0110
0100
1100
0000
1000
0010
0100
0000
,
0110
0100
0101
0000
0001
1000
0100
0000
,
0110
0000
1100
0000
1001
0000
0101
0101
,
1002
0000
0103
0000
0100
0010
1000
0000
,
1200
0000
0310
0000
0100
1000
0010
0100
,
0201
0000
0310
0000
0010
0100
0001
1000
,
0100
0100
0010
0010
0001
0000
0001
0000
,
0010
0010
0100
0100
1000
1000
1000
1000
,
0001
0000
0100
0000
0010
0010
1000
0000
,
0001
0100
0100
0010
0010
0100
0100
0010
,
2000
3001
0002
1003
,
2000
3001
0200
0310
,
0020
0000
0130
0000
0110
0000
0001
1000
,
0220
0000
0000
0000
,
0330
0000
0000
0000
;
#NOTES:
     dance-single:
     Renard:
     Beginner:
     2:
     0.152,0.217,0.088,0.020,0.000:
0000
0000
0000
0000
,
0000
0000
0000
0000
,
0001
0001
0000
0001
,
1000
1000
0000
1000
,
0010
0010
0000
0010
,
0100
0000
0000
1001
,
0100
0001
0000
0001
,
1000
0100
0000
0100
,
0010
0001
0000
0001
,
1000
1000
1000
0000
,
0010
0100
0000
0100
,
0001
1000
0000
1000
,
0001
0010
0000
0010
,
0100
0100
1000
0000
,
0001
0000
1000
0001
,
0100
0000
0010
0100
,
0001
0000
1000
0001
,
0110
0000
0000
0000
,
0100
0100
0000
0100
,
0010
0010
0000
0010
,
0001
0001
0000
0001
,
1000
0000
1000
0000
,
0001
0001
0000
0001
,
1000
1000
0000
1000
,
0010
0010
0000
0010
,
0100
0000
0000
0100
0000
0000
0100
0000
,
1001
1001
0000
0100
,
0110
0110
0000
0010
,
1001
1001
0000
0100
,
0001
0001
0000
0001
,
1000
1000
0000
1000
,
0010
0010
0000
0010
,
0100
0100
0000
0100
,
0010
0100
0000
0001
,
0000
1000
0000
0100
,
0000
0010
0001
1000
,
2002
0000
0000
0000
,
3003
0000
0000
0000
;
