#TITLE:Riders on the Storm (Remix);
#SUBTITLE:;
#ARTIST:The Doors rmx by Infected Mushroom;
#TITLETRANSLIT:;
#SUBTITLETRANSLIT:;
#ARTISTTRANSLIT:;
#CRChallenge:;
#BANNER:riders.png;
#BACKGROUND:riders-bg.png;
#LYRICSPATH:;
#CDTITLE:!cdtitle.png;
#MUSIC:storm.ogg;
#OFFSET:0.000;
#SAMPLESTART:7.031;
#SAMPLELENGTH:12.000;
#SELECTABLE:YES;
#BPMS:0.000=135.000,127.000=67.500,159.000=135.000;
#STOPS:125.000=0.222
,126.000=0.222
;
#BGCHANGES:;
#NOTES:
     dance-single:
     Renard:
     Hard:
     9:
     0.685,1.000,0.381,0.095,0.730:
0000
0000
0000
0000
,
0000
0000
0000
0000
,
0000
0000
0000
0000
,
0000
0000
0000
0000
2002
0000
3013
M00M
,
0001
0000
0100
0000
0010
0000
1000
0000
0100
1000
0100
0000
1000
0000
0000
0000
,
0001
0000
0010
0000
0100
0000
1000
0000
0001
0100
0000
0000
1001
0000
0000
0000
,
0001
0000
0010
0000
0100
0000
1000
0000
0001
0010
0001
0000
1000
0000
0010
0000
,
0100
0000
0001
0000
1000
0000
0100
0000
0010
0001
0000
0000
1100
0000
0000
0000
,
1000
0000
0010
0000
0100
0000
0001
1000
0001
0000
1000
0000
0100
0000
0010
0000
,
0001
0000
0000
0001
1000
0000
0000
0010
0100
0000
0001
0000
1001
0000
0000
0000
,
1000
0000
0100
0000
0010
0000
0001
0010
0001
0000
0010
0000
0100
0000
1000
0000
,
0001
0000
0000
0001
1000
0000
0000
1000
0010
0000
0100
0000
1010
0000
0000
0000
,
0010
1000
0001
0100
0101
0000
0001
0100
,
0010
1000
0100
1000
1100
0000
1000
0100
,
0010
0001
1000
0001
1001
0000
0001
0100
,
0010
1000
0100
0000
1100
0000
1000
0001
,
0100
0010
0000
0010
1000
0000
1000
0010
0000
0010
0100
0000
0001
0000
0010
0000
,
0100
1000
0000
1000
0001
0000
0001
0010
0000
0010
0100
0000
1000
0000
0001
0000
,
0010
0100
0000
0100
1000
0000
1000
0001
0000
0001
0100
0000
0010
0000
1000
0000
,
0001
0100
0000
0100
0010
0000
0010
1000
0000
1000
0001
0000
0010
0000
0100
0000
,
1000
0100
0000
0100
0010
0000
0010
0001
0000
0001
1000
0000
0010
0000
0100
0000
,
0001
1000
0000
1000
0001
0000
0001
0010
0000
0010
0100
0000
1000
0000
0010
0000
,
0100
0001
0000
0001
1000
0000
1000
0100
0000
0100
1000
0000
0001
0000
0010
0000
,
0100
0000
1000
0000
0001
0000
0100
0000
0010
1000
0010
1000
0001
0000
1000
0000
,
0100
1000
1100
0000
1010
0100
0001
0011
,
0000
0001
0010
0100
1100
0010
0101
0000
,
1010
0100
0001
0010
1100
0001
0110
1001
,
0000
0110
1001
0000
1100
0010
0101
0000
,
0010
0001
0011
0000
0101
0010
1000
1100
,
0000
1000
0100
0010
0011
0100
1010
0000
,
0101
0010
1000
0100
0011
1000
0110
1001
,
0000
0000
0000
0000
1001
0000
0000
0000
0110
0000
0000
0000
0110
0000
0000
0000
1001
0000
0000
0000
0000
0000
0000
0000
0M01
0M10
M001
M010
0M01
10M0
00M1
1M00
,
00M1
01M0
M001
M100
M001
0M10
0M01
M010
0M01
1M00
00M1
10M0
00M1
M100
M001
01M0
M001
M010
0M01
0M10
M001
0M00
00M0
000M
10M0
01M0
100M
010M
100M
0M10
1M00
001M
,
1M00
0M01
10M0
00M1
1M00
001M
100M
0M10
1M00
0M01
10M0
00M1
10M0
010M
100M
01M0
100M
001M
1M00
0M10
100M
00M0
0M00
M000
0001
0100
0001
0100
0001
0000
0010
0000
,
0001
1000
0001
1000
0001
0000
1000
0000
0100
1000
0100
1000
0010
0000
1000
0000
0100
0010
0100
0010
0100
0000
0010
0000
0001
1000
0001
1000
0001
0000
0100
0000
,
0010
0100
0010
0100
0010
0000
1000
0000
0002
0000
0203
0000
0320
0000
2030
0000
3001
1000
0001
0000
1000
0000
0000
0000
0010
0000
0000
0000
1000
0000
0001
0000
,
0100
0001
0000
0001
0100
0000
0000
0000
0001
0000
0000
0000
0010
0000
0100
0000
1000
0000
0000
0000
1100
0000
0000
0000
1000
0000
0000
0000
0100
0000
0010
0000
,
0001
1000
0000
1000
0001
0000
0010
0000
0100
0000
0000
0000
1000
0000
0001
0000
0100
0000
0000
0000
1001
0000
0000
0000
0001
0000
0000
0000
0010
0000
0100
0000
,
1000
0001
0000
0001
1000
0000
0010
0000
0100
0000
0000
0000
0001
0000
1000
0000
0100
0000
0000
0000
1100
0000
0000
0000
1000
0000
0000
0000
0001
0000
0010
0000
,
0001
1000
0000
1000
0001
0000
0100
0000
0010
0000
0000
0000
1000
0000
0100
0000
0010
0000
0000
0000
0011
0000
0000
0000
1100
0000
0000
0000
0000
0000
0000
0000
,
0001
0010
0100
1000
0001
0010
0100
1000
0001
0010
0100
1000
0001
0010
0100
1000
,
0001
0010
0100
1000
0002
0000
0000
0000
1003
0000
0000
0000
0001
0000
0100
0000
,
0010
0000
1000
0100
0000
0100
1000
0000
0100
0000
0010
0000
0001
0000
1000
0000
,
0010
0000
0100
0001
0000
0001
0100
0000
0001
0000
0010
0000
0100
0000
1000
0000
,
0010
0000
0100
0001
0000
0001
0100
0000
0001
0000
0010
0000
0100
0000
1000
0000
,
0001
0000
1000
0100
0000
0100
1000
0000
0001
0000
0100
0000
0010
0000
0010
0000
,
1000
1000
0200
0000
0310
0010
0001
0001
,
1000
0010
0200
0000
0000
0000
0310
1000
,
0100
0010
0002
0000
0000
0000
0000
0000
,
0000
0000
0000
0013
;
#NOTES:
     dance-single:
     Renard:
     Medium:
     8:
     0.443,0.783,0.219,0.048,0.210:
0000
0000
0000
0000
,
0000
0000
0000
0000
,
0000
0000
0000
0000
,
0000
0000
0000
0000
,
0001
0000
1001
0000
0001
1000
0100
0000
,
1000
0000
1001
0000
0001
0100
0001
0000
,
1000
0000
1001
0000
1000
0001
0010
0000
,
0001
0000
1001
0000
1000
0100
1000
0001
,
0100
0100
0010
0010
1000
0000
0010
0000
,
0100
0000
0001
0010
0100
0000
1000
0000
,
0100
0100
0010
0010
0001
0000
1000
0000
,
0001
0000
0100
0010
0100
0000
0001
0000
,
1000
1000
0010
0000
0110
0000
0100
0000
,
0001
0001
0010
0000
0011
0000
0010
0000
,
0100
0100
1000
0000
1100
0000
1000
0000
,
0001
0001
0100
0000
0010
0000
1010
0000
,
0100
0000
1001
0000
0001
1000
0100
0010
,
0001
0000
1001
0000
0001
0100
0010
0000
,
1000
0000
1001
0000
0010
0100
0001
1000
,
0100
1001
0010
1001
,
0001
0100
0010
0000
0100
0000
1001
0000
,
1000
0010
0100
0000
0010
0000
1001
0000
,
1000
0100
0010
0000
1000
0001
0100
0000
,
0001
0010
0100
0000
0001
1000
0001
0000
,
0100
0000
0100
0000
1001
0000
0001
0100
,
0010
0000
0010
0010
1000
0000
0010
0000
,
1000
0000
1000
1000
0100
0000
0010
0000
,
0001
0000
1000
0000
0001
0000
1000
0001
,
0100
0000
0100
0100
0010
0000
1000
0000
,
0010
0000
0100
0100
0001
0000
1000
0000
,
0100
0000
0010
0010
0001
0000
1000
0000
,
0000
0000
0010
0000
0010
0000
0010
0000
0010
0000
0000
0000
1000
0010
0100
0001
,
0010
0100
1000
0100
0010
0001
0100
0010
1000
0100
0010
0001
1000
1000
0100
0100
,
0010
0010
0001
0001
1000
1000
0010
0010
0100
0100
0001
0001
1000
0100
0010
0100
,
1000
0001
0010
0100
0010
0001
1000
0010
0100
0001
0010
0100
1000
0100
0010
0001
,
1000
0100
0010
0001
2002
0000
0000
0000
0000
0000
3003
0000
0001
0000
1000
0100
,
0010
0000
0001
1000
0010
0100
0010
0000
0110
0000
0010
0100
0001
0000
0001
1000
,
0100
0000
0100
0010
0001
0000
0001
1000
0010
0000
1000
0000
0001
0000
0001
0100
,
0010
0000
0010
1000
0100
0000
0100
0010
0001
0000
1001
0000
0110
0000
0010
1000
,
0001
0000
0001
0100
0010
0000
0010
1000
0100
0010
0001
0000
2002
0000
0000
0000
,
0000
0000
0000
0000
0000
0000
0000
0000
0000
0000
0000
0000
3003
0000
0001
1000
,
0001
1000
0001
0000
0110
0000
0000
0000
0010
0000
0000
0000
0100
0000
0001
0000
,
0100
0010
0100
0000
0101
0000
0100
0010
,
1000
0000
0100
0010
0100
0000
1000
0000
,
0010
0000
0100
0010
1000
0000
0100
1000
,
0010
0000
0100
0001
1000
0100
0010
0010
,
0001
0001
1000
0000
1000
0000
0001
0001
,
0010
0010
0100
0000
0000
0000
1000
0001
,
1000
0010
0200
0000
0000
0000
0000
0000
,
0000
0000
0000
0310
;
#NOTES:
     dance-single:
     Renard:
     Easy:
     5:
     0.305,0.403,0.029,0.057,0.000:
0000
0000
0000
0000
,
0000
0000
0000
0000
,
0000
0000
0000
0000
,
0000
0000
0000
0000
,
1000
0000
0100
1000
0100
0000
1000
0000
,
0010
0010
0100
0100
,
0001
0010
0001
0000
0100
0000
0100
0000
,
0001
0010
0100
1000
,
0001
0100
0001
0100
0001
0000
0000
0000
,
0100
0010
0100
0010
,
1000
0100
1000
0100
1000
0000
0010
0000
,
0100
0000
0001
0000
,
1000
0100
0010
0000
1001
0000
0000
0000
,
0001
0010
0100
0000
1001
0000
0000
0000
,
1000
0000
0010
0100
0001
0000
0000
0000
,
1000
0100
0010
0001
,
1000
0100
1000
0010
,
0100
0000
0001
0000
1000
0100
0000
0000
,
0010
0000
0001
1000
0000
0000
0010
0000
,
0100
0000
0001
0000
0010
0100
0000
0000
,
1000
0000
0010
0000
0100
0000
0001
1000
,
0100
0000
0010
0000
0001
1000
0010
0000
,
0100
0000
0001
0100
0010
0000
1000
0100
,
0000
1000
0010
0100
,
0001
0000
0100
0000
0010
0000
1000
1000
,
0010
0000
0100
0000
0001
0000
0010
0010
,
0001
0000
0010
0000
0100
0000
1000
1000
,
0001
0000
0100
0000
0010
0000
1000
1000
,
0010
0000
0100
0000
0001
0000
1000
1000
,
0100
0000
0010
0000
0001
0000
0010
0010
,
0001
1000
0010
0100
,
0000
0000
0001
0000
0001
0000
1000
0100
,
0010
0001
0010
0100
1000
1000
0001
0010
,
0100
1000
0100
0010
0001
0001
1000
0010
,
0100
0001
0001
0100
0010
1000
1000
0100
,
0010
0001
1000
0000
0000
0000
0002
0000
,
0100
0010
1000
0000
1000
0000
2003
0000
,
0100
0001
0010
0000
0010
0000
3002
0000
,
1000
0100
0010
0000
0100
0000
2003
0000
,
0100
0000
3010
0000
1010
0000
0010
1000
,
0010
1000
0010
1000
0010
1000
0001
0100
,
0010
1000
0001
0000
0000
0000
1000
0100
,
0010
0001
1000
0000
0000
0000
0001
0000
,
0010
0100
1000
0100
,
0010
0001
1000
0010
,
0100
0000
0001
0000
0100
0000
0010
1000
,
0100
0010
0001
0000
0000
0000
0010
0100
,
1000
0001
0100
0000
0000
0000
0010
1000
,
0100
0020
0002
0000
0000
0000
0000
0000
,
0000
0000
0000
0033
;
#NOTES:
     dance-single:
     Renard:
     Beginner:
     2:
     0.187,0.213,0.114,0.153,0.000:
0000
0000
0000
0000
,
0000
0000
0000
0000
,
0000
0000
0000
0000
,
0000
0000
0000
0000
,
1000
1000
0001
0000
,
0100
0000
0010
0000
,
1000
1000
0001
0000
,
0100
0000
0010
0100
,
0001
0001
1000
0000
,
0010
0000
0100
0000
,
0001
0001
1000
0000
,
0010
0000
0100
0010
,
2000
0000
3001
0000
,
0002
0000
1003
0000
,
0010
0100
0010
0000
,
0010
0000
0010
0000
,
1000
0000
1010
0000
,
0010
0100
0001
0000
,
0010
0000
0011
0000
,
0001
1000
0100
0000
,
1000
0000
1001
0000
,
0001
0100
0010
0000
,
1000
0000
1010
0000
,
0010
0100
0001
1000
,
0002
0000
0100
0000
,
1000
1000
0100
0000
,
1000
0000
0100
0000
,
1000
1000
0103
0000
,
0001
0000
1100
0000
,
0001
0000
1100
0000
,
0001
0000
1010
0000
,
0000
1001
1001
2000
,
0000
3020
0000
0230
,
0000
0302
0000
0023
,
0000
0230
0000
2300
,
0000
3002
0000
0103
,
0100
0010
0010
1000
,
0000
1000
0000
0001
,
0001
0100
0100
0010
,
0010
1000
0001
2002
,
0000
0000
0000
0000
,
0000
3003
0110
1001
,
0000
0001
0000
0001
,
1000
0100
0000
0010
,
0000
0010
0000
0001
,
1000
0010
0100
0002
,
0000
0000
0000
2003
,
0000
0000
0000
3020
,
0000
0000
0000
0000
,
0000
0000
0000
0130
;
