#TITLE:Ride;
#SUBTITLE:;
#ARTIST:Captain Ahab;
#TITLETRANSLIT:;
#SUBTITLETRANSLIT:;
#ARTISTTRANSLIT:;
#CRChallenge:;
#BANNER:ride.png;
#BACKGROUND:ride-bg.png;
#LYRICSPATH:;
#CDTITLE:;
#MUSIC:ride.ogg;
#OFFSET:0.000;
#SAMPLESTART:31.230;
#SAMPLELENGTH:12.000;
#SELECTABLE:YES;
#BPMS:0.000=240.000,64.000=120.000,96.000=240.000;
#STOPS:205.000=0.500
;
#BGCHANGES:;
#NOTES:
     dance-single:
     Renard:
     Hard:
     10:
     0.804,1.000,0.115,0.385,0.125:
0000
0000
0000
0000
,
0000
0000
0000
0000
,
0000
0000
0000
0000
,
0000
0000
0000
0000
,
0000
0000
0000
0000
,
0000
0000
0000
0000
,
0000
0000
0000
0000
,
0000
0000
0000
0000
,
0001
1000
0001
1000
0001
0000
0100
0001
,
0100
0001
0100
0000
0001
1000
0001
1000
,
0001
1000
0001
0000
1000
0100
1000
0100
,
1000
0000
0001
1000
0001
1000
0001
0000
,
0100
0001
0100
0001
0100
0000
0001
1000
,
0001
1000
0001
0000
1000
0100
1000
0100
,
2000
0000
3200
0000
,
0320
0000
0032
0000
,
2003
0000
3020
0000
0230
0000
0302
0000
0000
0203
0000
0000
,
0320
0000
0000
0000
2030
0000
0000
0000
3002
0000
0000
0000
0203
0000
0000
0000
0000
0000
0000
0000
0000
0302
0000
0000
,
0023
0000
0230
0000
2300
0000
3002
0000
0023
0000
0230
0000
,
2300
0000
0000
0000
0000
0000
3002
2003
,
3002
0000
0203
0000
0320
0000
2030
0000
3002
0000
0023
0000
,
0230
0000
0000
0000
2300
0000
0000
0000
3002
0000
0000
0000
0203
0000
0000
0000
0000
0000
0000
0000
0000
0320
0000
0000
,
2030
0000
3002
0000
0023
0000
0230
0000
2300
0000
3002
0000
,
0013
0000
0000
0000
0000
0001
0000
1000
,
0001
0100
0001
0100
0001
0010
0001
0010
,
0001
0100
0001
0100
0001
0010
0001
0010
,
0100
1000
0001
0100
,
0010
1000
0100
0010
,
0100
1000
0100
1000
0010
1000
0010
1000
,
0100
1000
0100
1000
0010
1000
0010
1000
,
0001
0100
0010
1000
,
0100
0010
0001
1000
,
0001
0100
0001
0100
0001
0010
0001
0010
,
0001
0100
0001
0100
0001
0010
0001
0010
,
0001
0010
0100
1000
,
0010
0100
0001
0000
,
1M11
0000
0000
0000
,
0000
0000
0000
0000
,
11M1
0000
0000
0000
,
0000
1001
0110
0000
,
0010
0100
0001
0100
0010
0100
0001
0100
,
0010
1000
0100
0010
0001
0010
0100
1000
,
0010
0100
0001
0100
0010
0100
0001
0100
,
0010
1000
0100
0010
0001
0010
0100
1000
,
0001
0000
1000
0010
0100
0000
0010
1000
,
0001
0100
0010
1000
0000
0000
0000
0000
,
1000
0000
0010
0100
0001
0000
0100
0010
,
1000
0001
0010
0100
0000
0000
1000
0000
,
0100
0000
0010
0000
0001
0000
0010
0000
0100
0000
1000
0000
,
0001
0000
0010
0000
0100
0000
1000
0000
0100
0000
0010
0000
,
0001
1000
0001
1000
0001
0100
0001
0100
,
0001
1000
0000
0000
0001
0010
0001
0010
,
0001
1000
0001
1000
0001
0100
0001
0100
,
0010
1000
0001
0100
0001
1000
0001
1000
,
0001
0100
0001
0100
0001
1000
0010
0100
,
0001
1000
0010
0100
0001
1000
0001
1000
,
0100
1000
0100
1000
0001
0010
0100
1000
,
0001
0010
0100
1000
0001
1000
0001
1000
,
0010
1000
0010
1000
0001
0100
0010
1000
,
0001
0100
0010
1000
0100
1000
0100
1000
,
0001
0010
0001
0010
0100
1000
0001
0010
,
0100
1000
0100
0010
0001
0010
0001
0010
,
0100
1000
0100
1000
0001
0010
0100
1000
,
0001
0100
0010
1000
0001
0100
0001
0100
,
0010
1000
0010
1000
0001
0100
0010
1000
,
0001
0100
0010
1000
0001
1000
0001
1000
,
0100
1000
0100
1000
0100
0010
0001
0010
,
0100
1000
0001
1000
0001
0100
0010
0100
,
0001
0100
0010
0100
0001
0100
0010
1000
,
0100
0010
0001
0100
0010
0100
0001
0100
,
0010
0100
0001
0100
0010
1000
0100
0010
,
0001
0010
0100
1000
0010
0100
0010
1000
,
0010
0100
0010
1000
0100
0010
0001
0010
,
0100
1000
0001
0100
0010
0100
0010
1000
,
0010
1000
0010
0100
0010
1000
0001
0100
,
0010
1000
0100
0010
0001
0010
0001
0010
,
1000
0010
1000
0010
0001
0010
0001
0010
,
1000
0010
1000
0010
0001
0100
0001
0100
,
1000
0100
1000
0100
0001
0100
0001
0100
,
1000
0100
1000
0100
0001
0010
0100
0010
,
0001
0010
0100
0010
0100
1000
0100
0010
,
0100
1000
0100
0010
0100
1000
0010
0100
,
0001
0010
0100
1000
0100
0010
0001
0100
,
0010
1000
0100
0010
0001
0000
1000
0001
,
0100
0000
0001
1000
0100
0000
1000
0001
,
0100
0000
0001
1000
0100
0010
0001
0010
,
0100
1000
0001
0000
1000
0001
0010
0100
,
1000
0001
0010
0000
1M11
0000
0000
0000
,
0000
0000
0000
0000
,
0000
0000
11M1
0000
,
0000
0000
0000
1001
,
0110
0000
1M11
0000
,
0000
0000
0000
111M
,
0000
M111
0000
0000
1111
0000
0000
0000
;
#NOTES:
     dance-single:
     Renard:
     Medium:
     10:
     0.686,1.000,0.115,0.385,0.125:
0000
0000
0000
0000
,
0000
0000
0000
0000
,
0000
0000
0000
0000
,
0000
0000
0000
0000
,
0000
0000
0000
0000
,
0000
0000
0000
0000
,
0000
0000
0000
0000
,
0000
0000
0000
0000
,
0001
1000
0001
1000
0001
0000
0100
0001
,
0100
0001
0100
0000
0001
1000
0001
1000
,
0001
1000
0001
0000
1000
0100
1000
0100
,
1000
0000
0001
1000
0001
1000
0001
0000
,
0100
0001
0100
0001
0100
0000
0001
1000
,
0001
1000
0001
0000
1000
0100
1000
0100
,
2000
0000
3200
0000
,
0320
0000
0032
0000
,
2003
0000
3020
0000
0230
0000
0302
0000
0000
0203
0000
0000
,
0320
0000
0000
0000
2030
0000
0000
0000
3002
0000
0000
0000
0203
0000
0000
0000
0000
0000
0000
0000
0000
0302
0000
0000
,
0023
0000
0230
0000
2300
0000
3002
0000
0023
0000
0230
0000
,
2300
0000
0000
0000
0000
0000
3002
2003
,
3002
0000
0203
0000
0320
0000
2030
0000
3002
0000
0023
0000
,
0230
0000
0000
0000
2300
0000
0000
0000
3002
0000
0000
0000
0203
0000
0000
0000
0000
0000
0000
0000
0000
0320
0000
0000
,
2030
0000
3002
0000
0023
0000
0230
0000
2300
0000
3002
0000
,
0013
0000
0000
0000
0000
0001
0000
1000
,
0001
0100
0001
0100
0001
0010
0001
0010
,
0001
0100
0001
0100
0001
0010
0001
0010
,
0100
1000
0001
0100
,
0010
1000
0100
0010
,
0100
1000
0100
1000
0010
1000
0010
1000
,
0100
1000
0100
1000
0010
1000
0010
1000
,
0001
0100
0010
1000
,
0100
0010
0001
1000
,
0001
0100
0001
0100
0001
0010
0001
0010
,
0001
0100
0001
0100
0001
0010
0001
0010
,
0001
0010
0100
1000
,
0010
0100
0001
0000
,
1M11
0000
0000
0000
,
0000
0000
0000
0000
,
11M1
0000
0000
0000
,
0000
1001
0110
0000
,
0010
0100
0001
0100
0010
0100
0001
0100
,
0010
1000
0100
0010
0001
0010
0100
1000
,
0010
0100
0001
0100
0010
0100
0001
0100
,
0010
1000
0100
0010
0001
0010
0100
1000
,
0001
0000
1000
0010
0100
0000
0010
1000
,
0001
0100
0010
1000
0000
0000
0000
0000
,
1000
0000
0010
0100
0001
0000
0100
0010
,
1000
0001
0010
0100
0000
0000
1000
0000
,
0100
0000
0010
0000
0001
0000
0010
0000
0100
0000
1000
0000
,
0001
0000
0010
0000
0100
0000
1000
0000
0100
0000
0010
0000
,
0001
1000
0001
1000
0001
0100
0001
0100
,
0001
1000
0000
0000
0001
0100
0001
0000
,
1000
0001
1000
0000
0100
1000
0100
0000
,
1000
0001
1000
0000
0001
0100
0001
0000
,
1000
0001
1000
0000
0100
1000
0100
0000
,
1000
0001
1000
0000
0001
0010
0001
0000
,
1000
0001
1000
0000
0010
1000
0010
0000
,
1000
0001
1000
0000
0001
0010
0001
0000
,
1000
0001
1000
0000
0010
1000
0010
0000
,
1000
0001
1000
0000
0001
0000
0100
0000
,
0001
1000
0100
0000
1000
0000
0001
0000
,
1000
0100
1000
0000
0001
0000
1000
0000
,
0001
0100
0001
0000
1000
0000
0100
0000
,
0010
0001
0010
0000
0001
0000
1000
0000
,
0010
1000
0010
0000
1000
0000
0001
0000
,
0100
0001
1000
0000
0001
0000
1000
0000
,
0100
1000
0100
0000
1000
0001
1000
0000
,
0001
0100
0001
0000
1000
0000
0100
0000
,
0010
0001
1000
0000
0001
0000
1000
0000
,
0010
1000
0001
0000
0010
0000
0001
0000
,
1000
0100
1000
0000
0001
0000
1000
0000
,
0001
0100
0010
0000
1000
0000
0010
0000
,
0100
0001
1000
0000
0001
0000
1000
0000
,
0100
1000
0001
0000
1000
0000
0001
0000
,
0010
0001
1000
0000
0010
0000
1000
0000
,
0001
0100
0001
0000
1000
0000
0100
0000
,
0010
0001
0010
0000
0100
0010
0100
0000
,
1000
0100
1000
0000
0001
0000
1000
0000
,
0100
1000
0100
0000
1000
0100
1000
0000
,
0100
0010
0100
0000
0010
0001
0010
0000
,
0001
0000
1000
0000
0001
0100
0001
0000
,
0100
0010
0100
0000
0010
1000
0010
0000
,
1000
0000
0100
0000
0010
0001
0010
0000
,
0100
1000
0100
0000
1000
0000
0001
1000
,
0010
0000
1000
0001
0010
0000
0001
1000
,
0010
0000
1000
0001
0010
0100
1000
0100
,
0010
0001
1000
0000
0001
1000
0100
0010
,
0001
1000
0100
0000
11M1
0000
0000
0000
,
0000
0000
0000
0000
,
0000
0000
1M11
0000
,
0000
0000
0000
1001
,
0110
0000
1M11
0000
,
0000
0000
0000
1MM1
,
0000
M11M
0000
0000
1M11
0000
0000
0000
;
#NOTES:
     dance-single:
     Renard:
     Easy:
     7:
     0.385,0.405,0.087,0.106,0.000:
0000
0000
0000
0000
,
0000
0000
0000
0000
,
0000
0000
0000
0000
,
0000
0000
0000
0000
,
0000
0000
0000
0000
,
0000
0000
0000
0000
,
0000
0000
0000
0000
,
0000
0000
0000
0000
,
0001
0000
0000
1000
0000
0000
0010
0000
,
1000
0000
0000
0001
0000
0000
0100
0000
,
0001
0000
0000
1000
0000
0000
0100
0000
,
1000
0000
0000
0001
0000
0000
0010
0000
,
0001
0000
0000
1000
0000
0000
0010
0000
,
1000
0000
0000
0001
0000
0000
0100
0000
,
0001
1000
0100
0010
,
0001
0010
0100
1000
,
0002
0000
2003
0000
,
0010
0010
3020
0000
,
0230
0000
0302
0000
,
2000
0000
0000
0003
,
0020
0000
0000
3000
,
0200
0000
0000
0030
,
0002
0300
2000
0000
,
0020
0030
0000
3003
,
1000
0001
0100
0001
,
1000
0100
1000
0001
,
0100
0000
0000
0100
0000
0000
0100
0000
,
0010
1000
0100
0010
,
0001
0000
0001
1000
,
0010
0000
0100
0001
,
1000
0000
0000
1000
0000
0000
1000
0000
,
0001
0010
0100
1000
,
0001
0000
0100
0001
,
0100
0000
0010
1000
,
0001
0000
0000
0001
0000
0000
1000
0000
,
0100
0010
0001
0000
,
1001
0000
0000
0000
,
0000
0000
0000
0000
,
0110
0000
0000
0000
,
0000
0010
0100
0000
,
0001
0100
0001
0100
,
0010
0100
0010
0100
,
0010
1000
0010
1000
,
0100
1000
0100
0000
,
1000
0001
1000
0001
,
0100
0000
0000
0010
0000
0000
0100
0000
,
0010
1000
0100
1000
,
0001
0010
0001
1000
,
0010
0010
0100
0100
,
0010
0100
0001
0100
,
0010
0010
1000
1000
,
1001
0000
0001
1000
,
0001
1000
0100
0100
,
0100
0100
1000
0001
,
1000
0001
0100
0100
,
0001
0100
0001
0000
,
1000
0000
0000
0000
0100
0000
0000
0010
,
0000
0100
0010
0000
,
0001
1000
0001
1000
,
0010
0000
1000
0000
,
0010
0100
0010
0100
,
0001
0000
1000
0000
0100
0000
0000
0010
,
0000
0001
0000
1000
,
0100
1000
0001
0100
,
0001
1000
0100
1000
,
0001
0010
0001
0000
,
0001
1000
0010
0100
,
0001
0000
1000
0000
0100
0000
0000
0100
,
0000
0000
0010
0000
0001
0000
0000
0001
,
0000
0001
1000
0010
,
0100
0000
0001
0000
1000
0000
0000
1000
,
0000
1000
0001
0100
,
0010
0000
1000
0000
0001
0000
0000
0001
,
0000
0001
1000
0100
,
0010
0000
0001
0000
1000
0000
0000
0001
,
0000
1000
0010
1000
,
0010
0000
0100
0000
0001
0000
0000
0100
,
0000
0001
1000
0100
,
0010
0000
0001
0000
0010
0000
0000
0001
,
0000
0010
0100
1000
,
0001
0000
1000
0000
0010
0000
0000
1000
,
0000
0010
0100
0001
,
1000
0100
0010
0001
,
1000
0000
0001
1000
,
0001
1000
0010
0100
,
0010
0100
0001
1000
,
0010
0100
0001
1000
,
0100
0010
1001
0000
,
0000
0000
0000
0000
,
0000
0000
0110
0000
,
0000
0000
0000
0010
,
0100
0000
1001
0000
,
0000
0000
0000
0110
,
0000
1001
0000
0000
0110
0000
0000
0000
;
#NOTES:
     dance-single:
     Renard:
     Beginner:
     4:
     0.301,0.405,0.106,0.135,0.000:
0000
0000
0000
0000
,
0000
0000
0000
0000
,
0000
0000
0000
0000
,
0000
0000
0000
0000
,
0000
0000
0000
0000
,
0000
0000
0000
0000
,
0000
0000
0000
0000
,
0000
0000
0000
0000
,
0001
0000
0001
0000
,
1000
0000
1000
0000
,
0010
0000
0010
0000
,
0100
0000
0100
0000
,
0001
0000
1000
0000
,
0100
0000
0010
0000
,
0002
0000
2003
0000
,
3002
0000
2003
0000
,
3020
0000
0000
0000
,
0230
0000
0000
0000
,
0302
0000
2003
0000
,
3020
0000
0000
0000
,
0230
0000
0000
0000
,
0302
0000
0000
0000
,
0023
0000
0230
0000
,
2300
0000
0000
0000
,
3001
0000
0001
0000
,
0001
0000
1000
0010
,
0100
0010
0100
0010
,
0100
0000
0010
0000
,
0100
0000
0001
0000
,
0100
0000
0001
0000
,
1000
0100
1000
0100
,
1000
0100
1000
0000
,
0001
0000
0001
0000
,
1000
0000
1000
0000
,
0010
0100
0010
0100
,
0010
0100
0010
0000
,
1001
0000
0000
0000
,
0000
0000
0000
0000
,
0110
0000
0000
0000
,
0000
0010
0100
0000
,
0010
1000
0010
0000
,
0100
0001
0100
0000
,
0001
1000
0001
1000
,
0100
0000
1000
0000
,
0001
0000
0001
0000
,
1000
0000
0100
0100
,
1000
0000
1000
0000
,
0001
0000
0100
0100
,
0010
0000
0110
0000
,
1001
0000
0110
0000
,
0010
0100
0010
1000
,
1001
0000
0001
0000
,
0001
1000
0001
0000
,
0100
0000
0010
0000
,
0100
0010
0100
0000
,
0010
0000
1000
0000
,
1000
0000
0001
0000
,
0001
0100
0001
0000
,
0001
0000
1000
0000
,
0100
1000
0001
0000
,
0001
0000
1000
0000
,
0010
1000
0001
0000
,
0001
0000
0100
0000
,
0001
1000
0100
0000
,
1000
0000
0001
0100
,
0001
0000
1000
0000
,
0100
0000
1000
0001
,
1000
0001
1000
0000
,
1000
0000
0010
1000
,
0010
0000
1000
0000
,
1000
0000
0001
0100
,
0001
0000
1000
0000
,
1000
0000
0100
0010
,
0100
0000
0010
0000
,
0010
0000
0001
1000
,
0001
0000
1000
0000
,
1000
0000
0010
0100
,
0010
0100
0001
0000
,
0001
0000
0100
0010
,
0100
0010
1000
0000
,
1000
0000
0010
0100
,
0010
0100
0001
0000
,
1000
0000
0100
0000
,
0010
0000
1001
0000
,
1000
0000
0001
0000
,
1000
0010
1000
0000
,
0010
0000
1000
0001
,
0100
0000
0110
0000
,
0000
0000
0000
0000
,
0000
0000
1001
0000
,
0000
0000
0000
0001
,
1000
0000
1000
0000
,
0000
0000
0000
0101
,
0000
0000
1001
0000
;
