#TITLE:Revolution;
#SUBTITLE:;
#ARTIST:Aquasky & Epidemix;
#TITLETRANSLIT:;
#SUBTITLETRANSLIT:;
#ARTISTTRANSLIT:;
#CRChallenge:;
#BANNER:revolution.png;
#BACKGROUND:revolution-bg.png;
#LYRICSPATH:;
#CDTITLE:;
#MUSIC:revolution.ogg;
#OFFSET:0.000;
#SAMPLESTART:13.513;
#SAMPLELENGTH:12.000;
#SELECTABLE:YES;
#BPMS:0.000=138.000;
#STOPS:;
#BGCHANGES:;
#NOTES:
     dance-single:
     Renard:
     Hard:
     10:
     0.697,0.825,0.609,0.210,0.464:
0000
0000
0000
0000
,
0000
0000
0000
0000
,
0000
0000
0000
0000
,
0000
0000
0000
0000
,
2100
0000
0000
0010
0000
0000
3011
0000
,
0102
0000
0000
0010
0000
0000
1013
0000
,
2010
0000
0000
0100
0000
0000
3101
0000
,
1000
0100
0010
0001
0100
0010
1001
0000
,
0001
0100
1000
0000
0100
0000
0001
0010
0100
1000
0010
0000
0100
0000
0000
0001
,
0100
0000
0010
0000
1000
0000
0010
0100
0001
0100
1000
0000
0100
0000
0010
0000
,
1000
0010
0100
0001
0010
0100
1000
0001
0100
0000
0010
0000
0100
0000
0010
0100
,
0001
1000
0100
0010
0001
0000
1000
0000
0010
0000
0100
0000
0001
0000
1001
0000
,
0000
0000
0000
0000
1100
0000
0010
0001
0000
0100
0010
0000
1001
0000
0000
0001
,
0100
0000
0010
0000
1010
0000
0100
0001
0000
0010
0100
0000
1100
0000
0000
0000
,
1100
0000
0010
0000
0001
0000
0010
0100
1000
0010
0100
0000
0001
0000
0010
0001
,
1000
0000
0100
0000
1100
0000
0000
0000
0100
1000
0010
0000
0100
0000
0001
1000
,
0100
0001
0100
0000
1000
0000
0010
0001
0010
0000
0100
0000
1000
0000
0100
0010
,
1000
0000
0010
0001
0010
0100
0001
0000
1000
0000
0100
0000
0010
0000
0000
0000
,
0001
0000
0010
1000
0010
0000
0100
0000
1000
0010
0100
0000
0001
0000
0000
0000
,
1100
0000
0010
0000
1001
0000
0001
0100
0000
0010
1000
0000
1001
0000
0100
0001
,
1000
0100
0001
0100
1000
0000
0010
0000
0100
0000
0001
0000
0010
0000
0000
0000
,
0001
0000
0000
1000
0100
0010
0001
0000
0000
1000
0000
0000
0010
0000
0000
0100
0000
0000
1001
0000
0000
0100
0000
0000
,
1010
0100
1001
0010
0101
0110
1010
0100
,
0010
0000
0010
0000
1000
0000
2000
0000
0002
0000
0000
3013
0000
0000
0000
0000
,
1100
0000
0010
0011
0000
0001
0101
0000
0000
0000
0000
0000
0000
0000
0001
0000
,
0011
0000
0100
1100
0000
1000
1010
0000
0000
0000
0000
0000
0001
1000
0001
0000
,
1000
0000
1000
0100
0000
0100
0010
0000
0001
0000
0010
0000
0100
0000
1000
0000
,
0001
0000
0100
0001
0000
1000
0001
0000
0010
0000
0001
0000
0100
0010
0000
1000
,
0010
0000
0100
0001
1000
0100
0000
0010
0001
0000
1000
0000
0001
0100
1000
0000
,
0100
0010
1000
0010
0001
0000
0010
0000
0100
0000
0010
0000
1001
0000
0000
0000
,
0001
0110
1000
0110
0001
0001
1000
1000
,
1001
0000
1000
0000
1010
0000
0110
0000
0101
0000
0100
0001
0010
0000
0000
0000
,
0100
0000
0100
1000
0010
0100
0001
0000
0000
0000
1000
0000
1100
0000
0010
0000
,
0001
0100
0010
1000
0000
0010
1000
0001
0000
0000
0100
0000
1001
0000
0100
0000
,
0001
0000
0100
0010
0000
0100
0010
0000
1010
0000
0000
0000
0010
1000
0001
1000
,
0001
0000
0010
0100
1000
0001
0000
0101
0000
0000
0100
0000
0001
1000
0100
0010
,
0001
0000
0010
0000
0100
1000
0000
0000
0001
0000
0010
0100
1000
0001
0000
0000
,
0100
0010
1000
0100
0010
0001
0000
0010
0100
1000
0001
0100
0010
1000
0000
0000
,
0010
1000
0001
0100
0001
0000
0000
0000
0100
1000
0100
0000
0010
1000
0010
1000
,
0001
0001
1000
1000
0010
0100
1001
0000
,
0001
0002
2000
0000
3013
0000
0000
0000
,
1000
2000
0002
0000
3013
0000
0000
0000
,
0002
0000
0203
0000
,
0320
0000
2030
0000
,
3001
0002
2000
0000
3013
0000
0000
0000
,
1000
2000
0002
0000
3013
0000
0000
0000
,
0101
0110
1010
1100
0011
0110
1001
0220
,
0000
0000
0000
0330
,
0010
0100
0001
1000
0100
0010
0001
0100
0010
1000
0100
0010
0001
1000
0001
0000
,
1001
0100
1001
0010
1001
0100
1001
0010
,
1001
0000
0100
0000
0010
1000
0100
0010
,
0001
0000
0110
0000
1000
0010
0100
0000
,
1000
0000
0110
0000
0010
1000
0100
0010
,
0011
0010
0110
0100
1100
1000
1010
0010
,
0110
0000
0100
0001
0010
0000
0010
0100
,
1000
0000
1000
0010
0100
0001
0010
2000
,
0020
0000
0000
0000
,
3030
0000
0000
0000
;
#NOTES:
     dance-single:
     Renard:
     Medium:
     8:
     0.473,0.597,0.210,0.060,0.13:
0000
0000
0000
0000
,
0000
0000
0000
0000
,
0000
0000
0000
0000
,
0000
0000
0000
0000
,
0000
0000
0000
0000
,
0000
0000
0000
0000
,
0000
0000
0000
0000
,
0000
0000
0000
0000
,
0001
0000
1000
0000
0100
0000
1000
0100
0000
1000
0100
0000
1000
0000
0000
0000
,
0001
0000
0100
0000
0010
0000
1000
0010
0000
0000
1000
0010
1000
0000
0000
0000
,
0010
0100
0001
1000
0100
0010
0001
0000
,
1000
0000
0100
0000
0010
0000
0001
1000
0001
0000
1000
0000
0001
0000
0100
0000
,
0000
0000
0000
0000
0010
0000
0000
1000
0000
0010
1000
0000
0010
0000
0000
0000
,
0100
0000
0001
0000
1000
0000
0000
0100
0000
1000
0100
0000
1000
0000
0000
0000
,
0001
0000
0100
0000
0010
0000
0000
0000
1000
0001
1000
0000
0001
0000
0000
0000
,
1000
0000
0010
0000
0100
0000
0000
0000
0001
0100
0001
0000
0100
0000
0000
0000
,
0001
0100
0001
0010
0001
0100
0001
0010
,
1000
0100
1000
0010
1000
0100
1000
0010
,
0001
0100
0001
0010
0001
0100
0001
0010
,
1000
0100
1000
0010
1000
0100
1000
0010
,
0001
0100
1000
0100
0001
0100
1000
0100
,
0001
0010
1000
0010
0001
0010
1000
0000
,
0110
0000
1001
0000
0010
1000
0001
1000
,
0010
0100
0100
0010
0010
0000
0100
0000
,
0010
0000
1000
0010
0000
1000
0010
0000
0000
0000
0000
0000
0000
0000
0000
0000
,
0001
0000
0100
0001
0000
0100
0001
0000
0000
0000
0000
0000
0100
0000
0001
0000
,
1000
0000
0100
0010
0000
0001
0010
0000
0000
0000
0100
0000
1000
0000
0001
0000
,
0100
0000
0010
1000
0000
0010
1000
0000
0000
0000
0010
0000
0100
0000
0001
0000
,
1000
0000
0100
0010
0100
0000
0010
0000
0001
0000
1000
0000
0010
1000
0010
0000
,
1000
0000
0001
0000
0100
0000
0001
1000
0001
0000
1000
0000
0100
0000
0010
0000
,
0011
0000
0011
0000
0110
0100
1100
0000
,
1010
0101
1001
1001
,
1000
0000
0001
0100
0000
0001
1000
0000
0000
0000
0001
0000
1000
0000
0000
0000
,
0100
0000
1000
0001
0000
1000
0010
0000
0000
0000
1000
0000
0001
0000
0000
0000
,
0100
0100
0001
0001
1000
0000
0100
0000
,
1000
0001
0100
0010
1000
0000
1010
0000
,
1000
0010
0100
0000
0001
0100
0010
0000
,
1000
0010
0100
0000
0001
1000
0100
0000
,
0010
0010
0001
0000
1000
1000
0100
0000
,
1001
1000
1010
1000
1001
0000
0000
0000
,
1000
1000
1000
0000
2000
0000
0000
0000
,
0001
0001
0001
0000
0002
0000
3003
0000
,
1000
1000
0001
0001
,
0100
0100
0010
0010
,
0210
0010
0010
0000
0010
0000
0000
0300
,
0120
0100
0100
0000
0100
0000
0000
0000
,
0130
0010
0100
0010
1000
0100
0010
1001
,
0000
0000
0000
0000
,
0001
0001
0010
0010
0100
0100
1000
0000
,
0001
0100
1000
0100
0001
0100
1000
0100
,
0001
1001
0100
1001
,
1000
0100
0001
0000
0001
0100
1000
0000
,
1000
0100
0001
0100
1000
0000
1000
0000
,
0001
0010
1000
0010
0001
0010
1000
0010
,
0001
1001
0010
1001
,
1000
0010
0100
0001
0000
1000
0100
0020
,
0002
0000
0000
0000
,
0033
0000
0000
0000
;
#NOTES:
     dance-single:
     Renard:
     Easy:
     5:
     0.342,0.420,0.070,0.100,0.000:
0000
0000
0000
0000
,
0000
0000
0000
0000
,
0000
0000
0000
0000
,
0000
0000
0000
0000
,
0000
0000
0000
0000
,
0000
0000
0000
0000
,
0000
0000
0000
0000
,
0001
1000
0001
1000
0001
1000
0001
0000
,
0001
0000
1000
0001
0000
0000
0000
0000
,
0100
0000
0010
0100
0000
0000
1001
0000
,
1000
0000
0100
0000
0010
0001
0010
0000
,
0001
0000
0100
0000
0010
1000
0001
1000
,
0000
0001
1000
1000
,
0010
0000
0010
0000
0100
0001
0100
0000
,
0001
0000
1000
0000
0100
1000
0100
0000
,
1000
0100
1000
0000
0001
0000
0001
0000
,
1000
0000
0010
0000
0100
0001
0100
0000
,
0001
0001
1000
1000
,
0001
0010
0001
0000
1000
0000
1000
0000
,
0100
0000
0010
0000
0001
1000
0001
0000
,
1000
1000
1000
0000
0001
0001
0001
0000
,
0100
0100
0100
0000
0010
0010
0010
0000
,
1010
1001
1100
1001
,
1000
0100
0010
0001
1000
0000
0000
0000
,
0001
0000
0000
0001
0000
0000
0000
0000
,
1000
0000
0000
1000
0000
0000
0110
0000
,
0010
1000
0001
0000
,
1000
0001
1000
0001
0100
0000
0100
0000
,
0001
1000
0100
0010
0001
0010
0100
1000
,
0001
1000
0010
1000
0001
1000
0000
0000
,
0001
0000
0001
0000
1000
0001
1000
0000
,
0010
0010
0100
0100
,
0001
0100
0001
0010
0000
0000
0000
0000
,
1000
0100
1000
0010
0000
0000
0000
0000
,
0001
0100
0001
0010
0000
0000
0000
0000
,
0100
1000
0010
1000
0000
0000
0000
0000
,
0001
0100
0010
0000
1000
0010
0100
0000
,
0001
0100
0010
0000
1000
0010
0100
0000
,
0001
0001
1000
0000
0010
0010
0100
0000
,
0001
1000
0100
0010
0001
1000
0000
0000
,
0001
0001
0002
0000
,
1003
1000
2000
0000
,
3020
0000
0230
0000
,
0320
0000
0000
0000
,
0130
0100
0200
0000
,
0301
0001
0002
0000
,
2003
0000
3020
0000
,
2030
0000
0000
0000
,
0001
0000
0001
0000
0001
0001
0001
0001
,
3001
1000
0001
1000
0001
1000
0001
1000
,
0001
1000
0010
0100
,
0001
1000
0100
0010
,
0001
1000
0001
1000
,
0010
0100
0010
0100
0010
0100
0010
0100
,
0010
0100
0001
1000
,
0100
0000
0010
0000
0001
1000
0100
0010
,
0000
1001
0000
0000
0000
0000
0000
0000
;
#NOTES:
     dance-single:
     Renard:
     Beginner:
     3:
     0.252,0.363,0.060,0.170,0.000:
0000
0000
0000
0000
,
0000
0000
0000
0000
,
0000
0000
0000
0000
,
0000
0000
0000
0000
,
0000
0000
0000
0000
,
0000
0000
0000
0000
,
0000
0000
0000
0000
,
1000
1000
1000
1000
,
0001
0100
0010
0010
,
1000
0100
0010
0010
,
1001
0010
1001
0000
,
1001
0100
1001
0000
,
0001
1000
0010
0000
,
1000
0001
0010
0000
,
0001
1000
0100
0000
,
1000
0001
0100
0000
,
0001
0001
1000
1000
,
0010
0010
0100
0100
,
0002
1000
0100
1000
,
2003
0001
0100
0001
,
3001
1000
1000
1000
,
0010
0100
0100
0100
,
0001
0100
1000
0100
,
0002
0000
0000
1000
,
1003
0000
0000
0000
,
0110
0000
0000
0000
,
0010
0100
0001
0000
,
0100
0010
1000
0000
,
0001
0001
1000
1000
,
0010
0010
0100
0100
,
0002
1000
0100
1000
,
2003
0000
0000
0000
,
3010
0010
0010
0000
,
0100
0100
0100
0000
,
0010
0010
0010
0000
,
1000
1000
1000
0000
,
0002
1003
2000
3001
,
0200
0310
0020
0130
,
0001
1000
0100
0010
,
0001
0001
0001
0000
,
2000
0001
3010
0000
,
2000
0001
3010
0000
,
2000
0000
3002
0000
,
0203
0000
0000
0000
,
0302
1000
0100
0000
,
2003
0001
0100
0000
,
0002
0000
0000
0000
,
0010
0000
0000
0000
,
0000
0000
0000
3003
,
0001
1000
0100
0001
,
0100
1000
0001
0010
,
1000
0010
0001
1000
,
0010
0100
0001
0010
,
0100
1000
0100
0010
,
0001
1000
0010
0100
,
0001
0010
0100
1000
,
1001
0000
0000
0000
;
