#TITLE:Restart!;
#SUBTITLE:;
#ARTIST:The Mad Capsule Markets;
#TITLETRANSLIT:;
#SUBTITLETRANSLIT:;
#ARTISTTRANSLIT:;
#CRChallenge:;
#BANNER:restart.png;
#BACKGROUND:restart-bg.png;
#LYRICSPATH:;
#CDTITLE:!cdtitle.png;
#MUSIC:restart.ogg;
#OFFSET:0.000;
#SAMPLESTART:19.933;
#SAMPLELENGTH:12.000;
#SELECTABLE:YES;
#BPMS:0.000=190.000;
#STOPS:;
#BGCHANGES:;
#NOTES:
     dance-single:
     Renard:
     Medium:
     10:
     0.768,0.947,1.000,0.172,0.040:
0000
0000
0000
0000
,
0000
0000
0000
0000
,
0000
0000
0000
0000
,
0000
0000
0000
0000
,
0000
0000
0000
0000
,
0000
0000
0000
0000
,
0000
0000
0000
0000
,
0000
0000
0000
0000
,
1010
1100
0011
0101
,
1010
1100
0011
0101
,
1100
1010
0101
0011
,
1100
1010
0101
0011
,
1010
1001
0011
1001
,
1010
1001
0011
1001
,
1100
1001
0101
1001
,
1100
0101
1100
0101
,
0101
0000
0010
1000
0100
0000
0101
0000
,
1100
0000
1000
0010
0001
0000
0011
0000
,
1010
0000
0010
0100
0001
0000
0011
0000
,
1010
0000
0010
0100
1000
0100
0001
0000
,
0101
0000
0001
0100
1000
0000
1100
0000
,
1010
0000
0010
0100
0001
0000
0101
0000
,
1100
0000
1000
0100
0010
0000
0110
0000
,
0011
0000
0001
0010
1000
0001
0100
0000
,
0201
0310
1200
0310
,
0201
0310
1200
0310
,
1020
0130
0021
0130
,
1020
0130
0021
0130
,
1200
0301
0201
1300
,
1020
0031
0021
1030
,
1200
0310
0021
0130
,
1100
0101
1010
0011
,
1000
0010
0001
1000
0100
0000
0101
0000
,
0001
0100
1000
0001
0010
0000
1010
0000
,
1000
0100
0001
1000
0010
0000
0011
0000
,
0001
0010
1000
0001
0100
0000
1100
0000
,
1000
0010
0001
1000
0100
0000
1100
0000
,
0100
1000
0001
0010
1000
0000
1010
0000
,
1000
0010
0001
1000
0100
0000
1100
0000
,
0100
0010
1000
0001
0010
0000
0011
0000
,
1010
0100
0011
0000
0011
0100
1010
0000
,
1010
0100
0011
0000
0011
0100
1010
0000
,
1010
0100
0011
0000
0011
0100
1010
0000
,
1010
0011
1010
0011
,
0101
0010
1100
0000
1100
0010
0101
0000
,
0101
0010
1100
0000
1100
0010
0101
0000
,
0101
0010
1100
0000
1100
0010
0101
0000
,
0101
1100
0101
1100
,
0010
1000
0010
1000
0010
1000
0010
1000
,
0010
0000
1000
0000
0010
0000
1000
0000
0010
0000
1000
0000
0001
1000
0001
1000
,
0001
0100
0001
0100
0001
0100
0001
0100
,
0001
0000
0100
0000
0001
0000
0100
0000
0001
0000
0100
0000
0001
1000
0001
1000
,
0001
1000
0010
1000
0010
1000
0010
1000
,
0010
0000
1000
0000
0010
0000
1000
0000
0010
0000
1000
0000
0001
1000
0001
1000
,
0001
0000
0100
0000
0001
0000
0100
0000
0001
0000
0100
0000
0001
0100
0000
0001
,
2000
0000
0000
0000
,
3001
0010
1000
0000
0001
0010
1000
0000
,
0001
0100
1000
0000
0001
0100
1000
0000
,
0001
0010
1000
0000
0001
0010
1000
0000
,
0001
0100
1000
0000
0001
0100
1000
0000
,
1000
0010
0001
0000
1000
0010
0001
0000
,
1000
0100
0001
0000
1000
0100
0001
0000
,
1000
0010
0001
0000
1000
0010
0001
0000
,
1000
0100
0001
0000
1000
0100
0001
0000
,
0101
0000
0010
1000
0100
0000
0110
0000
,
0011
0000
0010
0100
1000
0000
0110
0000
,
0010
1000
0100
0010
0001
0000
1001
0000
,
0001
0100
0010
1000
0100
0000
1100
0000
,
0110
0000
0010
0001
0100
0000
0110
0000
,
1010
0000
1000
0100
0010
0000
0011
0000
,
0001
0010
0100
1000
0001
0000
0101
0000
,
0001
0100
0010
1000
0100
0000
1100
0000
,
1100
0010
0101
0010
1100
0010
0101
0010
,
1100
0010
0101
0010
1100
0000
0101
0000
,
1010
0001
1100
0001
1010
0001
1100
0001
,
1010
0001
1100
0001
1010
0000
1100
0000
,
2002
0000
0000
0000
,
0000
0000
0000
0000
,
0000
0000
0000
3003
0000
0000
0000
0000
0000
0000
0000
0000
0000
0000
0000
0000
;
#NOTES:
     dance-single:
     Renard:
     Challenge:
     12:
     0.911,1.000,1.000,0.020,0.328:
0000
0000
0000
0000
,
0000
0000
0000
0000
,
0000
0000
0000
0000
,
0000
0000
0000
0000
,
0000
0000
0000
0000
,
0000
0000
0000
0000
,
0000
0000
0000
0000
,
0000
0000
0000
0000
,
1100
0001
1010
0001
1100
0000
0001
0000
,
1010
0001
1100
0001
1010
0000
0001
0000
,
0011
1000
0101
1000
0011
0000
1000
0000
,
0101
1000
0011
1000
0101
0000
1000
0000
,
0101
0010
1100
0010
0101
0000
0010
0000
,
1100
0010
0101
0010
1100
0000
0010
0000
,
1010
0100
0011
0100
1010
0000
0100
0000
,
0011
0100
1010
0100
0011
0000
0000
0000
,
1011
0100
1001
0101
,
0111
0100
1001
1100
,
1110
0100
1010
1001
,
1011
0100
1001
0110
,
1110
0010
1010
0101
,
0111
0100
1010
1001
,
1011
1000
1001
0110
,
0111
0010
1100
0011
,
0001
1000
0001
1000
0001
1000
0001
1000
0001
1000
0001
1000
0001
1000
0001
1000
,
0001
1000
0001
1000
0001
1000
0001
1000
0001
1000
0001
1000
0001
1000
0001
1000
,
0001
1000
0001
1000
0001
1000
0001
1000
0001
1000
0001
1000
0001
1000
0001
1000
,
0001
1000
0001
1000
0001
1000
0001
1000
0001
1000
0001
1000
0001
1000
0001
1000
,
0001
1000
0001
1000
0001
1000
0001
1000
0001
1000
0001
1000
0001
1000
0001
1000
,
0001
1000
0001
1000
0001
1000
0001
1000
0001
1000
0001
1000
0001
1000
0001
1000
,
0001
1000
0001
1000
0001
1000
0001
1000
0001
1000
0001
1000
0001
1000
0001
0000
,
1001
1001
1001
1001
,
1011
0100
1001
0101
,
0111
0100
1001
1100
,
1110
0100
1010
1001
,
1011
0100
1001
0110
,
1110
0010
1010
0101
,
0111
0100
1010
1001
,
1011
1000
1001
0110
,
0111
0010
1100
0011
,
0011
0001
0011
0001
0011
0001
0011
0001
,
0011
0001
0011
0001
0011
0001
0011
0001
,
1100
0100
1100
0100
1100
0100
1100
0100
,
1100
0100
1100
0100
1100
0100
1100
0100
,
1010
0010
1010
0010
1010
0010
1010
0010
,
1010
0010
1010
0010
1010
0010
1010
0010
,
0101
0001
0101
0001
0101
0001
0101
0001
,
0101
0001
0101
0001
0101
0001
0101
0001
,
0100
0010
1000
0100
0010
0001
0100
0010
,
1000
0000
0100
0000
0010
0000
0001
0000
0010
0000
0100
0000
1000
0001
1000
0001
,
1000
0010
0100
0001
0010
0100
1000
0100
,
0010
0000
0001
0000
0100
0000
0010
0000
1000
0000
0100
0000
0010
0001
0010
0001
,
0010
0100
1000
0001
0100
0010
1000
0100
,
0010
0000
0001
0000
0010
0000
0100
0000
1000
0000
0010
0000
0100
0010
0100
0010
,
0100
0010
1000
0100
0010
0001
1000
0010
,
0200
0000
0000
0000
0000
0000
0000
0300
,
1010
0100
1001
0100
,
1010
0100
1011
0100
,
0011
0100
1001
0100
,
0011
0100
1011
0100
,
1010
0100
1001
0100
,
1010
0100
1011
0100
,
0011
0100
1001
0100
,
0011
0000
0100
0000
1011
0000
0000
0001
,
1000
1000
1000
1000
0100
0010
0001
0100
,
0010
0010
0010
0010
1000
0100
0010
0001
,
0100
0100
0100
0100
0010
1000
0100
0010
,
0001
0001
0001
0001
0100
0010
1000
0100
,
0010
0010
0010
0010
0001
0010
0100
1000
,
0001
0001
0001
0001
0100
0010
1000
0100
,
0010
0010
0010
0010
0100
1000
0010
0100
,
0001
0001
0001
0001
0100
0010
1000
0100
,
0010
0000
0001
0000
0010
0000
0001
0000
1000
0000
0100
0000
1000
0000
0100
0100
,
0010
0000
0001
0000
0010
0000
0001
0000
1000
0000
0100
0000
1000
0000
0100
0100
,
1000
0000
0010
0000
1000
0000
0010
0000
0100
0000
0001
0000
0100
0000
0001
0001
,
1000
0000
0010
0000
1000
0000
0010
0000
0100
0000
0001
0000
0100
0000
0001
0001
,
2000
0000
0000
0000
,
0000
0000
0000
0000
,
0000
0000
0000
3000
0000
0000
0000
0000
0000
0000
0000
0000
0000
0000
0000
0000
;
#NOTES:
     dance-single:
     Renard:
     Easy:
     7:
     0.604,0.710,0.858,0.081,0.000:
0000
0000
0000
0000
,
0000
0000
0000
0000
,
0000
0000
0000
0000
,
0000
0000
0000
0000
,
0000
0000
0000
0000
,
0000
0000
0000
0000
,
0000
0000
0000
0000
,
0000
0000
0000
0000
,
0101
0000
1100
0000
,
0101
0000
1100
0000
,
0011
0000
1010
0000
,
0011
0000
1010
0000
,
0101
1100
0101
1100
,
0101
1100
0101
1100
,
0011
1010
0011
1010
,
0011
0000
1010
0000
1001
0000
0000
1000
,
0001
0000
0000
0001
0100
0000
0100
0010
,
1000
0000
0000
1000
0010
0000
0010
0100
,
0001
0000
0000
0001
1000
0000
1000
0100
,
0010
0000
0000
0010
0001
0000
0001
1000
,
0010
0000
0000
0010
0100
0000
0100
0001
,
1000
0000
0000
1000
0100
0000
0100
0010
,
0001
0000
0000
0001
1000
0000
1000
0010
,
0100
0000
0100
0010
0100
0000
0010
0000
,
1000
0010
1000
0010
1000
0000
0010
0000
,
1000
1000
0001
0001
,
0100
0001
0100
0001
0100
0000
0001
0000
,
0010
0010
0001
0001
,
1000
0100
1000
0100
1000
0100
1000
0100
,
0010
0001
0010
0001
0010
0001
0010
0001
,
1000
0001
1000
0001
1000
0001
1000
0001
,
0100
0010
0100
0010
0100
0010
0100
0000
,
0110
0101
1100
0110
,
0101
1100
0110
0101
,
1100
0110
0101
1100
,
0110
0101
1001
0000
,
0110
0011
1010
0110
,
0011
1010
0110
0011
,
1010
0110
0011
0110
,
1010
1001
1001
0000
,
1000
0100
1000
0100
1000
0100
1000
0100
,
1000
0100
1000
0100
1000
0100
1000
0000
,
0001
0010
0001
0010
0001
0010
0001
0010
,
0001
0010
0001
0010
0001
0010
0001
0000
,
1000
0010
1000
0010
1000
0010
1000
0010
,
1000
0010
1000
0010
1000
0010
1000
0000
,
0001
0100
0001
0100
0001
0100
0001
0100
,
0001
0100
0001
0100
0001
0100
0001
0000
,
1000
0100
1000
0100
1000
0000
0100
0000
,
1000
0100
1000
0000
,
0001
0010
0001
0010
0001
0000
0010
0000
,
0001
0010
0001
0000
,
1000
0010
1000
0010
1000
0000
0010
0000
,
1000
0010
1000
0000
,
0001
0100
0001
0100
0001
0100
0001
0000
,
0000
0000
0000
0000
,
1001
0000
1100
0000
,
1001
0000
0101
0000
,
1001
0000
1010
0000
,
1001
0000
0011
0000
,
1001
1100
1001
0101
,
1001
1100
1001
0101
,
1001
1010
1001
0011
,
1001
1010
1001
0011
,
1002
0000
0103
0000
0001
0100
0010
0000
,
1020
0000
0130
0000
0010
1000
0100
0000
,
1200
0000
0010
0300
0010
0001
0010
0000
,
0001
0010
0001
1000
0001
0000
1000
0000
,
1200
0000
1300
0000
1000
0001
1000
0000
,
1002
0000
1003
0000
1000
0001
1000
0000
,
0102
0000
0103
0000
0001
0100
0001
0000
,
1000
0001
1000
0001
1000
0000
1010
0000
,
1000
0000
0010
1000
0010
0000
1000
0000
,
0001
0000
0100
0001
0100
0000
0001
0000
,
1000
0000
0100
1000
0100
0000
1000
0000
,
0001
0000
0010
0001
0010
0000
0001
0000
,
2002
0000
0000
0000
,
0000
0000
0000
0000
,
0000
0000
0000
3003
0000
0000
0000
0000
0000
0000
0000
0000
0000
0000
0000
0000
;
#NOTES:
     dance-single:
     Renard:
     Beginner:
     4:
     0.561,0.710,0.898,0.484,0.000:
0000
0000
0000
0000
,
0000
0000
0000
0000
,
0000
0000
0000
0000
,
0000
0000
0000
0000
,
0000
0000
0000
0000
,
0000
0000
0000
0000
,
0000
0000
0000
0000
,
0000
0000
0000
0000
,
1001
0100
1001
0010
,
1001
0100
1001
0000
,
1001
0010
1001
0100
,
1001
0000
1001
0000
,
0110
1000
0110
0001
,
0110
1000
0110
0000
,
0110
0001
0110
1000
,
0110
0000
0110
0000
,
0020
0000
0130
0100
,
0002
0000
1003
1000
,
0200
0000
0310
0010
,
0002
0000
1003
1000
,
0020
0000
0130
0100
,
0002
0000
1003
1000
,
0200
0000
0310
0010
,
0002
0000
1003
1000
,
0101
1001
0101
0011
,
0101
1001
0101
0011
,
0101
1001
0101
0011
,
0101
1001
0101
0011
,
1001
1010
1001
1100
,
1001
1010
1001
1100
,
1001
1010
1001
1100
,
1001
1010
1001
1100
,
2000
0000
3100
0100
,
0020
0000
0031
0001
,
2000
0000
3010
0010
,
0200
0000
0301
0001
,
2000
0000
3100
0100
,
0020
0000
0031
0001
,
2000
0000
3010
0010
,
0200
0000
0301
0001
,
0101
1100
0101
1100
,
0101
1100
0101
1100
,
0011
1010
0011
1010
,
0011
1010
0011
1010
,
0101
1100
0101
1100
,
0101
1100
0101
1100
,
0011
1010
0011
1010
,
0011
1010
0011
1010
,
0012
0000
0000
0000
,
1003
1000
1000
0010
,
0010
0100
0100
0001
,
0001
1000
1000
0100
,
0100
0010
0010
0001
,
0001
1000
1000
0010
,
0100
0100
0001
1000
,
2002
0000
0000
3003
,
2000
3001
0002
1003
,
2000
3001
1000
0010
,
0020
0130
0100
0020
,
0130
0200
0310
1000
,
2000
3001
0002
1003
,
2000
3001
0002
1003
,
2000
3010
0020
0130
,
0200
0301
0002
0003
,
2000
0000
0001
3001
,
0002
0000
0100
0203
,
0020
0030
0010
0310
,
2020
0030
0010
3010
,
0202
0300
0100
0103
,
2001
0000
0100
3100
,
2020
3000
0100
0130
,
0202
0300
1003
1001
,
0001
1000
0001
1000
0001
1000
0001
1000
,
0001
1000
0001
1000
0001
1000
0001
1000
,
0010
0100
0010
0100
0010
0100
0010
0100
,
0010
0100
0010
0100
0010
0100
0010
0100
,
2002
0000
0000
0000
,
0000
0000
0000
0000
,
0000
0000
0000
3003
0000
0000
0000
0000
0000
0000
0000
0000
0000
0000
0000
0000
;
