#TITLE:Report to the Bassline;
#SUBTITLE:;
#ARTIST:Re-Con;
#TITLETRANSLIT:;
#SUBTITLETRANSLIT:;
#ARTISTTRANSLIT:;
#CRChallenge:;
#BANNER:bass.jpg;
#BACKGROUND:bass-bg.jpg;
#LYRICSPATH:;
#CDTITLE:;
#MUSIC:bass.ogg;
#OFFSET:0.000;
#SAMPLESTART:90.273;
#SAMPLELENGTH:12.000;
#SELECTABLE:YES;
#BPMS:0.000=170.000;
#STOPS:;
#BGCHANGES:;
#NOTES:
     dance-single:
     Renard + BlueChaos:
     Hard:
     12:
     0.880,1.000,0.189,0.148,0.906:
0000
0000
0000
0000
,
0000
0000
0000
0000
,
0000
0000
0000
0000
,
0000
0000
0000
0000
,
0000
0000
0000
0000
M001
01M0
M001
01M0
M000
0000
0000
0000
M001
0M10
M001
0M10
,
M000
0000
0000
0000
M001
0M10
M001
0M10
M000
0000
0000
0000
M001
01M0
M001
01M0
,
M000
0000
0000
0000
M001
01M0
M001
01M0
M000
0000
0000
0000
M010
010M
M010
010M
,
M000
0000
0000
0000
0M10
100M
0M10
100M
0M00
0000
0000
0000
100M
01M0
100M
01M0
,
100M
0000
0000
1000
0000
0000
0001
0000
0010
0000
0001
0000
0000
0000
0001
0000
,
0100
0000
0000
0100
0000
0000
0100
0000
0010
0000
1000
0001
1000
0001
1000
0000
,
0001
0000
0000
0001
0000
0000
0001
0000
0010
0000
0100
0000
0000
0000
0100
0000
,
0010
0000
0000
0010
0000
0000
0010
0000
0001
0000
1000
0100
1000
0100
1000
0000
,
0001
0000
0000
0001
0000
0000
0001
0000
0010
0000
0100
0000
0000
0000
0100
0000
,
1000
0000
0000
1000
0000
0000
1000
0000
0001
0000
0100
0001
0100
0001
0100
0000
,
0010
0000
0000
0010
0000
0000
0010
0000
1000
0000
0001
0000
0000
0000
0100
0000
,
0010
0000
0000
0010
0000
0000
0010
0000
1000
0000
0001
0010
0001
0010
0001
0000
,
1000
0100
1000
0001
0010
0001
1000
0100
0010
0001
0010
0100
1000
0000
0001
1000
,
0001
0010
0001
1000
0100
1000
0001
0010
0100
1000
0100
0010
0001
1000
0001
0000
,
1000
0100
1000
0001
0010
0001
1000
0100
0010
0001
0010
0100
1000
0000
0001
1000
,
0001
0010
0001
1000
0100
1000
0001
0010
0100
1000
0100
0010
0001
1000
0001
0000
,
1000
0010
1000
0001
0100
0001
1000
0010
0100
0001
0100
0010
1000
0000
0001
1000
,
0001
0100
0001
1000
0010
1000
0010
0100
0001
0100
0010
1000
0001
1000
0001
0000
,
1000
0010
1000
0001
0100
0001
1000
0010
0100
0001
1000
0001
1000
0000
0001
0000
,
0010
0100
1000
0200
2000
0000
0011
3300
,
1000
0000
1000
0100
0000
0000
1000
0000
0100
0000
1000
0000
0000
0000
0001
0000
,
0010
0000
0010
0001
0000
0000
0100
0000
0010
0000
1000
0000
0100
0000
0010
0000
,
0001
0000
0001
1000
0000
0000
0010
0000
0100
0000
0001
0000
0000
0000
1000
0000
,
0100
0000
0010
0001
0000
0000
0010
0000
0100
0000
1000
0000
0001
0000
0100
0000
,
0010
0000
0010
1000
0000
0000
0010
0000
0100
0000
0001
0000
0000
0000
0010
0000
,
0100
0000
0100
1000
0000
0000
0001
0000
0100
0000
0010
0000
1000
0000
0100
0000
,
0010
0000
0001
0010
0000
0000
0100
0000
1000
0000
0001
0000
0100
0000
0010
0000
,
1000
0000
1000
0010
0000
0000
0100
0000
0001
0000
0010
0001
0010
0000
0001
0000
,
1000
0000
0010
1000
0000
0000
0010
0000
0100
0000
0001
0000
0011
0000
0000
0000
,
0010
0000
0100
1000
0000
0000
0001
0000
0100
0000
0010
1000
0010
0000
1000
0000
,
0100
0000
0010
0001
0000
0000
0010
0000
0100
0000
1000
0000
1100
0000
0000
0000
,
1000
0000
0001
0100
0000
0000
0010
0000
1000
0000
0100
0000
0010
0000
0001
0000
,
1000
0000
1000
0010
0000
0000
0100
0000
0001
0000
0010
0000
0110
0000
0000
0000
,
0100
0000
0100
1000
0000
0000
0010
0000
0100
0000
0001
0000
0011
0000
0000
0000
,
0100
0000
0100
1000
0000
1000
0001
0000
0100
0000
0010
0000
0110
0000
0010
0000
,
100M
M001
100M
M001
2002
0000
3013
0000
,
2001
0000
0000
0001
0000
0000
3001
0000
0000
010M
0000
0000
0M10
0000
0000
100M
,
0000
0000
M001
0000
0000
001M
0000
0000
01M0
0000
0000
100M
0000
0000
M001
0000
,
0000
01M0
0000
0000
0M10
0000
0000
0000
1M0M
0000
0000
0000
0MM1
0000
0000
0000
,
M01M
01MM
MM10
0MM1
,
1M0M
M01M
01MM
MM10
,
1MM0
M10M
0M1M
M0M1
,
2000
0010
0001
3100
,
0020
0001
1000
0130
,
0001
0000
0000
0100
0010
0000
1000
0000
0100
0000
2000
0000
0000
0000
3010
0000
,
0100
0000
0000
0101
0000
0000
0001
0000
1000
0000
1000
0010
1000
0010
0100
0000
,
0002
0000
0000
0010
0000
0000
2003
0000
0010
0000
3010
0000
0000
0000
0100
0000
,
0101
0000
0000
1001
0000
0000
1000
0000
0001
0000
0010
0100
0010
0100
1000
0000
,
0001
0000
0000
0100
0000
0000
1000
0000
0100
0000
0002
0000
0000
0000
0013
0000
,
0100
0000
0000
1000
0000
0000
0001
0000
0100
0000
0010
1000
0010
1000
0100
0000
,
0010
0000
0000
0010
0000
0000
0001
0000
0100
0000
0010
0000
0000
0000
0100
0000
,
0002
0000
0000
1003
0000
0000
0100
0000
0010
0000
0001
1000
0001
1000
0010
0000
,
1000
0100
1000
0001
1000
0010
1000
0001
1000
0010
0100
0001
0010
0000
0100
1000
,
0100
0010
0001
0010
0100
1000
0001
1000
0010
0100
0001
0100
0010
1000
0100
1000
,
0010
0100
0001
0100
0010
1000
0100
0010
0001
0010
0100
1000
0010
0000
0100
0001
,
0100
0010
1000
0100
1000
0010
0100
0001
0010
0100
1000
0010
0100
0001
0010
0000
,
0100
1000
0001
1000
0010
0100
0001
0100
0010
1000
0100
0010
0001
0000
0100
0010
,
0100
0001
1000
0001
0010
0100
0010
0001
1000
0010
0100
0001
1000
0100
0010
0001
,
0010
0100
1000
0001
0100
0010
1000
0001
0100
0010
0100
0001
0010
0100
1000
0100
,
0010
0001
1001
1000
2200
0000
0001
3300
,
1100
0000
1000
0010
0100
0000
0001
0000
1000
0000
1000
0000
0100
0010
0001
0010
,
0100
0000
1000
0001
0100
0000
0010
0000
1000
0000
0001
0100
0010
1000
0100
0000
,
1100
0000
0100
1000
0010
0000
0100
0000
0001
0000
0001
0000
1000
0100
0010
0001
,
0100
0000
0010
1000
0010
0000
0100
0000
0001
0000
0010
0100
1000
0001
0100
0000
,
0101
0000
0001
0100
0010
0000
1000
0000
0001
0000
0100
0000
0010
1000
0100
1000
,
0001
0000
1000
0100
0010
0000
0001
0000
0100
0000
0010
1000
0010
0100
0001
0000
,
1000
0000
0001
0010
0100
0000
0010
0000
0001
0100
0010
1000
0100
0000
1000
0000
,
1100
1100
0011
0011
0202
0000
1000
0303
,
0101
0000
0001
0100
0010
0100
0001
0010
0100
1000
0001
0000
1000
0010
0100
0000
,
0001
0010
0100
0010
0001
1000
0010
0000
0100
0000
0001
0100
0010
1000
0100
0000
,
0010
0000
0001
0100
0010
0000
0100
0000
0010
1000
0100
0000
1000
0000
0010
0000
,
0100
0001
0010
0000
0100
0000
1000
0010
0100
0000
0010
0100
0001
0010
0100
0000
,
1000
0000
1000
0100
1000
0000
0010
0000
0010
0100
0010
0000
1000
0000
0001
0010
,
0100
0000
1000
0100
0010
0000
0001
0100
0010
0000
1000
0010
0100
0001
0010
0000
,
0100
0000
1000
0100
0010
0000
0001
0100
0010
0100
0001
0000
1000
0100
0010
0000
,
0001
0001
1000
1000
0020
0000
0200
0000
,
1331
0000
0000
0000
;
#NOTES:
     dance-single:
     Renard:
     Medium:
     9:
     0.597,0.626,0.189,0.091,0.235:
0000
0000
0000
0000
,
0000
0000
0000
0000
,
0000
0000
0000
0000
,
0000
0000
0000
0000
,
1000
0000
0001
0001
0100
0000
0010
0010
,
1000
0000
0100
0100
0010
0000
0001
0001
,
0100
0000
0010
0010
1000
0000
0100
0100
,
0010
0000
0001
0001
1000
0000
0010
0010
,
0100
0000
0000
0010
0000
0000
1000
0000
0100
0000
0010
0000
0000
0000
0001
0000
,
0010
0000
0000
0100
0000
0000
1000
0000
0001
0000
0100
0000
0010
0000
1000
0000
,
0100
0000
0000
0010
0000
0000
0001
0000
0010
0000
0100
0000
0000
0000
1000
0000
,
0001
0000
0000
0100
0000
0000
0010
0000
1000
0000
0010
0000
0100
0000
0001
0000
,
0010
0000
0000
0001
0000
0000
1000
0000
0100
0000
0010
0000
0000
0000
0001
0000
,
0010
0000
0000
0100
0000
0000
1000
0000
0010
0000
0100
0000
0001
0000
0100
0000
,
0010
0000
0000
1000
0000
0000
0100
0000
0010
0000
0001
0000
0000
0000
0010
0000
,
0100
0000
0000
1000
0000
0000
0001
0000
0100
0000
0010
0000
1000
0000
0100
0000
,
0010
0000
0000
0001
0000
0000
0010
0000
0100
0000
1000
0000
0000
0000
0001
0000
,
0010
0000
0000
0100
0000
0000
1000
0000
0100
0000
0010
0000
0001
0000
1000
0000
,
0010
0000
0000
0100
0000
0000
0001
0000
0100
0000
0010
0000
0000
0000
1000
0000
,
0010
0000
0000
0100
0000
0000
0001
0000
1000
0000
0100
0000
0010
0000
0001
0000
,
0010
0000
0000
0100
0000
0000
1000
0000
0001
0000
0010
0000
0000
0000
0001
0000
,
1000
0000
0000
0010
0000
0000
0100
0000
0001
0000
0100
0000
0010
0000
1000
0000
,
0001
0000
0000
0010
0000
0000
0100
0000
1000
0000
0001
0000
1000
0000
0100
0000
,
1000
0001
2200
3311
,
1000
0000
1100
0000
0010
0001
0100
0000
,
0100
0000
0110
0000
0010
1000
0100
0000
,
0010
0000
0011
0000
0010
0100
1000
0000
,
0010
0110
0100
0101
,
0001
0000
0011
0000
0010
0100
1000
0000
,
0010
0000
0110
0000
0100
0001
0010
0000
,
0100
0000
0110
0000
0100
1000
0010
0000
,
0001
0010
1000
0000
1000
0100
0001
0000
,
0100
0000
0101
0000
0100
1000
0010
0000
,
0100
0000
0110
0000
0100
0001
0100
1000
,
0100
0000
0101
0000
0100
0001
0010
0000
,
0010
0000
0110
0000
0100
1000
0100
0001
,
0100
0000
1100
0000
1000
0010
0001
0000
,
0001
0000
0011
0000
0010
0100
1000
0100
,
0001
0000
0101
0000
0001
1000
0100
0000
,
1000
1000
0100
0100
2200
0000
3311
0000
,
1000
0000
0000
0001
0000
0000
0100
0000
0000
0010
0000
0000
1000
0000
0000
0100
,
0000
0000
0010
0000
0000
0001
0000
0000
0010
0000
0000
0100
0000
0000
1000
0000
,
0001
0100
0010
1000
,
0100
0010
0001
1000
,
0100
0000
1000
1000
0001
0000
0100
0100
,
0010
0000
1000
1000
0001
0000
0010
0010
,
0001
0000
1000
1000
0010
0000
0100
0100
,
0001
0000
0010
0010
0001
0000
1000
1000
,
0100
0000
0000
0100
0000
0000
0100
0000
0100
0000
0100
0000
0000
0000
0010
0000
,
0010
0000
0000
0010
0000
0000
0010
0000
0010
0000
0010
0000
0010
0000
0000
0000
,
0001
0000
0000
0001
0000
0000
0001
0000
0001
0000
0001
0000
0000
0000
1000
0000
,
1000
0000
0000
1000
0000
0000
1000
0000
1000
0000
1000
0000
1000
0000
0000
0000
,
0010
0000
0000
0010
0000
0000
0010
0000
0010
0000
0010
0000
0000
0000
0100
0000
,
0100
0000
0000
0100
0000
0000
0100
0000
0100
0000
0100
0000
0100
0000
0000
0000
,
0001
0000
0000
0001
0000
0000
0001
0000
0001
0000
0001
0000
0000
0000
0010
0000
,
0010
0000
0000
0010
0000
0000
0010
0000
0010
0000
0010
0000
0010
0000
0010
0000
,
0100
0000
1000
0000
0001
0000
0010
0000
0001
0010
0001
0010
0001
0000
0000
0000
,
0010
0000
0100
0000
1000
0000
0001
0000
1000
0100
1000
0100
1000
0000
0000
0000
,
0001
0000
0010
0000
0100
0000
1000
0000
0001
0010
0001
0010
0001
0000
0000
0000
,
0001
0000
0010
0000
0100
0000
1000
0000
0100
1000
0100
1000
0100
0000
0000
0000
,
1000
0000
0100
0000
0010
0000
0001
0000
0010
0001
0010
0001
0010
0000
0000
0000
,
0001
0000
0100
0000
0010
0000
1000
0000
0010
1000
0010
1000
0010
0000
0000
0000
,
1000
0000
0010
0000
0100
0000
0001
0000
0100
0001
0100
0001
0100
0000
0000
0000
,
0002
0013
2200
3311
,
1000
0000
0000
0001
0000
0000
0100
0000
1000
0000
0100
0000
0000
0000
0001
0000
,
0010
0000
0000
1000
0000
0000
0010
0000
0001
0000
0100
0000
1000
0000
0100
0000
,
0001
0000
0000
0010
0000
0000
1000
0000
0010
0000
0001
0000
0000
0000
0100
0000
,
1000
0000
0000
0100
0000
0000
0001
0000
0010
0000
1000
0000
0010
0000
0001
0000
,
0100
0000
0000
1000
0000
0000
0100
0000
0001
0000
0010
0000
0000
0000
1000
0000
,
0010
0000
0000
0001
0000
0000
0100
0000
1000
0000
0100
0000
0001
0000
0010
0000
,
1000
0000
0000
0010
0000
0000
0001
0000
0100
0000
1000
0000
0000
0000
0100
0000
,
0001
0000
0000
0010
0000
0000
1000
0000
0010
0000
0001
0000
0100
0000
0010
0000
,
1000
0000
0000
0100
0000
0000
0001
0000
0100
0000
1000
0000
0000
0000
0010
0000
,
0001
0000
0000
0010
0000
0000
1000
0000
0100
0000
0001
0000
0100
0000
1000
0000
,
0010
0000
0000
0001
0000
0000
0010
0000
1000
0000
0100
0000
0000
0000
0001
0000
,
0100
0000
0000
1000
0000
0000
0010
0000
0001
0000
0010
0000
1000
0000
0100
0000
,
0001
0000
0000
0100
0000
0000
1000
0000
0010
0000
0001
0000
0000
0000
0010
0000
,
1000
0000
0000
0100
0000
0000
0001
0000
0100
0000
1000
0000
0010
0000
0001
0000
,
0010
0000
0000
1000
0000
0000
0100
0000
0001
0000
0100
0000
0000
0000
1000
0000
,
0010
0010
1000
1000
2200
0000
0322
0000
,
3133
0000
0000
0000
;
#NOTES:
     dance-single:
     Renard:
     Easy:
     6:
     0.425,0.560,0.132,0.066,0.000:
0000
0000
0000
0000
,
0000
0000
0000
0000
,
0000
0000
0000
0000
,
0000
0000
0000
0000
,
0000
0000
0000
0000
,
0000
0000
0000
0000
,
0000
0000
0000
0000
,
0000
0000
0000
0000
,
1000
1000
1000
0000
,
0001
0000
0001
0000
0100
0010
0100
0000
,
0010
0010
0010
0000
,
0100
0000
0100
0000
0001
1000
0001
0000
,
1000
1000
0100
0100
,
0010
0000
0010
0000
0001
0010
0001
0010
,
0001
0001
0010
0010
,
0100
0000
0100
0000
1000
0100
1000
0000
,
0001
1000
0001
1000
0001
1000
0001
0000
,
0100
0010
0100
0010
0100
0010
0100
0000
,
0001
1000
0001
1000
0001
1000
0001
0000
,
0100
0010
0100
0010
0100
0010
0100
0000
,
0001
1000
0001
1000
0001
1000
0001
0000
,
0100
0010
0100
0010
0100
0010
0100
0000
,
0001
1000
0001
1000
0001
0000
1000
0000
,
0002
0000
0200
0313
,
0000
0000
0101
0000
0001
0100
0001
0000
,
0000
0000
0101
0000
0001
0100
0001
0000
,
0000
0000
1100
0000
1000
0100
1000
0000
,
0000
0000
1100
0000
0100
1000
0100
0000
,
0000
0000
1001
0000
1000
0001
1000
0000
,
0000
0000
1001
0000
0001
1000
0001
0000
,
0000
0000
0110
0000
0010
0100
0010
0000
,
0000
0000
0110
0000
0100
0010
0100
0000
,
0010
0000
0010
0000
1000
0010
0000
0000
,
0100
0000
0100
0000
0001
0000
0010
0001
,
0010
0000
0010
0000
0100
1000
0000
0000
,
0001
0000
0001
0000
0100
0010
0100
0000
,
0010
0000
0010
0000
1000
0001
0000
0000
,
1000
0000
1000
0000
0100
0010
0100
0000
,
0010
0000
0010
0000
0001
1000
0000
0000
,
0001
0100
0010
1000
,
0002
0000
0000
0000
,
1000
1000
1000
1000
,
0100
0100
0100
0100
,
0010
0010
0010
0010
,
1000
1000
0100
0100
,
0010
0010
0100
0100
,
1000
1000
0010
0010
,
0100
0100
1000
1003
,
0001
0000
0001
0000
1000
0100
0000
0000
,
1000
0000
1000
0000
0001
0100
0001
0000
,
1000
0000
1000
0000
0001
0010
0000
0000
,
0001
0000
0001
0000
1000
0100
1000
0000
,
0001
0000
0001
0000
0010
0001
0000
0000
,
1000
0000
1000
0000
0010
0100
0010
0000
,
0100
0000
0100
0000
0001
1000
0100
0000
,
1000
0000
1000
0000
0001
0010
0001
0000
,
1000
0000
1000
0000
0100
1000
0100
0000
,
1000
0000
1000
0000
0100
1000
0100
0000
,
0010
0000
0010
0000
0001
0010
0001
0000
,
0010
0000
0010
0000
0001
0010
0001
0000
,
0100
0001
0100
0001
0100
0001
0100
0001
,
0100
0001
0100
0001
0100
0001
0100
0001
,
0100
0001
0100
0001
0100
0001
0100
0001
,
0100
0002
0200
0313
,
0000
1001
1000
0100
,
0010
0000
0011
0000
0010
0100
0010
0000
,
0100
1100
1000
1001
,
0001
0100
0001
0000
1000
0000
0000
0000
,
0000
0000
1001
0000
0001
0010
0001
0000
,
1000
0000
1100
0000
1000
0001
1000
0000
,
0001
0101
0001
0011
,
0010
0000
0100
0000
1000
0100
1000
0000
,
0001
0000
0001
0000
0100
0010
0000
0000
,
1000
0000
1000
0000
0010
0100
0010
0000
,
0100
0000
0100
0000
0001
0010
0000
0000
,
0100
0000
0100
0000
1000
0001
1000
0000
,
0001
0000
0001
0000
0100
0010
0000
0000
,
1000
0000
1000
0000
0001
0010
0001
0000
,
1000
0000
1000
0000
0001
1000
0000
0000
,
0010
0200
0002
2000
,
3313
0000
0000
0000
;
#NOTES:
     dance-single:
     Renard:
     Beginner:
     3:
     0.266,0.330,0.041,0.016,0.000:
0000
0000
0000
0000
,
0000
0000
0000
0000
,
0000
0000
0000
0000
,
0000
0000
0000
0000
,
0000
1000
0000
0001
,
0000
1000
0000
0001
,
0000
1000
0000
0001
,
0000
1000
0000
0001
,
0100
0100
0100
0000
,
0010
0010
0010
0010
,
0100
0100
0100
0000
,
0010
0010
0010
0010
,
1000
1000
1000
0000
,
0001
0001
0001
0001
,
1000
1000
1000
0000
,
0001
0001
0001
0001
,
1000
1000
1000
0000
,
0100
0100
0100
0000
,
0010
0010
0010
0000
,
0001
0001
0001
0000
,
1000
1000
1000
0000
,
0010
0010
0010
0000
,
0100
0100
0100
0000
,
0002
0000
0000
0103
,
0001
0100
0001
0000
,
1000
0000
0001
0000
,
1000
0100
1000
0000
,
0001
0000
1000
0000
,
0001
0100
0001
0000
,
1000
0000
0001
0000
,
1000
0100
1000
0000
,
0001
0000
1000
0000
,
0001
0100
0001
0000
,
0010
0000
0001
0000
,
1000
0100
1000
0000
,
0010
0000
1000
0000
,
0001
0010
0001
0000
,
0100
0000
0001
0000
,
1000
0010
1000
0000
,
0100
0000
1000
0100
,
2000
0000
0000
0000
,
0000
0000
0000
0000
,
0100
0000
0100
0000
,
0100
0000
0100
0000
,
3100
0100
0000
0100
,
0010
0010
0000
0010
,
0100
0100
0000
0100
,
0010
0010
0010
0010
,
0001
0001
0001
0000
,
1000
1000
1000
0000
,
0001
0001
0001
0000
,
1000
1000
1000
0000
,
0001
0001
0001
0000
,
1000
1000
1000
0000
,
0001
0001
0001
0000
,
1000
0001
1000
0001
,
0100
0100
0100
0100
,
0000
0100
0100
0100
,
0010
0010
0010
0010
,
0000
0010
0010
0010
,
1000
1000
1000
1000
,
1000
1000
1000
1000
,
0001
0001
0001
0001
,
0001
1000
0001
1001
,
1000
0000
0100
1000
,
0100
0000
0000
0010
,
0001
0000
0010
0001
,
0010
0000
0000
0001
,
0100
0000
0001
0100
,
0101
0000
0000
0100
,
0010
0000
1000
0010
,
1010
0000
0000
1100
,
1000
0000
0100
1000
,
0100
0000
1000
0001
,
0010
0000
0001
0010
,
0001
0000
1000
0001
,
0010
0000
0100
1000
,
0100
0000
1000
0001
,
1000
0000
0001
0100
,
0001
0001
1000
0100
,
1100
0000
0000
0000
;
