#TITLE:Relation;
#SUBTITLE:;
#ARTIST:Nonstop;
#TITLETRANSLIT:;
#SUBTITLETRANSLIT:;
#ARTISTTRANSLIT:;
#CRChallenge:;
#BANNER:relation.png;
#BACKGROUND:Relation-bg.png;
#LYRICSPATH:;
#CDTITLE:;
#MUSIC:relation.ogg;
#OFFSET:0.000;
#SAMPLESTART:58.606;
#SAMPLELENGTH:12.000;
#SELECTABLE:YES;
#BPMS:0.000=131.000,256.000=190.000,712.000=155.000,944.000=175.000;
#STOPS:;
#BGCHANGES:;
#NOTES:
     dance-single:
     Nonstop:
     Challenge:
     10:
     0.543,0.581,0.160,0.000,0.000:
0000
0000
0000
0000
,
0000
0000
0000
0000
,
0000
0000
0000
0000
,
0000
0000
0000
0000
,
0000
0000
0000
0000
,
0000
0000
0000
0000
,
0000
0000
0000
0000
,
0000
0000
0000
0000
,
1000
0000
0100
1000
,
0001
0000
0010
0001
,
1000
0000
0010
1000
,
0001
0100
0010
1000
0100
0010
0001
1000
,
0001
0000
0100
0001
,
1000
0000
0100
1000
,
0001
0001
1000
1000
,
0001
1000
0001
1000
0001
1000
1000
1000
,
0001
0100
1000
0000
1000
0100
0001
0000
,
0001
0010
1000
0000
1000
0010
0001
0000
,
0001
0100
0010
1000
0100
0010
0001
0100
,
0010
1000
0100
0010
0001
0100
0010
1000
,
0100
0000
0100
0001
0100
0000
0100
1000
,
0010
0001
0010
1000
0100
0001
0100
1000
,
0001
0000
0001
0100
0010
0000
0010
1000
,
0100
0010
0001
0010
0100
1000
0001
0100
,
0010
0000
0110
0000
0010
1000
0100
0010
,
0100
0000
0110
0000
0010
0001
0100
0010
,
0100
0000
0110
0000
0010
1000
0100
0010
,
0100
1000
0010
0100
0010
1000
0100
0010
,
0100
0000
0110
0000
0010
0001
0100
0010
,
0110
0000
0010
0100
0001
0010
0100
0010
,
0110
0000
0010
0001
0100
0010
0100
0001
,
0010
0100
0010
0001
0100
0010
1000
0100
,
0010
0010
0001
0001
1000
0000
0010
0000
,
0100
0000
0001
0010
0010
0100
0100
1000
,
1000
0010
0100
0001
,
1000
0100
0010
0001
,
1000
1000
0010
0010
0100
0000
0001
0000
,
1000
0000
0100
0010
0010
0001
0001
1000
,
1000
0010
0100
0001
,
1000
0001
1000
0001
1000
0001
0001
0001
,
1000
0100
1000
0100
1000
0010
1000
0010
,
1000
0100
1000
0010
1000
0001
1000
0010
,
1000
0001
1000
0001
0100
0001
0100
0001
,
0010
0001
1000
0001
0100
0001
0010
0001
,
0100
0001
0100
0001
0100
1000
0100
1000
,
0100
0010
0100
1000
0100
0001
0100
0010
,
0100
0001
0010
0001
0010
0100
0010
0100
,
0010
1000
0010
0001
0010
1000
0010
0100
,
1000
0100
1000
0000
0010
1000
0010
0000
,
0100
0001
0100
0000
0001
0010
0001
0000
,
1000
0010
1000
0000
0100
1000
0100
0000
,
1000
0001
1000
0000
0001
0010
0001
0100
,
0001
1000
0001
0000
1000
0100
1000
0000
,
1000
0010
1000
0000
0001
0100
0001
0000
,
0001
0010
0100
1000
0010
0100
0001
0010
,
0100
1000
0001
1000
0001
1000
0001
1000
,
0001
0000
1000
0000
0010
0000
1000
0001
,
0100
0000
0010
0000
1000
0100
0010
0001
,
1000
0010
0100
0001
,
1000
0100
1000
0000
0001
0100
0010
0000
,
1000
0100
0010
0001
1000
0000
0001
0000
,
1000
0000
0001
0010
0010
0100
0100
1000
,
1000
0010
1000
0001
,
0100
0010
1000
0100
0010
0001
0100
0010
,
0110
0000
0000
0000
,
0010
1000
0100
0010
0001
0100
0010
1000
,
0100
0010
0100
1000
0010
0100
0001
0010
,
0100
0010
0001
0100
0010
1000
0100
0010
,
0100
1000
0010
0100
0001
0010
0100
0010
,
0001
0100
0010
1000
0100
0010
0100
1000
,
0010
0100
0001
0010
0100
0010
0001
0100
,
0010
1000
0100
0010
0100
1000
0010
0100
,
0001
1000
0001
1000
0001
0000
1000
0000
,
0010
0000
0110
0000
0010
0100
0001
0010
,
0100
0000
0110
0000
0100
1000
0010
0100
,
0001
0000
0101
0000
0001
0100
0010
1000
,
0100
0000
1100
0000
1000
0010
0100
0001
,
0010
0000
0011
0000
0010
0100
1000
0001
,
0100
0000
0101
0000
0100
0010
1000
0100
,
0010
0000
0110
0000
0010
0001
0100
0010
,
1000
0000
1010
0000
1000
0010
0100
0000
,
0001
0100
0001
0100
0010
0100
0010
0100
,
0001
0100
0010
0100
1000
0100
0010
0100
,
0001
0010
0001
0010
0100
0010
0100
0010
,
0001
0010
0100
0010
1000
0010
0100
0010
,
0001
1000
0001
1000
0010
1000
0010
1000
,
0001
1000
0010
1000
0100
1000
0010
1000
,
0001
1000
0001
1000
0001
0100
0001
0100
,
0001
0010
0001
1000
0001
0100
0001
1000
,
0100
0010
0001
0010
0100
1000
0001
0100
,
0000
0000
0001
1000
0100
0000
0010
0000
,
0001
0010
0100
1000
0001
0100
0010
1000
,
0000
0000
0010
0000
1000
0100
0010
0000
,
0001
0010
0100
1000
0001
0100
0010
1000
,
0000
0000
0010
1000
0100
0010
0001
0000
,
0010
0100
1000
0001
0100
0010
1000
0100
,
0010
0001
0010
0100
1000
0001
0100
0010
,
1000
0000
0001
0010
,
0010
1000
0010
0000
0100
0001
0100
0000
,
0001
0010
0001
0000
1000
0100
1000
0000
,
0001
0100
0001
0000
1000
0010
1000
0000
,
0100
1000
0100
0000
1000
0001
1000
0000
,
0001
0100
0001
0100
0010
0100
0010
0100
,
0010
1000
0010
1000
0100
1000
0100
1000
,
0001
0010
0001
0010
0001
0100
0001
0100
,
0001
0001
1000
1000
0001
0001
1000
1000
,
0001
0100
0001
0000
0100
0010
0100
0000
,
0010
1000
0010
0000
1000
0100
1000
0000
,
0001
0010
0001
0000
1000
0010
1000
0000
,
0001
0100
0001
0000
0100
0010
0100
0000
,
0010
1000
0100
0000
1000
0100
0010
0000
,
0001
0100
0010
0000
0100
0001
0010
0000
,
0100
1000
0001
0100
0010
1000
0100
0010
,
0001
1001
0110
1001
,
0001
0000
0100
0000
0010
1000
0100
0010
,
0000
0000
0000
0000
,
0010
0000
0001
0010
0100
1000
0001
0100
,
0000
0000
0010
0100
0010
0100
0000
0000
,
0010
0000
1000
0000
0100
0010
0001
1000
,
0000
0000
0000
0000
0000
0001
0000
0000
,
1000
0000
0100
0000
0010
0001
1000
0001
,
0000
1010
0101
1100
,
1001
0000
0101
0000
0001
0100
0010
0000
,
1010
0000
1001
0000
1000
0100
0010
0000
,
0011
0000
1001
0000
0001
0100
0010
0000
,
1010
1001
1100
1001
,
1001
0000
0101
0000
0001
0100
0010
0000
,
0101
0000
0011
0000
0001
0010
0100
1000
,
0010
0000
1001
0000
1000
0100
1000
0000
,
0001
0000
1000
1000
,
0001
0000
0100
0010
1000
0100
0010
0001
,
0000
0001
0010
0100
1000
0000
0001
0000
,
0100
0000
0100
0000
0010
1000
0100
1000
,
0010
0000
1000
0000
0100
0000
0010
0001
,
0010
0000
0001
0000
0100
0010
1000
0100
,
0010
0100
0010
0100
0010
0001
0010
0000
,
0001
0000
0010
0000
0100
1000
0001
0100
,
0000
0100
0010
1000
0100
0010
0001
0000
,
1000
0000
0000
0000
,
0000
0000
0000
0000
,
0001
0000
0000
0000
,
0001
0000
0000
0000
,
0010
0000
0000
0000
1000
0000
0001
1000
,
0001
0000
1000
0001
1000
0000
0001
0000
,
1000
0000
1000
0000
0001
1000
0001
1000
,
0001
0000
0001
0000
1000
0001
1000
0000
,
0001
0000
0000
0000
0100
0010
1000
0100
,
0010
0000
0100
1000
0001
0100
0010
1000
,
0100
0000
1000
0000
0001
0100
0010
1000
,
0100
0000
1000
0001
0010
0100
1000
0000
,
0001
0000
1000
0000
0100
0010
0001
0010
,
0100
0000
1000
0001
0100
0010
1000
0000
,
0100
0000
0010
0000
0001
0010
0100
1000
,
0001
0000
1000
0000
0001
0100
0010
0000
,
1000
0000
0000
0000
0010
1000
0100
0010
,
0001
0000
0010
0000
0100
1000
0001
0000
,
0100
0000
0000
0000
0001
0010
0100
1000
,
0001
0000
0100
0010
1000
0001
0010
0000
,
0001
0000
0000
0000
1000
0010
0100
0001
,
0010
0000
0001
1000
0010
0100
0001
0010
,
0100
0000
0000
0000
1000
0010
0100
0001
,
0010
0000
0001
1000
0010
0100
0001
0000
,
1001
0000
0000
0000
,
0000
0000
0000
0000
,
0100
0000
0000
0000
,
0010
0000
0000
0000
,
0001
0000
0000
0000
,
1000
0000
0000
0000
,
0100
0000
0100
0000
,
0010
0000
0100
0000
,
0010
0000
0000
0000
,
1000
0000
0000
0000
,
0001
0000
0000
0000
,
0000
0000
0100
0000
,
0100
0000
0000
0000
,
0000
0000
0000
0000
,
0000
0000
0000
0000
,
0000
0000
0000
0000
,
0001
1000
0001
1000
,
0100
1000
0100
1000
,
0001
1000
0001
1000
,
0001
0000
0100
0000
,
0010
0000
0000
0000
,
1000
0000
0010
0000
,
0100
0000
0001
0000
,
1000
0100
0010
0000
,
0001
0000
0000
0000
,
1000
0000
0001
0000
,
0100
0000
0000
0000
,
0010
0000
0000
0000
,
1000
0000
0000
0000
,
0001
0000
0100
0000
,
0010
0000
0000
0000
,
1000
0000
0000
0000
,
0001
0000
0001
0000
0001
0000
0001
0010
,
0100
0000
0100
0000
0100
0000
0100
1000
,
0010
0000
0010
0000
0010
0000
0010
0100
,
0001
0000
0001
0010
0100
0000
0100
1000
,
0001
0000
0001
0000
0001
0000
0100
0010
,
1000
0000
1000
0000
1000
0000
0010
0100
,
0001
1000
0000
0001
0100
0000
0110
0000
,
0010
0000
1000
0000
0100
0010
0001
0000
,
1000
0100
1000
0000
0001
0010
0001
0000
,
1000
0010
0100
0001
0010
0100
1000
0000
,
0010
1000
0010
0000
0100
0001
0100
0000
,
0001
0010
1000
0010
0100
1000
0010
0000
,
0100
1000
0100
0000
0001
0100
0001
0000
,
0010
0100
0001
0100
1000
0010
0100
0000
,
1000
0100
0010
0000
1000
0010
0100
0000
,
0001
0010
0100
0000
0001
0100
0010
0000
,
0001
0010
0100
1000
0010
0100
0010
0000
,
1000
0010
0100
0001
0010
0100
1000
0000
,
0001
0100
0001
0000
1000
0100
1000
0000
,
0001
0010
0100
1000
0001
0100
0010
0000
,
1000
0000
0100
0000
1000
0001
0100
0000
,
0010
0000
1000
0000
0001
0100
0010
0000
,
1000
0010
0000
0100
0001
0000
1001
0000
,
0001
0000
0100
0010
1000
0100
0010
0000
,
0001
0000
0011
0000
0010
0100
1000
0001
,
0100
0000
0101
0000
0100
0010
1000
0100
,
1000
0000
1100
0000
1000
0100
0010
0001
,
0100
0000
0101
0000
0100
0010
1000
0100
,
1000
0000
1100
0000
1000
0100
0010
0001
,
0100
0000
0101
0000
0100
0001
0010
0100
,
1000
0100
0000
1000
0001
0000
0100
0001
,
1000
0100
0000
0010
0001
1000
0010
0000
,
0100
0000
0001
0000
1000
0100
0010
0001
,
0100
0000
0001
0010
0100
1000
0001
0000
,
0100
0000
0010
1000
0100
1000
0010
0000
,
0100
0000
0001
0010
0100
0000
1000
0010
,
0100
0000
0000
0000
0001
1000
0100
0010
,
0001
0010
0100
1000
0001
0100
0010
1000
,
0100
1000
0100
1000
0001
1000
0001
1000
,
0001
0100
0010
1000
0100
0010
0001
1000
,
0001
0000
0000
0000
,
0000
0000
0000
0000
,
1001
0000
0000
0001
,
0001
0000
0000
1000
,
1000
0000
0000
0001
,
0001
0000
0000
1000
,
1000
0000
0000
0001
,
0001
0000
0000
1000
,
1000
0000
0000
0001
0001
0000
0000
1000
,
1000
0000
0001
0100
,
0010
0000
0000
1000
,
1000
0000
0000
0001
,
0001
0000
0000
0100
,
0100
0000
0000
0010
,
0010
1000
0100
0010
,
0001
0010
0100
1000
,
0100
0010
0001
0010
0100
1000
0001
0010
,
0100
1000
0100
0010
0001
0010
0100
1000
,
0001
1001
1000
1001
,
0001
1001
1000
1001
,
0001
1001
1000
1001
,
0001
1001
1000
1001
,
0001
0100
0001
0100
1000
0100
1000
0100
,
0001
0010
0001
0010
1000
0010
1000
0010
,
0001
0010
0100
1000
0001
0100
0010
1000
,
0100
0010
0001
0010
0100
0100
0100
0100
,
1000
0010
0001
0000
0010
1000
0100
0000
,
0001
0100
1000
0000
0010
0100
1000
0100
,
0001
0010
0100
0001
0100
1000
0010
0100
,
1000
0100
0010
1000
0100
0001
0100
0010
,
0001
0000
0010
0100
1000
0000
0010
0100
,
1000
0000
0100
0001
0010
0000
0100
0001
,
0100
1000
0010
0100
1000
0100
0010
1000
,
0100
0001
0100
0010
0001
0010
1000
0010
,
0100
0000
0100
0001
0100
0000
0100
1000
,
0010
0000
0010
0100
1000
0000
1000
0100
,
0001
0010
0100
0001
0100
1000
0010
0100
,
1000
0100
0010
0100
0001
0010
0100
0001
,
0100
0000
0100
1000
0010
0000
0010
0100
,
1000
0000
1000
0100
0001
0000
0001
0010
,
0100
1000
0010
0100
1000
0100
0001
0010
,
0100
0000
0000
0000
,
0100
1000
0010
0000
0010
0100
1000
0000
,
1000
0100
0001
0000
0001
0010
0100
0000
,
0100
0001
0100
0001
0100
0001
0100
0001
,
0100
1000
0100
1000
0100
1000
0100
1000
,
0010
1000
0010
0000
0100
0001
0100
0000
,
0001
0010
0001
0000
1000
0100
1000
0000
,
0001
0100
0010
1000
0100
0010
0001
0010
,
0100
1000
0001
0100
0010
0010
0010
0010
,
1000
0000
1100
0000
1000
0100
0010
0001
,
0100
0000
0101
0000
0001
0100
0010
1000
,
0100
0001
0100
0001
0100
1000
0100
1000
,
0010
1000
0010
0001
0010
1000
0100
0001
,
0100
0000
0101
0000
0100
1000
0010
0100
,
1000
0000
1100
0000
0100
0010
0100
0001
,
0010
0000
0011
0000
0010
0100
1000
0010
,
1000
0000
1010
0000
1000
0010
0100
0001
,
0010
0000
0011
0000
0010
0100
0001
0100
,
1000
0000
1100
0000
1000
0010
0100
1000
,
0100
0000
0101
0000
0100
0010
1000
0100
,
0001
0000
0101
0000
0100
1000
0010
0100
,
1000
0000
1100
0000
0100
0010
1000
0100
,
0001
0000
0101
0000
0100
1000
0010
0100
,
0001
0000
0011
0000
0010
0100
1000
0010
,
1000
0000
0000
1001
,
0001
0100
0010
0100
1000
0100
0010
0100
,
0001
0010
0100
0010
1000
0010
0100
0010
,
0001
1000
0010
1000
0100
1000
0001
1000
,
0001
0100
0001
0010
0001
1000
0001
0100
,
0010
1000
0010
1000
0100
0010
0100
0010
,
0001
0010
0001
0010
0001
0100
0001
0100
,
0010
1000
0100
0001
0100
1000
0010
0001
,
0010
0100
1000
0100
0001
0001
0001
0001
,
1000
0000
1100
0000
0010
0001
0100
0010
,
1000
0000
1010
0000
0010
1000
0100
0010
,
0001
0101
0100
0110
,
0010
1000
0100
0010
0001
0010
0100
1000
,
0001
0000
0101
0000
0100
0010
1000
0100
,
0010
0000
0110
0000
0010
0001
0100
0010
,
1000
0010
1000
0001
0100
0001
0100
0010
,
1000
0100
0010
0001
0010
0100
1000
0000
;
