#TITLE:Reasons to Live;
#SUBTITLE:;
#ARTIST:Dragonforce;
#TITLETRANSLIT:;
#SUBTITLETRANSLIT:;
#ARTISTTRANSLIT:;
#CRChallenge:;
#BANNER:;
#BACKGROUND:;
#LYRICSPATH:;
#CDTITLE:;
#MUSIC:live.ogg;
#OFFSET:0.000;
#SAMPLESTART:25.997;
#SAMPLELENGTH:12.000;
#SELECTABLE:YES;
#BPMS:0.000=175.000;
#STOPS:;
#BGCHANGES:;
#NOTES:
     dance-single:
     Renard:
     Challenge:
     14:
     1.000,1.000,0.416,0.008,1.000:
0000
0000
0000
0000
,
0000
0000
0000
0000
,
0001
1000
0001
1000
0001
1000
0001
1000
0001
1000
0001
1000
0001
1000
0001
1000
0001
1000
0001
1000
0001
1000
0001
1000
,
0010
0100
0010
0100
0010
0100
0010
0100
0010
0100
0010
0100
0010
0100
0010
0100
0010
0100
0010
0100
0010
0100
0010
0100
,
M01M
M11M
1M11
1M11
,
0001
0010
0100
1000
0010
0100
0001
0010
0100
1000
0010
0100
0001
0010
0100
1000
,
0001
1000
0001
1000
0001
1000
0001
1000
0001
1000
0001
1000
0001
1000
0001
1000
0001
1000
0001
1000
0001
1000
0001
1000
,
0010
0100
0010
0100
0010
0100
0010
0100
0010
0100
0010
0100
0010
0100
0010
0100
0010
0100
0010
0100
0010
0100
0010
0100
,
M01M
M11M
0000
1MM1
1MM1
0000
1M01
1M11
,
0000
1M01
1M11
0000
0000
0000
0000
0000
,
0001
1000
0001
1000
0001
1000
0001
1000
0001
1000
0001
1000
0001
1000
0001
1000
0001
1000
0001
1000
0001
1000
0001
1000
,
0010
0100
0010
0100
0010
0100
0010
0100
0010
0100
0010
0100
0010
0100
0010
0100
0010
0100
0010
0100
0010
0100
0010
0100
,
M01M
M11M
1M11
1M11
,
0001
0010
0100
1000
0010
0100
0001
0010
0100
1000
0010
0100
0001
0010
0100
1000
,
0001
0010
0001
0010
0001
0010
0100
1000
0100
1000
0100
1000
0001
0010
0001
0010
0001
0010
0100
1000
0100
1000
0100
1000
,
0001
0100
0001
0100
0001
0100
0010
1000
0010
1000
0010
1000
0001
0100
0001
0100
0001
0100
0010
1000
0010
1000
0010
1000
,
0010
M11M
0000
1MM1
1MM1
0000
1M01
1M11
,
0000
1M01
1M11
0000
0000
0000
0000
0000
,
0000
0000
0000
0000
,
0001
1000
0100
1000
0001
0100
0010
1000
,
0000
0010
0000
1000
0001
0000
0101
0000
,
0001
0100
0010
1000
0100
0010
0001
0010
,
0000
0011
0000
0001
1000
0000
1100
0000
,
1000
0010
0100
0001
0010
0100
1000
0100
,
0000
1100
0000
1000
0001
0000
0101
0000
,
0001
1000
0100
0010
0001
1000
0010
0100
,
0000
0110
0000
1001
0000
0110
0000
0000
,
0010
1000
0010
1000
0001
0100
0001
0100
,
0001
0010
0001
0010
0100
1000
0100
1000
,
0001
0100
0001
0100
0010
1000
0010
1000
,
0001
0010
0100
1000
0001
0010
0100
1000
,
0001
1000
0001
1000
0010
1000
0010
1000
,
0100
1000
0100
1000
0010
1000
0010
1000
,
0001
1000
0001
1000
0001
0100
0001
0100
,
0001
1000
0001
0010
0001
1000
0010
0100
,
0001
0100
0001
0100
1000
0100
1000
0100
,
0001
0010
0001
0010
1000
0010
1000
0010
,
0001
0100
0001
0100
1000
0100
1000
0100
,
0001
0100
1000
0100
0001
0100
1000
0100
,
0010
1000
0010
1000
0010
0001
0010
0001
,
0010
1000
0010
1000
0010
0001
0010
0001
,
0010
0001
1000
0001
1000
0100
1000
0100
,
1000
0100
0001
0100
0001
0010
1000
0010
,
0001
1000
0001
1000
0010
1000
0010
1000
,
0001
0100
0001
0100
0001
0010
0001
0010
,
0100
1000
0100
0010
0001
1000
0010
0001
,
0010
0100
1000
0100
0001
1000
0100
0010
,
0001
1000
0001
1000
0010
1000
0010
1000
,
0001
0100
0001
0100
0001
1000
0001
1000
,
0100
1000
0100
1000
0001
0010
0001
0010
,
0100
1000
0001
0100
0010
1000
0100
0010
,
0001
0000
0001
1000
0010
0100
0001
0100
,
0010
0000
0010
1000
0100
1000
0010
0100
,
0001
0000
0001
0010
0001
1000
0100
0010
,
0001
0000
0001
0010
0100
1000
0001
0010
,
0001
0000
0001
1000
0010
0100
0001
1000
,
0010
0000
0010
1000
0100
0010
0001
1000
,
0001
0000
0001
0010
0100
1000
0001
0100
,
0010
1000
0100
0010
0001
0010
0100
1000
,
0001
0100
0001
0100
0010
0100
0010
0100
,
0010
1000
0100
0010
0001
0010
0100
1000
,
0001
0010
0100
1000
0001
0100
0010
1000
,
0100
1000
0100
1000
0001
0010
0001
0010
,
0001
0100
0001
0100
0010
1000
0010
1000
,
0100
0010
0001
0010
0100
1000
0010
0100
,
0001
0010
0001
0100
0001
1000
0010
1000
,
2001
0010
3010
0000
,
0001
1000
0001
1000
0001
1000
0001
1000
0001
1000
0001
1000
0001
1000
0001
1000
0001
1000
0001
1000
0001
1000
0001
1000
,
0010
0100
0010
0100
0010
0100
0010
0100
0010
0100
0010
0100
0010
0100
0010
0100
0010
0100
0010
0100
0010
0100
0010
0100
,
M01M
M11M
1M11
1M11
,
0001
0010
0100
1000
0010
0100
0001
0010
0100
1000
0010
0100
0001
0010
0100
1000
,
0001
1000
0001
1000
0001
1000
0001
1000
0001
1000
0001
1000
0001
1000
0001
1000
0001
1000
0001
1000
0001
1000
0001
1000
,
0010
0100
0010
0100
0010
0100
0010
0100
0010
0100
0010
0100
0010
0100
0010
0100
0010
0100
0010
0100
0010
0100
0010
0100
,
M01M
M11M
0000
1MM1
1MM1
0000
1M01
1M11
,
0000
1M01
1M11
0000
0000
0000
0000
0000
,
0001
1000
0001
1000
0001
1000
0001
1000
0001
1000
0001
1000
0001
1000
0001
1000
0001
1000
0001
1000
0001
1000
0001
1000
,
0010
0100
0010
0100
0010
0100
0010
0100
0010
0100
0010
0100
0010
0100
0010
0100
0010
0100
0010
0100
0010
0100
0010
0100
,
M01M
M11M
1M11
1M11
,
0001
0010
0100
1000
0010
0100
0001
0010
0100
1000
0010
0100
0001
0010
0100
1000
,
0001
0010
0001
0010
0001
0010
0100
1000
0100
1000
0100
1000
0001
0010
0001
0010
0001
0010
0100
1000
0100
1000
0100
1000
,
0001
0100
0001
0100
0001
0100
0010
1000
0010
1000
0010
1000
0001
0100
0001
0100
0001
0100
0010
1000
0010
1000
0010
1000
,
0010
M11M
0000
1MM1
1MM1
0000
1M01
1M11
,
0000
1M01
1M11
0000
0000
0000
0000
0000
;
