#TITLE:Rareheroes;
#SUBTITLE:;
#ARTIST:SamplingMasters DENJI;
#TITLETRANSLIT:;
#SUBTITLETRANSLIT:;
#ARTISTTRANSLIT:;
#CRChallenge:;
#BANNER:rareheroes.png;
#BACKGROUND:rareheroes-bg.png;
#LYRICSPATH:;
#CDTITLE:!cdtitle.png;
#MUSIC:rareheroes.ogg;
#OFFSET:0.000;
#SAMPLESTART:27.432;
#SAMPLELENGTH:12.000;
#SELECTABLE:YES;
#BPMS:0.000=208.000;
#STOPS:;
#BGCHANGES:;
#NOTES:
     dance-single:
     Renard:
     Medium:
     9:
     0.704,0.876,0.102,0.367,0.189:
0000
0000
0000
0000
,
0000
0000
0000
0000
,
0000
0000
0000
0000
,
0000
0000
0000
0000
,
0000
0000
0000
0000
,
0000
0000
0000
0000
,
0000
0000
0000
0000
,
0000
0000
0000
0000
,
0000
0000
0000
0000
,
0000
0000
0000
0000
,
0000
0000
0000
0000
,
0000
0000
0000
0000
,
0001
0010
0010
0010
,
0100
1000
1000
1000
,
0001
0010
0010
0010
,
0100
0000
0000
0000
1000
0000
0000
0000
1000
0000
0001
1000
0001
1000
0000
0000
,
0001
0100
0001
0100
1000
0100
1000
0100
,
0001
0010
0001
0010
1000
0010
1000
0010
,
0001
0010
0100
0000
1000
0010
0000
0100
,
0001
0000
0100
0010
1000
0100
0010
0000
,
0001
0010
0100
0000
1000
0001
0000
0100
,
0010
0000
1000
0010
0100
0001
1000
0000
,
0100
1000
0001
0000
0010
0001
0000
1000
,
0010
0000
0010
0100
0001
1000
0100
0010
,
0001
1000
0001
0000
1000
0001
0000
1000
0001
0000
1000
0000
0001
1000
0001
0000
,
0000
0000
0000
0000
0000
0000
0001
0100
0001
0100
0001
0100
,
0001
1000
0001
0000
1000
0001
0000
1000
0001
0000
1000
0000
0001
1000
0001
0000
,
1000
0001
0100
0010
1000
0100
1000
0000
,
0001
1000
0001
0000
1000
0001
0000
1000
0001
0000
1000
0000
0001
1000
0001
0000
,
1000
0001
0100
0010
1000
0100
0010
0000
,
0001
1000
0001
0000
1000
0001
0000
1000
0001
0000
1000
0001
0000
1000
0001
0000
,
1000
0001
0000
1000
0001
0000
1000
0001
2000
0000
0000
0000
0002
0000
0000
3003
,
0000
0001
0001
0100
0020
0000
1030
1000
,
0020
0000
0130
0100
0020
0000
1030
0010
,
0000
1000
1000
1000
0020
0000
0130
0100
,
0002
0000
1003
0100
0010
0001
0010
0001
,
0000
1000
1000
1000
0020
0000
0130
0100
,
0002
0000
1003
1000
0200
0000
0310
0001
,
1000
0000
0001
0100
0001
0000
0010
0000
0100
0000
0100
0000
1000
0000
1000
0000
,
0002
0000
2003
0000
3020
0000
0100
0130
,
0000
0010
0010
0100
0002
0000
0003
0000
,
1000
0000
0001
0100
0001
0000
1000
0000
0200
0000
0000
0000
0300
0000
0000
0000
,
0000
1000
1000
0001
0200
0000
0310
0010
,
2000
0000
3002
0000
0103
0001
1000
0100
,
0000
1000
1000
0100
0020
0000
0031
0001
,
0020
0000
0130
1000
0001
0010
0100
1000
,
0001
0000
1000
0100
1000
0000
0001
0000
0010
0000
0100
0000
1000
0000
0010
0000
,
0200
0001
0020
0330
,
0000
0010
0010
0010
2000
0000
3100
0100
,
0020
0000
0031
0001
1000
0010
0010
0000
,
0000
0100
0100
0100
0002
0000
0013
0010
,
0200
0000
1300
0010
0001
0010
1000
0000
,
0000
0001
0010
1000
0020
0000
0032
0000
,
0003
0000
0100
0000
1000
0000
0100
0000
0001
0000
0000
0000
0000
0000
1000
0100
,
1000
0001
0010
0100
1000
0001
0001
0001
,
0100
0000
0001
1000
0001
0000
0100
0001
0100
0000
0001
1000
0001
0000
1000
0000
,
1001
0000
0110
0000
2002
0000
0000
3003
,
1001
0110
2001
3010
,
2010
3100
0012
0103
,
2100
0000
0000
0000
3010
0000
0000
0000
1001
0000
0000
0000
0000
0000
0001
0100
,
0001
1000
0100
0000
1000
0100
0000
0100
,
1000
0000
0100
1000
0100
0100
1000
0000
,
0001
0000
0010
0001
1000
0000
0001
0000
1000
0000
0010
0000
0100
0000
0001
0000
,
1000
0000
0100
1000
0100
0000
1000
0001
1000
0000
0001
0000
0200
0000
0000
0000
,
031M
M100
001M
0000
M100
00M1
M100
0000
,
00M1
1M00
00M1
0000
100M
0100
M010
0001
,
1M00
001M
1M00
0000
00M1
M100
00M1
0000
,
100M
01M0
100M
0000
M001
0010
010M
1000
,
00M1
M100
00M1
0000
100M
01M0
100M
0000
,
M001
0010
0M01
1000
001M
0100
M001
0000
,
100M
01M0
100M
0000
M001
0M10
M001
0000
,
100M
0M10
100M
0000
M001
0100
001M
1000
,
01M0
100M
01M0
0000
10M0
0M01
10M0
0000
,
M001
01M0
M001
0000
010M
0010
100M
0100
,
M010
0M01
M010
0000
010M
10M0
010M
0000
,
1M00
001M
1M00
0000
00M1
0100
001M
1000
,
00M2
M1M0
M000
MM10
,
M000
M1M0
0M00
MM10
,
10M0
M1M0
M100
M1M0
,
0M10
1MM0
10M0
M1M3
,
000M
00M0
1M00
00M0
000M
M000
0M01
00M0
,
000M
00M0
1M00
00M0
000M
M000
0M10
0000
;
#NOTES:
     dance-single:
     Renard:
     Hard:
     12:
     0.964,1.000,0.112,0.031,0.730:
0000
0000
0000
0000
,
0000
0000
0000
0000
,
0000
0000
0000
0000
,
0000
0000
0000
0000
,
0000
0000
0000
0000
,
0000
0000
0000
0000
,
0000
0000
0000
0000
,
0000
0000
0000
0000
,
0001
0010
0001
0000
1000
0100
0000
0010
0001
0000
1000
0010
1000
0010
1000
0000
,
0001
0010
0001
0000
1000
0100
0000
0010
0001
0000
1000
0100
1000
0001
1000
0000
,
0001
0010
0001
0000
1000
0100
0000
0010
0001
0000
1000
0010
1000
0010
1000
0000
,
0001
0010
0001
0000
1000
0100
0000
0010
0001
0000
1000
0100
1000
0001
1000
0000
,
0001
0010
0001
0000
1000
0100
0000
0010
0001
0000
1000
0010
1000
0010
1000
0000
,
0001
0010
0001
0000
1000
0100
0000
0010
0001
0000
1000
0100
1000
0001
1000
0000
,
0001
0010
0001
0000
1000
0100
0000
0010
0001
0000
1000
0010
1000
0010
1000
0000
,
0001
0010
0001
0000
1000
0100
0000
0010
0001
0000
1000
0001
1000
0001
0000
0000
,
0001
0010
1000
0010
0001
0100
1000
0100
,
0001
0010
0100
1000
0100
0001
0100
1000
,
0010
0100
0001
0010
1000
0010
0100
0001
,
0100
1000
0010
0100
1000
0100
0001
0010
,
0100
0001
0100
1000
0010
0100
1000
0100
,
0010
1000
0100
0010
0100
0001
0100
0010
,
0001
0010
1000
0010
0001
0010
0100
0001
,
0100
1000
0010
0001
0010
0100
1000
0100
,
0001
0100
0001
0000
1000
0010
0000
0100
0001
0000
1000
0001
1000
0001
1000
0000
,
0000
0000
0000
0010
0000
0000
1000
0010
0100
0001
1000
0010
,
0100
0001
0100
0000
0010
1000
0000
0001
0100
0000
0001
1000
0001
1000
0001
0000
,
1000
0100
0001
0100
0010
0001
0010
1000
,
0010
0001
0010
0000
0100
1000
0000
0001
0010
0000
0100
1000
0001
0010
0001
0000
,
1000
0100
0001
0100
0010
0001
0010
1000
,
0010
0100
1000
0000
0001
0010
0000
0100
0010
0000
0001
0010
0000
0100
0010
0000
,
0001
0010
0000
0100
0010
0000
0001
0010
0200
0000
0000
0000
2300
0000
0000
0000
,
3001
0100
0100
0010
0010
0000
1000
1000
,
0100
0100
0001
0001
0100
0100
0010
0010
,
0000
0001
0010
0010
0100
0100
1000
1000
,
0010
0010
0100
0100
0001
0001
0100
0100
,
0000
0010
1000
1000
0100
0000
0010
0001
,
0010
0000
0100
1000
0010
0000
0100
0001
,
0100
0100
0010
0010
1000
0000
0100
0100
,
0010
0010
0001
0001
0010
0010
0100
0100
,
1000
0100
0001
0100
1000
0000
0010
0010
,
0001
0010
0100
0010
0100
0000
1000
0000
,
0100
0100
0001
0010
0100
0000
0001
0001
,
0100
0100
1000
1000
0010
0010
0001
0000
,
0010
0100
0001
0100
1000
1000
0100
0000
,
0010
0010
1000
0000
0100
0100
0001
0000
,
0100
0010
0001
0010
0010
0000
1000
0010
,
0100
0100
0010
0100
1000
0010
0100
0000
,
0001
0000
0000
0010
0000
0000
0001
0000
0000
0010
0000
0000
0001
0000
0000
0010
0000
0000
0001
0000
0000
0010
0000
0000
0001
0000
0000
0010
0000
0000
0001
0000
,
0000
0010
0000
0000
0001
0000
0000
0010
0000
0000
0001
0000
0000
0010
0000
0000
0001
0000
0000
0000
0000
0000
0000
0000
0001
0000
0000
0000
0010
0000
0000
0000
,
0100
1000
1000
0010
0100
0000
0010
0010
,
1000
0000
0100
0100
0001
0000
0100
0000
,
0010
0001
0010
1000
0010
0000
0100
0100
,
1000
0010
0010
0100
0001
0000
0100
0010
,
1000
0010
0001
0010
0100
1000
0100
0001
,
0010
0000
0010
0100
1000
0100
0001
0000
,
1001
1011
1001
0000
,
0001
0100
1000
0100
0001
0000
0000
0000
,
0101
0111
0101
0111
,
1100
1110
1001
0100
,
0001
0100
1000
0100
0001
0010
0100
0001
,
0100
1000
0010
0100
1000
0100
0001
0000
,
0001
0010
0100
0001
0100
1000
0010
0100
,
0010
0000
1000
1000
0100
0100
0010
0000
,
0001
0010
0001
0010
0001
0010
0001
0010
0001
0010
0001
0010
0001
0010
0001
0010
,
0001
0010
0100
1000
0001
0010
0100
0010
,
0001
1000
0100
0010
0001
0000
0100
0010
,
1000
0010
0001
0010
0100
0001
1000
0000
,
1000
0100
1000
0100
1000
0100
1000
0100
1000
0100
1000
0100
1000
0100
1000
0100
,
1000
0100
0010
0001
1000
0100
0010
0000
,
0001
0010
0001
0010
0001
0010
0001
0010
0001
0010
0001
0010
0001
0010
0001
0010
,
0001
0010
0100
1000
0001
1000
0001
0000
,
0100
0001
0100
0001
0100
0001
0100
0001
0100
0001
0100
0001
0100
0001
0100
0001
,
0100
0001
1000
0010
0100
0001
1000
0001
,
0100
0010
1000
0001
0100
0000
0001
1000
,
0100
1000
0010
1000
0001
1000
0001
0100
,
0010
1000
0010
1000
0010
1000
0010
1000
0010
1000
0010
1000
0010
1000
0010
1000
,
0010
1000
0010
1000
0010
1000
0010
1000
0010
1000
0010
1000
0010
1000
0010
1000
,
0001
0010
0001
0010
0001
0010
0001
0010
0001
0010
0001
0010
0001
0010
0001
0010
,
0001
0010
0001
0010
0001
0010
0001
0010
0001
0010
0001
0010
0001
0010
0001
0020
,
0000
0001
0000
0001
,
0000
0031
0000
0011
;
#NOTES:
     dance-single:
     Renard:
     Easy:
     6:
     0.440,0.709,0.071,0.020,0.000:
0000
0000
0000
0000
,
0000
0000
0000
0000
,
0000
0000
0000
0000
,
0000
0000
0000
0000
,
0000
0000
0000
0000
,
0000
0000
0000
0000
,
0000
0000
0000
0000
,
0000
0000
0000
0000
,
0000
0000
0000
0000
,
0000
0000
0000
0000
,
0001
0001
0001
0001
,
1000
1000
1000
1000
,
0010
0010
0010
0010
,
0100
0100
0100
0100
,
0001
0001
0001
0001
,
1000
1000
0001
1000
,
0001
0100
0001
0100
0001
0100
0001
0000
,
1000
1000
1000
0000
,
0100
1000
0100
1000
0100
0000
1000
0000
,
0001
1000
0001
0000
,
0010
0001
0010
0001
0010
0001
0010
0001
,
0010
0001
0010
0000
,
0001
1000
0001
1000
0001
1000
0001
1000
,
0001
1000
0001
0000
,
1000
0010
1000
0010
1000
0010
1000
1000
,
0000
0000
0000
0000
,
0001
0100
0001
0100
0001
0100
0001
0001
,
0000
0000
0000
0000
,
0001
1000
0001
1000
0001
1000
0001
0001
,
0000
0000
0000
0000
,
1000
0100
1000
0100
1000
0100
1000
1000
,
0100
0000
1000
0000
,
0001
0100
0010
1000
,
0010
1000
1000
0000
,
0001
0100
0001
1000
,
0001
0010
0010
0000
,
0001
1000
0100
1000
,
0010
1000
1000
0000
,
0001
0100
0001
0000
,
0010
0001
1000
0000
,
0100
0100
0010
0000
,
0001
0001
1000
0000
,
0010
0010
0100
0000
,
0001
0001
1000
0000
,
0100
1000
0001
0000
,
0100
0001
1000
0000
,
0100
1000
0001
0100
,
0001
1000
0001
1000
0001
0000
1000
0000
,
0010
0010
0010
0000
,
0100
0100
0100
0000
,
0001
0001
1000
1000
,
0100
0010
0001
0000
,
1000
0001
0100
0000
,
0001
1000
0100
0000
,
1000
1000
0001
0001
,
0100
0000
0100
0000
0010
0100
0010
0000
,
1000
1000
0010
0000
,
0100
0100
0001
0000
,
1001
1001
0110
0110
,
1001
0110
1001
0000
,
0001
0001
1000
1000
,
0100
0100
1000
1000
,
0001
0100
0001
0100
0001
0100
0001
0100
,
0001
1000
0001
1000
0001
1000
0001
0000
,
2000
0000
0001
0000
,
0100
0000
0001
0000
,
0100
0000
0001
0000
,
0000
0000
0000
0000
0001
0000
0000
3000
,
0001
1000
0001
1000
0001
1000
0001
1000
,
0001
1000
0001
1000
0001
1000
0001
1000
,
0001
1000
0001
1000
0001
1000
0001
1000
,
0001
1000
0001
1000
0001
1000
0001
1000
,
0002
0000
1000
0000
,
0100
0000
1000
0000
,
0100
0000
1000
0000
,
0100
0000
1000
0003
,
1000
0001
1000
0001
,
1000
0001
1000
0001
,
0100
0010
0100
0010
0100
0010
0100
0010
,
0100
0010
0100
0010
0100
0010
0100
0010
,
0000
0100
0000
0100
,
0000
0100
0000
0001
;
#NOTES:
     dance-single:
     Renard:
     Beginner:
     4:
     0.262,0.459,0.061,0.061,0.000:
0000
0000
0000
0000
,
0000
0000
0000
0000
,
0000
0000
0000
0000
,
0000
0000
0000
0000
,
0000
0000
0000
0000
,
0000
0000
0000
0000
,
0000
0000
0000
0000
,
0000
0000
0000
0000
,
0000
0000
0000
0000
,
0000
0000
0000
0000
,
0001
0001
0001
0000
,
1000
1000
1000
0000
,
0010
0010
0010
0010
,
0010
0010
0010
0010
,
0010
0010
0010
0010
,
0010
0010
0010
0000
,
0100
0001
0001
0000
,
1000
0100
0100
0000
,
1000
0001
0001
0000
,
1000
0001
0001
0000
,
0100
0001
0001
0000
,
1000
0100
0100
0000
,
1000
0001
0001
0000
,
1000
0001
0001
0000
,
1000
1000
1000
1000
,
0000
0000
0000
0000
,
0010
0010
0010
0010
,
0000
0000
0000
0000
,
0100
0100
0100
0100
,
0000
0000
0000
0000
,
0001
0001
0001
0001
,
0000
0000
1001
0110
,
0000
0000
0001
0100
0001
0000
0000
0000
,
1000
0000
1000
0000
,
0000
0000
0100
1000
0100
0000
0000
0000
,
1000
0000
1000
0000
,
0000
0000
0001
0100
0001
0000
0000
0000
,
0100
0000
0100
0000
,
0000
0000
0001
1000
0001
0000
0000
0000
,
1000
0000
1000
0000
,
0100
0000
0100
0000
,
0010
0010
0010
0000
,
0001
0000
0001
0000
,
1000
1000
0010
0000
,
0100
0000
0100
0000
,
0001
0001
1000
0000
,
0001
1000
0001
1000
,
0010
0010
0010
0000
,
0100
0100
0100
0100
,
0100
0010
0010
0010
,
1000
1000
1000
1000
,
1000
0001
0001
0001
,
0010
0010
0010
0010
,
0010
0100
0100
0100
,
1000
0001
1000
0001
,
1000
0010
0010
0000
,
1000
1000
1000
0000
,
0001
0001
0001
0000
,
1000
1000
0001
0001
,
0110
1001
0110
0000
,
0010
0100
0010
0000
,
1000
0010
1000
0000
,
0001
0100
0001
0000
,
1000
0000
0001
0000
,
2000
0000
0000
0000
,
0000
0000
0000
0000
,
0000
0000
0000
0000
,
0000
0000
0000
0000
0000
0000
0000
3000
,
0002
0000
0000
0000
,
0000
0000
0000
0000
0000
0000
0000
0003
,
0200
0000
0000
0000
,
0000
0000
0000
0000
0000
0000
0000
0300
,
0020
0000
0000
0000
,
0000
0000
0000
0000
,
0000
0000
0000
0000
,
0000
0000
0000
0000
0000
0000
0000
0030
,
2000
0000
0000
0000
,
0000
0000
0000
0000
0000
0000
0000
3000
,
0002
0000
0000
0000
,
0000
0000
0000
0000
0000
0000
0000
0003
,
0000
0000
0000
0000
,
0000
0000
0000
1011
;
