#TITLE:Rapture;
#SUBTITLE:;
#ARTIST:Ewun;
#TITLETRANSLIT:;
#SUBTITLETRANSLIT:;
#ARTISTTRANSLIT:;
#CRChallenge:;
#BANNER:rapture.jpg;
#BACKGROUND:rapture-bg.jpg;
#LYRICSPATH:;
#CDTITLE:!cdtitle.png;
#MUSIC:rapture.ogg;
#OFFSET:0.020;
#SAMPLESTART:21.909;
#SAMPLELENGTH:12.000;
#SELECTABLE:YES;
#DISPLAYBPM:87.000;
#BPMS:0.000=87.000,16.000=21.750,20.000=87.000,80.000=348.000,92.000=174.000,93.000=87.000,121.000=174.000,126.500=232.000,127.000=309.333,128.000=412.444,129.333=309.333;
#STOPS:51.500=2.759
,92.000=0.172
,92.500=0.172
;
#BGCHANGES:;
#NOTES:
     dance-single:
     Renard:
     Medium:
     9:
     0.520,0.653,0.622,0.228,0.839:
0000
0000
0000
0000
,
0000
0000
0000
0000
,
2001
0010
0010
3010
1002
0100
0100
0103
,
2001
0010
0010
3010
1002
0100
0100
0103
,
2MM2
0000
0000
0000
0000
0000
0000
0000
0MM0
0000
0000
0000
0000
0000
0000
0000
0MM0
0000
0000
0000
0000
0000
0000
0000
0MM0
0000
0000
0000
0000
0000
0000
0000
0MM0
0000
0000
0000
0000
0000
0000
0000
0MM0
0000
0000
0000
0000
0000
0000
0000
0MM0
0000
0000
0000
0000
0000
0000
0000
0MM0
0000
0000
0000
0000
0000
0000
0000
0MM0
0000
0000
0000
0000
0000
0000
0000
3113
0000
0000
0000
0000
0000
0000
0000
0000
0000
0000
0000
0000
0000
0000
0000
0000
0000
0000
0000
0000
0000
0000
0000
MMMM
0000
0000
0000
0000
0000
0000
0000
MMMM
0000
0000
0000
0000
0000
0000
0000
MMMM
0000
0000
0000
0000
0000
0000
0000
MMMM
0000
0000
0000
0000
0000
0000
0000
MMMM
0000
0000
0000
0000
0000
0000
0000
MMMM
0000
0000
0000
0000
0000
0000
0000
MMMM
0000
0000
0000
0000
0000
0000
0000
MMMM
0000
0000
0000
0000
0000
0000
0000
MMMM
0000
0000
0000
0000
0000
0000
0000
MMMM
0000
0000
0000
0000
0000
0000
0000
MMMM
0000
0000
0000
0000
0000
0000
0000
0000
0000
1001
0000
0000
0000
0000
0000
,
0201
0000
0310
0000
1100
0000
1000
0100
0010
0100
0001
0010
0001
0000
0011
0000
,
0021
0000
0130
0000
1100
0000
0100
0010
0001
0100
0010
0000
1010
0000
0010
0100
,
0110
0000
0101
0000
1100
0000
1000
0100
0001
0000
0001
0100
1000
0000
0100
0000
,
0110
0000
0110
0000
0010
0100
0010
0000
0110
0000
0110
0000
1001
0000
1001
0000
0110
0000
1001
0000
0110
0000
1001
0000
,
0010
0000
0100
0000
0010
0000
0000
0000
0110
0000
0000
0000
0100
0000
0000
0000
0001
0000
1000
0000
0100
0000
1000
0000
0001
0000
0100
0001
0100
0000
0001
0000
,
0010
0000
0000
0000
0100
0000
0010
0100
0010
0000
0100
0000
0100
0000
1000
0000
0001
0000
0100
0000
0010
0000
1000
0000
0001
0000
1000
0000
0001
0010
0001
0010
,
0001
0000
0001
0000
2000
0000
0000
3010
0100
0100
0001
0000
0100
0100
0100
0100
,
0020
0000
0000
0000
0000
0000
0000
0000
0100
0100
0100
0100
0200
0000
0330
0000
,
0010
0000
0010
0000
0010
0000
0000
0000
1000
0010
1000
0000
0000
0000
0000
0000
0000
0000
0000
0000
0001
0000
0000
0000
0010
0000
0010
0000
0010
0000
0010
0000
,
0002
0000
0023
0000
2030
0000
0000
3010
0010
0000
0002
0000
0100
0100
0100
0103
,
0010
0000
0010
0000
1010
0000
0000
0010
0100
0000
0001
0000
0010
0010
0010
0010
,
0002
0000
0000
1000
2000
0020
0000
3033
1011
0000
0000
MMMM
0000
0000
MMMM
0000
,
1100
0000
1100
0000
1100
0000
0000
0100
0100
0000
0010
0000
0001
0001
0001
0001
,
0011
0000
0011
0000
0010
0000
0000
0100
0100
0000
1000
0000
1000
1000
1000
1000
,
1100
0000
1100
0000
0010
0000
0000
0100
0010
0000
0100
0000
0001
0100
0001
0100
,
20M2
0000
0000
0M00
0000
0000
00M0
0000
0000
0M00
00M0
0000
0M00
0000
00M0
0000
0M00
0000
00M0
0000
0M00
0000
00M0
0000
,
0M00
0000
0000
0000
00M0
0000
0000
0000
0M00
0000
0000
0000
00M0
0000
0000
0M00
0000
0000
00M0
0000
0000
0M00
0000
0000
00M0
0000
0000
0M00
0000
0000
00M0
0000
0M00
0000
00M0
0000
0M00
0000
00M0
0000
0M00
0000
00M0
0000
0M00
0000
00M0
0000
,
0M00
0000
0000
0000
0000
0000
00M0
0000
0000
0000
0000
0000
0M00
0000
0000
0000
0000
0000
00M0
0000
0000
0000
0000
0000
0M00
0000
0000
0000
0000
0000
00M0
0000
0000
0000
0000
0000
0M00
0000
0000
0000
0000
0000
00M0
0000
0000
0000
0000
0000
0M00
0000
0000
0000
0000
0000
00M0
0000
0000
0000
0000
0000
0M00
0000
0000
0000
00M0
0000
0000
0000
0M00
0000
0000
0000
00M0
0000
0000
0000
0M00
0000
0000
0000
00M0
0000
0000
0000
0M00
0000
0000
0000
0000
0000
0000
0000
00M0
0000
0000
0000
0M00
0000
0000
0000
00M0
0000
0000
0000
0000
0000
0000
0000
0M00
0000
0000
00M0
0000
0000
0M00
0000
0000
00M0
0000
0000
0M00
0000
0000
00M0
0000
0000
0M00
0000
0000
0000
0000
0000
00M0
0000
0000
0M00
0000
0000
00M0
0000
0000
0000
0000
0000
3003
0000
0000
0000
0000
0000
0000
0000
0000
0000
0000
0000
0000
0000
0000
0000
0000
0000
0000
0000
0000
0000
0000
0000
0000
0000
0000
0000
0000
0000
0000
0000
0000
0000
0000
0000
0000
0000
0000
0000
0000
0000
0000
0000
0000
0000
0000
0000
,
2000
0000
3001
0000
0110
0000
0110
0000
0000
1001
0000
0000
0110
0000
0010
1000
,
0000
0000
0101
0000
0000
0000
0001
0000
0010
0000
0000
0000
0100
0000
1000
0100
1000
0000
0001
0000
0100
0000
0010
0000
1000
0000
0001
0000
0100
0000
0000
0000
,
0010
0000
1000
0000
0001
0100
0001
0100
0010
0000
1000
0000
0100
0000
0100
0000
1100
0000
0010
0000
0000
0000
0101
0000
0000
0000
0000
0000
1001
0000
0000
0000
,
0110
0000
0000
1000
0000
0000
0000
0000
0000
0001
0000
0000
1100
0000
0000
0000
1100
0000
0000
0000
1000
0000
0100
0000
1000
0000
0000
0000
0100
0000
0000
0000
0010
0000
0000
0000
0011
0000
0000
0000
0011
0000
0000
0000
0001
0000
0010
0000
,
0100
0000
0000
0000
1000
0000
0000
0000
0100
0000
1000
0000
0100
0000
0000
0000
0000
0000
1000
0000
0000
0000
0000
0000
0010
0000
0000
0100
0000
0000
0000
0000
0000
0101
0000
0000
0000
0000
0000
0000
0000
0000
0110
0000
0000
0000
0000
0000
,
1100
0000
0000
0000
0100
0000
1000
0000
0100
0000
0000
0000
0010
0000
0100
0010
0100
0000
0001
0000
1000
0000
0100
0000
0110
0000
0000
0000
1001
0000
0000
1001
,
0000
0000
0110
0000
0000
0110
0000
0000
1001
0000
0000
0000
0110
0000
0000
0000
1000
0000
0010
0000
0000
0000
0100
0000
0001
0000
0000
0000
0010
0000
0100
0000
,
0000
1000
0001
0010
0200
0000
0000
0000
0000
0000
0000
0000
0000
0000
0000
0000
,
0000
0000
0000
0000
,
0000
0000
0000
0000
1300
0000
0000
0000
0000
0000
0000
0000
;
#NOTES:
     dance-single:
     Renard:
     Easy:
     4:
     0.231,0.319,0.145,0.093,0.005:
0000
0000
0000
0000
,
0000
0000
0000
0000
,
0001
0000
1000
0000
,
0001
0000
1000
0001
,
2012
0000
0000
3003
,
1000
0001
0100
0000
0001
1000
1100
1100
,
1000
0001
0100
0000
0001
1000
1100
1100
,
1000
0001
0101
0000
0001
1000
1001
0000
,
2000
3020
0032
0023
,
1030
0010
1010
0000
0010
0100
0110
0000
,
0100
0001
0101
0000
0001
1000
1001
1001
,
1000
0100
1100
0000
0100
1000
0001
0001
,
1000
0000
0000
0000
0000
0000
0010
0100
,
0001
0001
0001
0000
1000
0000
0010
0000
,
1000
1000
1000
0000
0010
0000
0100
0000
,
0001
0001
1000
0000
0100
0000
1000
0000
,
0002
0000
1000
1000
,
1003
1000
1000
0000
0010
0000
0010
0000
,
0100
0001
0100
0000
0001
0000
0010
0000
,
0001
0001
0001
0000
0010
0000
0100
1000
,
0002
0000
0000
0000
,
0000
0000
0000
0000
,
0000
0000
0000
0000
,
1000
1000
1003
0000
0001
1000
0010
0000
,
0010
0100
0001
0000
0001
0000
0100
0100
,
0010
0010
1000
1000
0010
0000
0010
0100
,
0001
0000
0100
0100
0001
0000
1000
1000
,
0001
0000
1000
0000
1001
0000
0001
0100
,
0001
0000
1000
1000
0001
0000
0010
0001
,
1000
0000
0001
0000
1000
0000
0010
0100
,
0010
0200
0000
0000
,
0000
0000
0000
0000
,
0000
0000
0000
0000
0000
0000
0000
0000
1000
0300
0000
0000
0000
0000
0000
0000
0000
0000
0000
0000
0000
0000
0000
0000
;
#NOTES:
     dance-single:
     Renard:
     Beginner:
     2:
     0.107,0.201,0.083,0.041,0.005:
0000
0000
0000
0000
,
0000
0000
0000
0000
,
0000
0000
0000
0000
,
0000
0000
0000
0000
,
1001
0000
0000
0000
,
0001
0001
1000
1000
,
0001
0000
0001
0000
,
0100
0100
0010
0010
,
0100
0000
0100
0000
,
0001
0100
1000
0000
,
0001
0010
1000
0000
,
0001
0100
1000
0000
,
0001
0000
0000
0000
,
0001
0001
0000
0000
,
1000
1000
0000
0000
,
0010
0010
0000
0000
,
0200
0000
0000
0000
,
0301
0001
0000
0000
,
1000
1000
0000
0000
,
0010
0010
0000
0000
,
1002
0000
0000
0000
,
0000
0000
0000
0000
,
0000
0000
0000
0000
,
0000
0103
0100
0010
,
0000
1000
1000
0001
,
0000
0010
0010
0100
,
0000
1000
0000
0001
,
0000
0110
0000
0010
,
0100
0001
0001
1000
,
0000
0110
1001
0110
,
1001
0220
0000
0000
,
0000
0000
0000
0000
,
0000
0000
0000
0000
1330
0000
0000
0000
0000
0000
0000
0000
;
