#TITLE:Rapture EX;
#SUBTITLE:;
#ARTIST:Ewun;
#TITLETRANSLIT:;
#SUBTITLETRANSLIT:;
#ARTISTTRANSLIT:;
#CRChallenge:;
#BANNER:rapture.jpg;
#BACKGROUND:rapture-bg.jpg;
#LYRICSPATH:;
#CDTITLE:!cdtitle.png;
#MUSIC:rapture.ogg;
#OFFSET:0.020;
#SAMPLESTART:21.569;
#SAMPLELENGTH:12.000;
#SELECTABLE:NO;
#BPMS:0.000=174.000,32.000=10.875,33.000=174.000,93.000=348.000,99.000=174.000,111.000=348.000,115.000=174.000,131.000=348.000,132.000=174.000,155.000=348.000,169.000=174.000,193.000=348.000,202.000=174.000,215.000=87.000,216.000=347.999,217.000=174.000,231.000=348.000,232.000=174.000,246.000=87.000,246.500=174.000,247.000=348.000,248.000=174.000,263.000=348.000,264.500=174.000;
#STOPS:97.000=0.172
,98.000=0.172
,111.000=0.172
,112.000=0.129
,112.750=0.129
,113.500=0.129
,114.250=0.129
,131.000=0.172
,167.000=0.172
,168.000=0.172
,193.000=0.115
,193.667=0.115
,194.333=0.057
,194.667=0.057
,195.000=0.115
,195.667=0.115
,196.333=0.057
,196.667=0.057
,197.000=0.115
,197.667=0.115
,198.333=0.115
,199.000=0.115
,199.667=0.115
,200.333=0.115
,201.000=0.172
,216.000=0.172
,231.000=0.172
,246.500=0.172
,247.000=0.172
,263.000=0.603
;
#BGCHANGES:;
#NOTES:
     dance-single:
     Renard:
     Hard:
     12:
     0.752,0.845,0.964,0.354,0.332:
0000
0000
0000
0000
,
0000
0000
0000
0000
,
0000
0000
0000
0000
,
0000
0000
0000
0000
,
0000
0000
0000
0000
,
0000
0000
0000
0000
,
0000
0000
0000
0000
,
0000
0000
0000
0000
,
1001
0000
0001
0100
1010
0001
0100
1010
,
0100
0001
1000
0010
0100
0000
0001
0000
1010
0000
0100
0000
0001
0000
1010
0000
,
0100
0001
1000
0000
0001
0000
0010
0000
1100
0000
0001
0000
0010
0000
1100
0000
,
0010
0001
1000
0100
0010
0000
0002
0000
2000
0000
0000
0000
0000
0000
3013
0000
,
0000
0000
0000
0000
1000
0010
0100
0001
0001
0000
1000
0000
0010
0000
0101
0000
,
0010
1000
0001
0100
0010
0000
1000
0000
0101
0000
0010
0000
1000
0000
0101
0000
,
0010
1000
0001
0000
1000
0000
0100
0000
0011
0000
1000
0000
0100
0000
0011
0000
,
0100
1000
0001
0010
0100
0000
2000
0000
0001
0000
0002
0000
0000
0000
0000
0000
,
3013
0000
0000
0000
1001
0100
0000
1001
,
0100
0001
1000
0010
0100
0000
0000
0000
1001
0000
0010
0000
0000
0000
1001
0000
,
0100
0001
1000
0010
0100
0000
0000
0000
1001
0000
0010
0000
0000
0000
1001
0000
,
0010
1000
0001
0100
0010
0000
1000
0010
0100
0000
0001
0000
0010
0000
0010
0000
,
0100
0000
1000
0100
0010
0001
0010
0100
,
1000
0100
0010
0001
1000
0000
0010
0000
0100
0000
0001
0000
0100
0000
0010
0000
,
1000
0010
0100
0002
2000
0000
0000
0000
0000
0000
0000
0000
0000
0000
0000
0000
,
0000
3003
0000
0000
,
0000
2002
3013
1111
,
0001
0000
0000
1010
0000
0000
0001
0100
,
1010
0000
0100
0000
0001
0000
1010
0000
0100
0001
1000
0000
1001
0000
0010
0000
,
1001
0100
0100
1001
0010
0010
1001
0000
,
1001
0000
0000
1011
0000
0000
1001
0000
0000
1011
0000
0000
1001
0000
0000
0000
,
0101
0000
0010
0000
1000
0000
0101
0000
0010
1000
0010
0000
0101
0000
0010
0000
,
1001
1010
0100
1001
0010
0100
1001
0010
,
1001
0000
0100
0000
0100
0000
1001
0000
0010
0100
0001
0100
0020
0000
0000
0000
,
1000
2000
0000
3031
0000
0000
1011
0000
,
0001
1000
0100
0010
0001
0000
1000
0000
0000
0000
0001
0000
1000
0000
0000
0000
,
0001
0000
1000
1000
0001
0000
0000
0000
0110
0000
0000
0000
1010
0000
0000
0000
,
0010
1000
0001
0100
0010
0000
1000
0000
0000
0000
0001
0000
0100
0000
0000
0000
,
0010
0000
1000
1000
0010
0000
0000
0000
0200
0000
0000
0000
0301
0000
0000
0000
,
1000
0001
0010
0100
1000
0000
0001
0000
0000
0000
1000
0000
0001
0000
0000
0000
,
0100
0000
0010
0010
1000
0000
0000
1010
0000
0000
1001
0000
0202
0000
0000
0000
,
0000
0000
0000
0000
,
0000
0000
0000
0000
,
0000
0000
0000
0313
,
0111
0000
0101
0010
1001
0100
1010
1000
,
1000
0100
0011
0100
1000
0010
0101
0110
,
0101
0110
1010
0100
1001
0010
1001
0100
,
0010
1000
1100
0010
0001
1000
0110
0110
,
0011
0011
1010
0100
1001
0010
0101
0001
,
0001
0010
1100
0010
0001
0100
1010
0110
,
1010
0000
0000
0110
0000
0000
1010
0000
0000
0000
0110
0000
0000
0000
0010
0000
0100
0000
0010
0000
0000
0000
1010
0000
,
0000
0010
0100
0001
0000
0110
0000
1010
0000
0101
0000
1010
,
0000
0000
0101
0000
0000
0000
0010
0000
0000
0000
0000
0000
1011
0000
0000
0000
0000
0000
0000
0000
0000
0001
0000
0000
,
0100
0001
1000
0010
0100
0000
0000
0000
0100
0000
0200
0000
0000
0000
0010
0000
,
0310
1000
0001
0100
0020
0000
2000
0000
0001
0000
0000
0000
0000
0000
3031
0000
,
0000
0000
0020
0002
1000
0000
1033
0000
,
0202
0000
0000
0000
0313
0000
0000
0000
0000
0000
0101
0000
0010
1000
0001
0100
,
0010
0000
1000
0000
1000
0000
0001
0000
0100
0000
0100
0000
0010
1000
0010
1000
,
0020
2000
0001
0000
0000
3031
0000
0000
,
0002
0200
2000
3303
,
0010
0000
0000
0000
1001
0000
0100
0000
0100
0000
1010
0000
0100
0001
1000
0010
,
0100
0010
1000
0001
0100
0010
1000
1000
,
2002
0000
3013
0000
0100
1001
0000
0010
,
2002
0000
3013
0000
0222
0333
1001
0000
,
0101
0000
0010
0000
1000
0000
0101
0000
0010
1000
0010
1000
0010
0000
0000
0000
,
0100
0000
0100
0000
0000
0000
0010
0000
0010
1000
0001
0100
0010
0000
2000
0000
,
0002
0000
0000
0000
0000
0000
3013
0000
0000
0000
0000
0000
1001
0000
0000
1001
,
0000
0000
0110
0000
0000
0110
0000
0000
1001
0000
0000
0000
0101
0000
0000
0000
,
0000
0000
1010
0000
0100
0001
1000
0010
0100
0000
0001
0000
0001
0000
0010
0000
,
0100
0000
0100
0000
1000
0100
0010
0001
2000
0000
0200
0000
0010
0000
0000
0000
,
0000
3310
0000
0000
0002
0200
0010
0000
,
0000
0313
0000
0000
1001
0000
0110
0110
,
0000
0000
1001
0000
0100
0001
1000
0010
0100
0000
0010
0000
1000
0000
0010
0000
,
0001
0000
0010
0000
0100
0001
0100
0001
2000
0000
0002
0000
0010
0000
0000
0000
,
0000
0000
3013
0000
0000
0000
0000
0000
1001
0000
0000
0110
0000
0000
1001
0000
,
0000
0110
0000
0000
1001
0000
0000
0000
1011
0000
0000
0000
0000
0000
0000
0000
;
