#TITLE:Raid Into Exodus;
#SUBTITLE:;
#ARTIST:Sota Fujimori;
#TITLETRANSLIT:;
#SUBTITLETRANSLIT:;
#ARTISTTRANSLIT:;
#CRChallenge:;
#BANNER:Raid Into Exodus.png;
#BACKGROUND:Raid Into Exodus-bg.png;
#LYRICSPATH:;
#CDTITLE:;
#MUSIC:Raid Into Exodus.ogg;
#OFFSET:-0.009;
#SAMPLESTART:29.120;
#SAMPLELENGTH:15.000;
#SELECTABLE:YES;
#BPMS:0.000=214.610,96.000=107.305,112.000=214.610,145.000=107.305,161.000=214.610,193.000=107.305,225.000=214.610,289.000=107.305,292.750=214.610;
#STOPS:144.000=4.194
;
#BGCHANGES:;
#NOTES:
     dance-single:
     Renard:
     Hard:
     10:
     0.958,1.000,0.580,0.143,0.690:
0000
0000
0000
0000
,
0000
0000
0000
0000
,
0000
0000
0000
0000
,
0000
0000
0000
0000
,
1001
1001
0000
0000
0000
0000
0110
0110
,
0000
0000
0000
0000
,
1001
1001
0000
0000
0000
0000
0110
0110
,
0000
0010
1000
0100
0001
0100
1000
0000
,
0001
0100
1000
0100
0001
1000
0100
0001
,
0100
1000
0001
0010
0001
0000
0011
0000
,
0010
0100
1000
0010
0100
1000
0100
0010
,
1000
0001
0010
0100
0010
0000
0110
0000
,
0010
0001
0100
0010
0100
0000
0100
0010
,
0100
0001
0010
0100
0010
0000
0110
0000
,
0010
0100
1000
0010
0100
0010
1000
0100
,
0010
0001
1000
0010
1000
0000
1010
0000
,
1000
0010
0100
0001
0010
0011
0000
0010
,
0100
1000
0010
0100
0001
1001
0000
1000
,
0010
0100
0001
0010
0001
0011
0000
0010
,
0100
1000
0001
0100
0010
1000
1001
0000
,
1000
0010
0100
0001
0010
0011
0000
0010
,
0100
1000
0001
0100
0010
1010
0000
1000
,
0010
0100
0001
1000
0100
1001
0000
1000
,
0010
0100
0001
0010
0001
1000
0001
0000
,
1001
0000
0100
0010
0000
1010
0000
0101
0000
1010
0000
1000
0100
0000
0010
0001
,
1000
0000
1000
0001
0000
0110
0000
1001
0000
0110
0000
1000
0010
0100
0001
0010
,
0001
0000
1000
0010
0000
0101
0000
1010
0000
0101
0000
1000
0001
0000
0100
0010
,
2000
0000
0001
0010
0000
0001
0000
0010
0000
0001
0000
0010
0000
0001
3010
0000
,
1000
0010
0001
0010
1000
0100
0001
0100
,
1000
0001
0010
0100
0001
0100
1000
0001
,
0100
1000
0100
0001
0010
0100
0001
0100
,
1000
0001
0010
0001
0011
0000
0110
0000
,
0010
0100
1000
0010
0100
0010
1000
0010
,
0100
0001
0010
0100
0110
0000
0011
0000
,
0010
0100
1100
0000
1000
0010
0110
0000
,
0010
0000
1000
0010
1000
0000
0001
0100
0001
0000
1000
0001
1000
0000
0002
0000
,
2000
3003
0000
0000
0001
0100
0010
1000
1001
1000
0010
0100
0001
1000
0100
0010
,
1001
0001
0010
0100
1000
0010
0100
0001
1001
1000
0010
0100
0010
1000
0100
0010
,
1001
0010
0100
1000
0001
0100
0010
1000
1001
1000
0010
0100
0001
1000
0100
0010
,
1001
0001
0010
0100
1000
0010
0100
0001
1001
1000
0010
0100
0010
1000
0100
0010
,
1001
0010
0100
1000
0001
0000
0001
0000
1000
0000
1000
0000
0010
0000
0010
0000
,
1000
1000
0001
0001
0100
0010
0100
0001
,
0100
0010
1000
1000
0001
0001
0010
0010
,
0100
0100
1000
0001
0100
0010
1000
0001
,
0010
0001
1000
1000
0001
0001
0010
0010
,
0001
0001
1000
0010
1000
0001
1000
0100
,
1000
0001
0010
0010
0001
0001
1000
0010
,
0010
0100
0001
1000
0100
0001
0100
0100
,
1000
0000
0001
0000
1010
0100
0000
0101
0010
0000
0010
1000
0200
0010
0301
0200
,
0010
1300
0200
0310
0011
0100
0000
1100
0010
0000
0100
0001
0020
0100
1030
0020
,
0100
0031
0020
0130
1010
0100
0000
0101
0010
0000
0010
1000
0200
0010
0301
0200
,
0010
1300
0200
0310
0011
0100
0000
1100
0010
0000
0100
0001
0020
0100
1030
0020
,
0100
0031
0020
0130
1000
0100
0001
0100
1000
0010
0001
0010
0100
1000
0100
0001
,
0010
0100
0001
0100
1000
0001
0100
1000
0100
0001
1000
0100
0001
0100
1000
0001
,
0100
1000
0100
0001
0010
1000
0010
0001
0100
1000
0100
0001
0010
0100
0001
0100
,
1000
0010
0001
0010
1000
0010
1000
0010
1000
0100
1000
0100
1000
0001
1000
0010
,
1000
0001
1000
0100
1000
0000
0100
0000
1100
0000
0010
0000
0001
0000
0100
0000
,
0010
0000
1000
0000
0000
0000
0010
0100
0001
0000
0100
0000
0010
0000
1000
0000
,
0001
0100
0001
0010
0011
0100
1000
0010
,
0100
0000
0001
0000
0000
0000
0100
0010
1000
0000
0010
0000
0100
0000
0001
0000
,
1000
0010
1000
0100
1100
0010
0001
0100
,
0010
0000
1000
0000
0000
0000
0010
0100
0001
0000
0100
0000
0010
0000
1000
0000
,
0001
0100
0001
0010
0011
0100
1000
0010
,
0100
0000
0001
0000
0000
0000
0100
0010
1000
0000
0010
0000
0100
0000
0001
0000
,
1000
0010
0100
0001
0101
0010
1000
0100
,
0010
0000
0101
0000
0000
0000
0010
1000
0001
0000
0100
0000
0001
0000
1000
0100
,
1000
0100
0010
0001
0011
1000
0001
0010
,
0100
0000
1010
0000
0000
0000
0100
0001
1000
0000
0010
0000
1000
0000
0001
0010
,
0001
1000
0100
0001
0101
0010
1000
0100
,
0010
0000
0101
0000
0000
0000
0010
1000
0001
0000
0100
0000
0001
0000
1000
0100
,
1000
0000
0100
0000
0010
0000
0001
1000
0010
0000
1000
0001
0010
0000
0001
1000
,
0010
0000
1000
0001
0010
0000
0001
1000
0010
0000
1000
0001
0010
0000
0001
1000
,
0010
0000
1000
0000
0001
0001
0010
0001
0001
0100
0001
0001
1000
0001
0001
0100
,
0001
0001
0010
0001
0000
0000
0000
0000
0000
0000
0000
0000
0000
0000
0000
0000
;
#NOTES:
     dance-single:
     Renard:
     Medium:
     9:
     0.818,1.000,0.000,0.019,0.604:
0000
0000
0000
0000
,
0000
0000
0000
0000
,
0000
0000
0000
0000
,
0000
0000
0000
0000
,
1000
0001
0000
0000
0000
0000
0100
0010
,
0000
0000
0000
0000
,
1000
0010
0000
0000
0000
0000
0100
0001
,
0000
0100
0010
0100
1000
0100
0010
0000
,
0100
0010
1000
0000
0010
0100
0001
0000
,
0100
0010
1000
0100
0010
0001
0010
0000
,
0010
0100
1000
0000
1000
0100
0010
0000
,
0010
0001
0100
0010
1000
0001
0010
0000
,
0010
0100
0010
0000
0010
0001
0010
0000
,
0010
0001
0010
0100
1000
0010
0100
0000
,
0010
1000
0010
0000
0010
0100
0010
0000
,
1000
0010
0100
0001
0010
0001
1000
0000
,
0001
1000
0100
0000
1000
0001
0100
0000
,
0001
1000
0010
0100
0001
0010
0000
0000
,
0001
1000
0010
0000
1000
0001
0010
0000
,
0001
1000
0100
0010
0001
1000
0000
0000
,
0001
1000
0010
1000
0001
0010
0000
0000
,
0001
1000
0010
0100
0001
1000
0000
0000
,
0001
1000
0100
1000
0001
0100
0000
0000
,
0001
1000
0010
1000
0001
0010
0001
0000
,
1000
0000
1000
0100
0000
0001
0000
0100
0000
1000
0000
0001
0100
0000
1000
0100
,
0001
0000
0100
0001
0000
0010
0000
1000
0000
0010
0000
0001
0010
0000
1000
0010
,
0001
0000
0100
1000
0000
0100
0000
0001
0000
1000
0000
0010
0001
0000
0010
0010
,
1000
0000
0100
0001
0000
0100
0000
1000
0000
0001
0000
1000
0000
0010
1000
0001
,
1000
0100
1000
0001
1000
0010
1000
0001
,
1000
0100
1000
0010
1000
0001
1000
0000
,
0001
1000
0001
0100
0001
0010
0001
1000
,
0010
1000
0100
0010
0001
0010
0100
0000
,
1000
0010
0100
1000
0100
0010
0100
0001
,
0010
0100
0010
1000
0010
0100
0010
0000
,
0010
0001
1000
0010
0100
0001
1000
0100
,
1000
0001
0010
0100
1000
0010
0100
0002
,
2000
3003
0000
0000
0001
1000
0100
1000
0001
1000
0100
1000
0001
1000
0100
1000
,
0001
1000
0100
1000
0001
0100
0001
1000
0001
0100
0001
1000
0001
0100
0001
1000
,
0001
0100
0001
1000
0010
1000
0001
1000
0010
1000
0001
1000
0010
1000
0001
1000
,
0010
1000
0001
1000
0001
0010
0001
1000
0001
0010
0001
1000
0001
0010
0001
1000
,
0001
0100
0001
0000
1000
0000
0100
0000
1000
0000
0001
0000
1000
0000
0010
0000
,
1000
0001
1000
0000
1000
0001
0000
0001
,
1000
0000
0001
0100
0001
1000
0001
0010
,
0001
1000
0010
0000
0010
1000
0000
1000
,
0001
0000
0100
0001
1000
0010
1000
0001
,
0010
0001
1000
0000
1000
0001
0000
0001
,
0100
0000
0010
1000
0001
0010
0100
1000
,
0001
0100
0010
0000
0010
1000
0000
1000
,
0001
0000
0000
0000
1000
0100
1000
0100
0010
0001
0010
0001
1000
0010
1000
0010
,
0100
0001
0010
0100
1000
0100
1000
0100
0010
0001
0010
0001
1000
0010
1000
0010
,
0100
0001
0010
0100
1000
0001
1000
0001
0100
0001
0100
0001
1000
0010
1000
0010
,
0100
0001
0010
0100
1000
0001
1000
0001
0100
0001
0100
0001
1000
0010
0100
0001
,
0010
0100
1000
0001
0100
0001
1000
0001
0010
0001
1000
0100
1000
0001
1000
0010
,
1000
0001
0100
0001
0010
0001
1000
0100
1000
0010
0100
0001
1000
0010
0100
0001
,
0010
0100
1000
0001
0100
0010
0100
0010
1000
0010
1000
0010
0100
0001
0100
0001
,
0010
0100
1000
0001
0100
0001
0010
0001
1000
0100
1000
0010
1000
0001
0100
0010
,
1000
1000
0001
0001
1000
0000
0100
0000
0010
0000
0001
0000
0010
0000
0100
0000
,
1000
0010
0100
0001
0010
0100
0010
0001
,
0100
0010
1000
0100
0010
0100
1000
0010
,
0100
0001
0010
0100
0001
0100
0010
0001
,
0100
0010
1000
0100
0010
1000
0010
0100
,
1000
0010
0100
0001
0010
0100
1000
0100
,
0010
0001
0100
0010
1000
0100
0010
0001
,
1000
0010
0100
0001
1000
0001
1000
0010
,
1000
0001
1000
0100
1000
0001
0010
0001
,
1000
0010
0100
0001
1000
0100
0010
0001
,
0010
0100
1000
0001
0100
0001
1000
0100
,
1000
0001
0100
0001
0010
0001
1000
0010
,
1000
0001
0010
0100
0010
0100
1000
0010
,
0100
0001
0010
0100
1000
0001
0100
0001
,
1000
0010
0100
0001
0010
0100
1000
0001
,
0100
0010
1000
1000
0001
0001
0100
0100
,
0010
0000
0010
0000
1000
0000
0010
1000
0000
0001
0000
1000
0000
0100
1000
0001
,
0100
0010
1000
0001
0000
0000
0000
0000
0000
0000
0000
0000
0000
0000
0000
0000
;
#NOTES:
     dance-single:
     Renard:
     Easy:
     8:
     0.590,0.870,0.162,0.029,0.152:
0000
0000
0000
0000
,
0000
0000
0000
0000
,
0000
0000
0000
0000
,
0000
0000
0000
0000
,
0001
1000
0000
0000
0000
0000
0010
0100
,
0000
0000
0000
0000
,
0001
1000
0000
0000
0000
0000
0010
0100
,
0000
0000
0001
1000
0100
1000
0001
0000
,
1000
0000
0100
0000
1000
0001
1000
0000
,
0001
0000
0100
0000
0001
0010
0001
0000
,
1000
0000
0010
0000
0100
0001
1000
0000
,
0001
0000
0010
0100
1000
0100
0010
0000
,
0001
0000
1000
0000
0010
1000
0010
0000
,
0100
0000
0001
0000
1000
0100
1000
0000
,
0001
0000
0010
0000
0001
1000
0010
0000
,
0100
0000
0001
1000
0100
1000
0001
0000
,
1000
0000
0001
0000
0100
0001
0010
0000
,
0001
0000
1000
0000
0010
1000
0100
0000
,
1000
0000
0001
0000
0100
0001
0010
0000
,
0001
0000
1000
0000
0100
1000
0010
0000
,
1000
0000
0001
0000
0100
0001
0010
0000
,
0100
0000
1000
0000
0010
0100
0001
0000
,
1000
0000
0100
0000
1000
0010
0100
0000
,
0001
0000
0000
0000
,
1000
0000
0000
0100
0000
1000
0000
0001
0000
1000
0000
0000
0001
0000
0100
0000
,
0010
0000
0000
1000
0000
0001
0000
0100
0000
0001
0000
0000
0010
0000
0001
0000
,
1000
0000
0000
0001
0000
0100
0000
0010
0000
1000
0000
0000
0001
0000
0010
0000
,
0002
0000
0000
0000
0000
0000
0000
1000
0000
0100
0000
0000
1003
0000
1000
0000
,
0001
0100
0001
0000
1000
0100
1000
0000
,
0001
0000
0010
0000
0100
1000
0001
0000
,
1000
0010
1000
0000
0001
0100
0001
0000
,
1000
0000
0100
0000
0010
0001
1000
0000
,
0001
0100
0010
0000
1000
0010
0100
0000
,
0010
0000
1000
0000
0001
0010
0001
0000
,
1000
0100
1000
0001
,
0100
0010
1000
0001
0010
0100
1000
0002
,
2000
3003
0000
0000
1000
0000
1000
0000
0001
0000
0001
0000
1000
0000
1000
0000
,
0010
0100
0010
0000
1000
0000
1000
0000
0001
0000
0001
0000
1000
0000
0001
0000
,
0010
0100
0010
0000
0001
0000
0001
0000
1000
0000
1000
0000
0001
0000
0001
0000
,
0100
0010
0100
0000
0001
0000
0001
0000
1000
0000
1000
0000
0001
0000
1000
0000
,
0010
0100
0010
0000
1000
0000
0000
0000
0010
0000
0000
0000
1000
0000
0000
0000
,
0001
0000
1000
0000
0000
0001
0000
0000
,
1000
0001
0100
0001
,
1000
0000
0100
0000
0000
0010
0000
0000
,
0001
1000
0010
0100
,
0001
0000
0010
0000
0000
0010
0000
0000
,
0001
1000
0010
0100
,
0001
0000
1000
0100
0010
0001
0000
1000
,
0001
1000
0001
0001
0100
0100
0010
0100
,
1001
0000
1000
1000
0010
0010
0100
0010
,
1001
0000
0100
0100
0001
0001
0010
0100
,
1001
0000
1000
1000
0010
0010
0100
0010
,
1001
0000
0100
0010
1001
0100
0010
0100
,
1001
0010
0100
0010
1001
0100
0010
0100
,
1001
0000
0001
1000
0110
1000
0001
1000
,
0110
0000
0001
0000
1000
0100
1000
0100
1000
0100
1000
0100
1000
0001
1000
0010
,
1000
0001
1000
0000
0001
0000
0100
0000
0001
0000
1000
0000
0001
0000
0010
0000
,
0100
1000
0001
0100
0010
1000
0100
0000
,
1001
0000
0000
1000
0010
0000
1000
0001
,
0100
0000
0010
1000
0001
0100
0001
0000
,
1001
0000
1000
0100
1000
0001
0100
0010
,
1000
0001
0010
0100
1000
0001
1000
0000
,
1001
0000
1000
0010
0100
0001
1000
0000
,
0001
0000
0010
0001
1000
0100
1000
0000
,
0001
0000
1000
0100
1000
0010
0100
0001
,
0010
0100
1000
0001
0100
0001
1000
0000
,
1001
0000
1000
0001
0100
0001
1000
0010
,
1000
0001
0010
0100
1000
0001
1000
0000
,
1001
0000
1000
0010
0100
0010
1000
0000
,
1010
0000
1000
0001
0100
0001
0010
0000
,
0011
0000
0001
1000
0100
0000
1000
0001
,
0100
0000
0001
1000
0100
0010
0001
0010
,
0001
0000
0000
0000
1000
0000
0001
1000
0100
1000
0000
0001
0000
1000
0010
1000
,
0001
0100
0001
1000
0000
0000
0000
0000
0000
0000
0000
0000
0000
0000
0000
0000
;
#NOTES:
     dance-single:
     Renard:
     Beginner:
     7:
     0.480,0.661,0.076,0.067,0.000:
0000
0000
0000
0000
,
0000
0000
0000
0000
,
0000
0000
0000
0000
,
0000
0000
0000
0000
,
1000
0001
0000
0000
0000
0000
1000
0001
,
0000
0000
0000
0000
,
0100
0010
0000
0000
0000
0000
0100
0010
,
0000
0000
1000
0010
1000
0010
1000
0000
,
0001
0100
0001
1000
,
0001
0000
0010
0000
0001
1000
0001
0000
,
1000
0100
1000
0010
,
1000
0000
0001
0000
1000
0100
1000
0000
,
0001
0100
0001
0010
,
0001
0000
1000
0000
0010
1000
0010
0000
,
1000
0001
0100
0001
,
0010
0000
0001
1000
0001
1000
0001
0000
,
1000
0000
0100
0000
1000
0001
0000
0000
,
1000
0000
0001
0000
0100
0001
0000
0000
,
0010
0000
0001
0000
1000
0010
0000
0000
,
0100
0000
0001
0000
1000
0100
0000
0000
,
1000
0000
0001
0000
0010
0001
0000
0000
,
1000
0000
0010
0000
0100
0001
0000
0000
,
1000
0000
0100
0000
1000
0001
0000
0000
,
0100
0010
1000
0001
,
2000
0001
0010
0001
0010
0001
0010
0001
,
3002
1000
0100
1000
0100
1000
0100
1000
,
2003
0001
0010
0001
0010
0001
0010
0001
,
3002
0000
0000
0000
,
1003
0100
1000
0000
0100
1000
0100
0000
,
1000
0001
1000
0000
0001
1000
0001
0000
,
0100
0001
0100
0000
0001
0100
0001
0000
,
0010
0001
0010
0000
0001
0010
0001
0000
,
1000
0001
1000
0000
0100
1000
0100
0000
,
1000
0001
1000
0000
0001
0100
0001
0000
,
1000
0010
1000
0001
,
0010
0001
1000
0001
1000
0000
0001
0000
,
2000
0000
0001
1000
0100
0001
0100
1000
,
0001
0000
0001
1000
0100
0001
0100
0000
,
1000
0000
0001
1000
0010
0001
0010
1000
,
0001
0000
0001
1000
0010
0001
0010
0000
,
1000
0000
0001
0100
0001
0100
0001
0100
,
0001
0100
0001
0000
0000
0001
0000
0000
,
0000
0000
1000
0100
1000
0100
1000
0100
,
1000
0000
1000
0000
0000
1000
0000
0000
,
0000
0000
0001
1000
0001
1000
0001
1000
,
0001
0000
1000
0000
0000
1000
0000
0000
,
0000
0000
0001
0010
0001
0010
0001
0010
,
0001
0000
0001
0000
0000
0001
0000
0000
,
1000
0001
1001
1000
,
1001
0001
1001
1000
,
1001
0100
0110
0010
,
0110
0100
0110
0010
,
0110
0000
0010
1000
0100
0000
0010
0001
,
0100
0000
0010
1000
0100
0000
0010
0001
,
0100
0000
0100
0001
0010
0000
0100
1000
,
0010
0100
0100
0100
,
0100
0001
1000
0100
,
1000
0000
0001
0000
0100
0000
0001
1000
,
0100
1000
0001
0000
1000
0000
0001
0000
,
0010
0000
0001
0000
1000
0000
0010
1000
,
0001
0010
0001
0000
1000
0000
0001
0000
,
1000
0000
0100
0000
1000
0000
0001
0100
,
0001
1000
0100
0000
1000
0000
0001
0000
,
0100
0000
0001
0000
1000
0000
0100
1000
,
0001
0100
0001
0000
1000
0000
0100
0000
,
1000
0000
0001
0000
0100
0000
0001
1000
,
0100
1000
0001
0000
0010
0000
0001
0000
,
1000
0000
0010
0000
1000
0000
0001
0010
,
0001
1000
0010
0000
1000
0000
0001
0000
,
0100
0000
0001
0000
1000
0000
0100
1000
,
0001
0010
0001
0000
1000
0000
0010
0000
,
1000
0000
0001
0100
0010
1000
0100
0010
,
0001
2000
0002
0000
0000
0000
0000
0000
,
0000
0000
0000
3003
0000
0000
0000
0000
0000
0000
0000
0000
0000
0000
0000
0000
;
