#TITLE:Radioactive Rats (GLaDOS Edit);
#SUBTITLE:;
#ARTIST:Emoticon;
#TITLETRANSLIT:;
#SUBTITLETRANSLIT:;
#ARTISTTRANSLIT:;
#CRChallenge:;
#BANNER:;
#BACKGROUND:;
#LYRICSPATH:;
#CDTITLE:;
#MUSIC:rr.ogg;
#OFFSET:0.000;
#SAMPLESTART:60.323;
#SAMPLELENGTH:12.000;
#SELECTABLE:YES;
#DISPLAYBPM:8:175;
#BPMS:0.000=175.000,28.000=43.750,56.000=175.000,88.000=87.500,118.000=175.000,132.000=43.750,144.000=175.000;
#STOPS:2.950=-4.120
,14.999=2.745
,15.000=-4.120
,30.000=-10.971
,38.375=-10.971
,46.750=-10.971
,121.950=-3.429
,134.938=-10.971
,324.000=5.143
;
#BGCHANGES:;
#NOTES:
     dance-single:
     JS:
     Hard:
     10:
     0.744,0.993,0.157,0.232,0.613:
0000
0000
0000
0000
0000
0000
1000
0100
,
0001
0100
1000
0010
0100
0001
0010
0100
,
1000
0001
0100
0010
1000
0001
0000
0000
,
0000
0000
0000
0000
0000
0000
M000
0M00
,
000M
0M00
M000
00M0
0M00
000M
00M0
0M00
,
M000
000M
0M00
00M0
M000
000M
0000
0000
,
0000
0000
0000
0000
,
0000
0000
0000
0000
,
0000
0000
0000
0000
,
0000
0000
0000
0000
,
1000
0000
0000
0000
,
0000
0000
0000
0000
,
1000
0100
1000
0000
0000
0000
0000
0000
0000
0000
0000
0000
0000
0000
0000
0000
,
0000
0000
0000
0000
,
1000
0100
1000
0000
0100
0000
0010
0000
0001
0000
1000
0000
0010
0000
0100
0000
,
0001
0010
0001
0000
0100
0000
0010
0000
1000
0000
0100
0000
0010
0000
0001
0000
,
0101
0000
1000
1100
0000
0001
0101
0000
,
1000
0010
0100
0001
0010
0100
1100
0000
,
0001
0100
0001
0000
0100
0000
0010
0000
1000
0000
0001
0000
0010
0000
0100
0000
,
1000
0010
1000
0000
0100
0000
0010
0000
0001
0000
0100
0000
0010
0000
1000
0000
,
1100
0000
0001
0101
0000
1000
1100
0000
,
1001
0000
0000
0000
1000
0100
1000
0000
0001
0100
0001
0100
0001
0000
1000
0000
,
2001
0000
0000
0000
3200
0320
0000
0032
,
0000
0000
0000
0000
MMM3
0000
2000
3020
,
0032
0000
0023
0000
2030
3200
0000
2300
,
0000
0000
3MMM
0000
,
0200
0000
0000
0000
0320
0032
0000
0023
,
0000
0000
0000
0000
0030
MM0M
0002
0000
,
0203
0000
0320
0000
2030
3200
0000
0320
,
0000
0000
0000
0000
0000
0000
0000
0000
0031
0100
0001
0100
0010
1000
0010
1000
,
0001
0000
0110
0000
1000
0100
0010
0001
,
0100
0000
1000
0000
0000
0000
0000
0000
1000
0100
1000
0100
0010
0001
0010
0001
,
1000
0110
0000
0000
,
M000
0M00
00M0
000M
0M00
M000
0000
0000
,
M000
0M00
M000
0M00
00M0
000M
00M0
000M
M000
0000
0000
0000
0MM0
0000
0000
0000
,
M000
000M
000M
0M00
000M
000M
0000
0000
,
1000
0100
1000
0100
0010
0001
0010
0001
1000
0000
0000
0000
0110
0000
0000
0000
,
1000
0001
0001
0100
0001
0001
0010
0100
,
1000
0010
0010
0100
0010
0010
1000
0100
,
0010
0001
0001
0100
0001
0001
0010
0100
,
1000
0010
0010
0001
0010
0010
0100
0001
,
1000
0100
1000
0100
0010
0000
0001
0010
0001
0010
0100
0000
1000
0000
0010
0000
,
0100
0001
0100
0001
1000
0000
0010
1000
0010
1000
0001
0000
0010
0000
0100
0000
,
1000
0010
1000
0010
0100
0000
0001
0100
0001
0100
0010
0000
1000
0000
0100
0000
,
0010
0001
0010
0001
1000
0000
0100
1000
0100
1000
0001
0000
0100
0000
0010
0000
,
1000
0100
1000
0100
0010
0000
0001
0010
0001
0010
0100
0000
1000
0001
0010
0000
,
0001
0100
0001
0100
0010
0000
1000
0010
1000
0010
0100
0000
0001
1000
0010
0000
,
1000
0001
1000
0001
0010
0000
0001
1000
0001
1000
0100
0000
0010
0001
0100
0000
,
0001
1000
0001
1000
0010
0000
1000
0001
1000
0001
0100
0000
0010
1000
0100
0000
,
0010
0001
0010
0001
0100
0000
0010
1000
0010
1000
0100
0000
0010
0001
1000
0010
,
0100
0001
0100
0001
0010
0000
0100
1000
0100
1000
0010
0000
0100
0001
1000
0100
,
1000
0001
1000
0001
0010
0000
0001
1000
0001
1000
0010
0000
1000
0001
0100
0000
,
0202
0000
0000
0000
0000
0000
0000
0303
0M0M
0000
0000
0000
1010
0000
0000
0000
,
1000
0000
0100
0000
0010
0000
0001
0100
0001
0000
1000
0010
1000
0000
0001
0000
,
1000
0000
0010
0000
0100
0000
0001
0010
0001
0000
1000
0100
1000
0000
0001
0000
,
0100
0000
0010
0000
1000
0000
0001
0010
0001
0000
1000
0010
1000
0000
0001
0000
,
0010
0000
0100
0000
1000
0000
0001
0100
0001
0000
1000
0100
1000
0000
0001
0000
,
0010
0100
0010
0000
0001
0000
0000
0000
1000
0010
1000
0000
0100
0000
0000
0000
,
0010
0001
0100
0010
1000
0001
0011
0000
,
0001
1000
0001
0000
0100
0000
0000
0000
0010
0100
0010
0000
1000
0000
0000
0000
,
0100
0010
0001
0100
0010
1000
1100
0000
,
0001
0000
0100
0000
0010
0000
1000
0100
1000
0000
0001
0010
0001
0000
1000
0000
,
0001
0000
0010
0000
0100
0000
1000
0010
1000
0000
0001
0100
0001
0000
1000
0000
,
0100
0000
0010
0000
0001
0000
1000
0010
1000
0000
0001
0010
0001
0000
1000
0000
,
0010
0000
0100
0000
0001
0000
1000
0100
1000
0000
0001
0100
0001
0000
1000
0000
,
0010
0100
0010
0000
1000
0000
0000
0000
0001
0010
0001
0000
0100
0000
0000
0000
,
0010
1000
0100
0010
0001
1000
1010
0000
,
1000
0100
0010
0001
1000
0010
0100
0001
,
1001
0000
0000
0000
1000
0010
1000
0000
0001
0010
0001
0010
0001
0000
1000
0000
,
0002
0000
0103
0010
0000
0000
0000
0000
,
0000
0000
0000
0000
,
0000
0000
0000
0000
,
1000
0000
0000
0000
0000
0001
0000
0000
0000
0000
1000
0000
0000
0000
0000
0001
0000
0000
0000
0000
0000
0000
0000
0000
,
1000
0100
1000
0100
0010
0000
0001
0010
0001
0010
0100
0000
1000
0001
0010
0000
,
0001
0100
0001
0100
0010
0000
1000
0010
1000
0010
0100
0000
0001
1000
0010
0000
,
1000
0001
1000
0001
0010
0000
0001
1000
0001
1000
0100
0000
0010
0001
0100
0000
,
0001
1000
0001
1000
0010
0000
1000
0001
1000
0001
0100
0000
0010
1000
0100
0000
,
0010
0001
0010
0001
0100
0000
0010
1000
0010
1000
0100
0000
0010
0001
1000
0010
,
0100
0001
0100
0001
0010
0000
0100
1000
0100
1000
0010
0000
0100
0001
1000
0100
,
1000
0001
1000
0001
0010
0000
0001
1000
0001
1000
0010
0000
1000
0001
0100
0000
,
0001
0010
0001
0010
0100
0000
1000
0100
1000
0100
0010
0000
0002
0000
0000
0000
,
2000
0000
0000
0000
3003
0000
0000
0000
0000
0000
0000
0000
1001
0000
0000
0000
0000
0000
0000
0000
0000
0000
0000
0000
0001
0000
0000
0100
0000
0000
0001
0000
0000
0000
0000
0000
1000
0000
0000
0010
0000
0000
0100
0000
0000
0001
0000
0000
,
1000
0002
2000
0000
0000
3003
0000
0000
;
#NOTES:
     dance-single:
     JS:
     Medium:
     8:
     0.481,0.582,0.257,0.323,0.025:
0000
0000
0000
0000
0000
0000
1000
0100
,
0010
0001
1000
0000
0110
0000
0001
0100
,
0010
1000
0001
0000
0110
0000
0000
0000
,
0000
0000
0000
0000
0000
0000
M000
0M00
,
00M0
000M
M000
0000
0MM0
0000
000M
0M00
,
00M0
M000
000M
0000
0MM0
0000
0000
0000
,
0000
0000
0000
0000
,
0000
0000
0000
0000
,
0000
0000
0000
0000
,
0000
0000
0000
0000
,
1000
0000
0000
0000
,
0000
0000
0000
0000
,
1000
0100
0000
0000
0000
0000
0000
0000
,
0000
0000
0000
0000
,
1000
0100
0010
0001
0100
0000
1010
0000
,
0001
0100
0010
1000
0100
0000
0011
0000
,
0110
0000
0000
1100
0000
0000
1001
0000
,
0001
0100
0001
0010
0100
1000
0001
0000
,
1000
0010
0100
0001
0010
0000
1100
0000
,
0001
0010
0100
1000
0010
0000
0101
0000
,
1010
0000
0000
1001
0000
0000
0011
0000
,
0220
0000
0000
0330
,
2001
0000
0000
0000
3200
0320
0000
0032
,
0000
0000
0000
0000
00M3
0000
2000
3020
,
0032
0000
0023
0000
2030
3200
0000
2300
,
0000
0000
3M00
0000
,
0200
0000
0000
0000
0320
0032
0000
0023
,
0000
0000
0000
0000
0030
000M
0002
0000
,
0203
0000
0320
0000
2030
3200
0000
0320
,
0000
0000
0000
0000
0031
0100
0010
1000
,
0001
0000
0110
0000
0001
1000
0100
0000
,
0010
0001
0000
0000
0000
0000
0000
0000
,
0000
0000
0000
0000
,
000M
M000
0M00
0000
00M0
000M
0000
0000
,
M000
0M00
00M0
000M
M000
0000
0MM0
0000
,
0000
0000
0000
0000
,
1000
0100
0010
0001
1000
0000
0110
0000
,
0001
0000
0100
0001
0000
0010
0100
1000
,
0001
0000
0010
0001
0000
0001
0100
0010
,
1000
0000
0100
1000
0000
0010
0100
0001
,
1000
0000
0100
1000
0000
1000
0100
0010
,
0001
0010
0010
0001
0000
0010
0001
0000
,
1000
0010
0010
1000
0000
0010
0100
0001
,
0100
0100
0010
0100
0000
0001
0010
0000
,
0100
0100
0010
0100
0000
1000
0010
0100
,
0001
1000
0100
0010
0000
0100
1000
0010
,
1000
0001
0100
0010
0000
0100
0001
0010
,
0001
0100
0010
1000
0000
0010
0100
0010
,
1000
0100
0010
0001
0000
0010
0100
0010
,
0001
0100
0001
0100
0010
1000
0010
1000
,
0100
0010
0100
0010
0100
1000
0010
0100
,
0001
0010
0001
0010
0100
1000
0100
1000
,
0010
0010
0010
0000
0100
0000
1001
0000
,
1000
0000
1010
0000
0000
0001
0011
0000
,
1000
0000
0000
0000
0010
0000
0000
0010
0000
0000
0100
0000
0101
0000
0000
0000
,
0001
0000
0011
0000
0000
1000
1010
0000
,
0001
0000
0000
0000
0010
0000
0000
0010
0000
0000
0100
0000
1100
0000
0000
0000
,
0001
0000
0101
0000
0000
1000
1100
0000
,
0010
0000
0000
0000
0001
0000
0000
0001
0000
0000
1000
0000
0110
0000
0000
0000
,
1000
0000
1100
0000
0000
0001
0101
0000
,
0010
0000
0000
0000
1000
0000
0000
1000
0000
0000
0001
0000
0110
0000
0000
0000
,
2000
0000
0010
0000
0100
0100
0100
0000
,
3020
0230
0001
0302
,
1000
0000
0010
0000
1000
1000
1000
0000
,
0100
1000
0023
0001
,
0230
0000
0010
0000
2300
0100
0100
0000
,
3020
0230
1000
0302
,
0010
0000
1000
0000
0100
0100
0103
0000
,
0220
0000
0000
0000
,
0330
0000
0000
0000
,
0000
0000
0000
0000
,
0000
0000
0000
0000
,
1000
0000
0000
0000
0000
0001
0000
0000
0000
0000
1000
0000
0000
0000
0000
0001
0000
0000
0000
0000
0000
0000
0000
0000
,
1000
0001
0010
0100
0000
0010
0001
0100
,
0001
1000
0010
0100
0000
0010
1000
0100
,
1000
0010
0100
0001
0000
0100
0010
0100
,
0001
0010
0100
1000
0000
0100
0010
0100
,
1000
0010
1000
0010
0100
0001
0100
0001
,
0010
0100
0010
0100
0010
0001
0100
0010
,
1000
0100
1000
0100
0010
0001
0010
0001
,
0100
0100
0100
0000
0010
0000
2000
0000
,
0002
0000
3003
0000
0000
0000
1001
0000
0000
0000
0000
0000
0001
0000
0000
0100
0000
0000
0001
0000
0000
0001
0000
0000
,
0002
0000
2000
0000
0000
3003
0000
0000
;
#NOTES:
     dance-single:
     JS:
     Easy:
     6:
     0.358,0.445,0.108,0.274,0.000:
0000
0000
0000
1000
,
0100
0000
0010
0001
0010
0000
0001
0000
,
0100
0000
0010
1000
0010
0000
0000
0000
,
0000
0000
0000
M000
,
0M00
0000
00M0
000M
00M0
0000
000M
0000
,
0M00
0000
00M0
M000
00M0
0000
0000
0000
,
0000
0000
0000
0000
,
0000
0000
0000
0000
,
0000
0000
0000
0000
,
0000
0000
0000
0000
,
1000
0000
0000
0000
,
0000
0000
0000
0000
,
1000
0100
0000
0000
0000
0000
0000
0000
,
0000
0000
0000
0000
,
1000
0100
1000
0000
0010
0000
0100
0000
,
0001
0100
0001
0000
0010
0000
0100
0000
,
2001
0000
0000
0001
0000
0000
3001
0000
,
0001
1000
0001
0000
0010
0000
0010
0000
,
0001
0100
0001
0000
0010
0000
0100
0000
,
1000
0100
1000
0000
0010
0000
0100
0000
,
1002
0000
0000
1000
0000
0000
1003
0000
,
0220
0000
0000
0330
,
1000
0000
0000
0000
0100
0010
0000
0001
,
0000
0000
0000
0000
0000
0000
1000
0010
,
1000
0000
0100
0000
0010
0001
0000
0010
,
0000
0000
0000
0000
,
0100
0000
0000
0000
0010
0001
0000
0010
,
0000
0000
0000
0001
,
0100
0000
0010
0000
1000
0100
0000
0010
,
0000
0000
0000
0000
0001
1000
0001
1000
,
0001
1001
0110
0000
,
0000
0000
0000
0000
,
0000
0000
0000
0000
,
0220
0000
0000
0000
0000
0000
0000
0000
0000
0000
0000
0000
0000
0000
0000
0000
0000
0000
0000
0000
0000
0000
0000
0000
0000
0000
0000
0000
0000
0000
0000
0000
0000
0000
0000
0000
0000
0000
0000
0000
0000
0000
0000
0000
0000
0000
0000
0000
0000
0000
0000
0000
0000
0000
0000
0000
0000
0000
0000
0000
0000
0000
0000
0330
,
1000
0001
1000
0001
1000
0000
1001
0000
,
0000
0000
0000
0000
,
1000
0001
1000
0001
1000
0000
1001
0000
,
1000
0000
0100
1000
0000
0100
1000
0000
,
0001
0000
0100
0001
0000
0100
0001
0000
,
1000
0000
0010
1000
0000
0010
1000
0000
,
0001
0000
0010
0001
0000
0010
0001
0000
,
1000
0000
0001
1000
0000
0001
1000
0000
,
0001
0000
1000
0001
0000
1000
0001
0000
,
0010
0000
0100
0010
0000
0100
0010
0000
,
0001
0000
1000
0100
0000
0010
0001
0000
,
1100
0000
0001
0000
1000
0100
1000
0000
,
0010
0000
0100
0000
0001
0010
0001
0000
,
1000
0000
0010
0000
0100
0001
0100
0000
,
0010
0000
1000
0000
0100
0010
0100
0000
,
1000
0000
1000
0100
0000
0100
0010
0000
,
0001
0000
0001
0100
0000
0100
0010
0000
,
1000
0000
1000
0001
0000
0001
0010
0000
,
0001
0001
0001
0000
0001
0000
1001
0000
,
2000
0001
0001
0001
,
3200
0320
0000
0032
,
0100
0000
1000
0000
,
0010
0000
0203
0320
,
2030
0100
3200
0010
,
0320
0032
0000
2003
,
0010
0000
0001
0000
,
0100
0000
3001
0000
,
0002
0100
0100
0100
,
2003
3020
0000
2030
,
0100
0000
0001
0000
,
0010
0000
3002
0000
,
0023
0100
0230
1000
,
2300
3020
0000
0230
,
0000
0000
0000
0300
,
2002
0000
0000
0000
,
3003
0000
0000
0000
,
0000
0000
0000
0000
,
0000
0000
0000
0000
,
0002
0000
0000
0000
0000
1003
0000
0000
,
1100
0000
0001
0000
1000
0100
1000
0000
,
0010
0000
0100
0000
0001
0010
0001
0000
,
1000
0000
0010
0000
0100
0001
0100
0000
,
0010
0000
1000
0000
0100
0010
0100
0000
,
1000
0000
1000
0100
0000
0100
0010
0000
,
0001
0000
0001
0100
0000
0100
0010
0000
,
1000
0000
1000
0001
0000
0001
0010
0000
,
0001
0001
0001
0000
0001
0000
1001
0000
,
2000
0001
0001
0001
,
3200
0000
0320
0000
0000
0030
0000
0000
;
#NOTES:
     dance-single:
     JS:
     Beginner:
     3:
     0.242,0.377,0.099,0.348,0.000:
0000
0000
0000
1001
,
0000
0000
0000
0000
,
0000
0000
0000
0000
,
0000
0000
0000
2002
,
0000
0000
0000
0000
,
0000
0000
0000
3003
,
0000
0000
0000
0000
,
0000
0000
0000
0000
,
0000
0000
0000
0000
,
0000
0000
0000
0000
,
1000
0100
0000
0000
,
0000
0000
0000
0000
,
1000
0100
0010
0001
,
0000
0000
0000
0000
,
1000
0100
0010
0001
,
1000
0010
0100
0001
,
0020
0000
0001
0000
,
0002
0000
0000
0033
,
0001
0100
0010
1000
,
0001
0010
0100
1000
,
0020
0000
1000
0000
,
1030
0000
0000
0000
,
0020
0000
0000
0000
,
2030
0000
0000
0000
,
3002
0000
0000
0000
,
0203
0000
0000
0000
,
0320
0000
0000
0000
,
2030
0000
0000
0000
,
3002
0000
0000
0000
,
0023
0000
0030
0000
,
0000
1001
2002
0000
,
3003
0000
0000
0000
,
0000
0000
0000
0000
,
2002
0000
0000
0000
,
0000
0000
3003
0010
,
0000
0000
0000
0000
,
0000
0000
0000
0010
,
1000
0100
1000
0100
,
0010
0001
0010
0001
,
1000
0010
1000
0010
,
0100
0001
0100
0001
,
1010
1000
1000
0000
,
0011
0001
0001
0000
,
1100
1000
1000
0000
,
0101
0001
0001
0000
,
1000
0000
0000
1000
0000
0000
1000
0000
,
0001
0000
0000
0001
0000
0000
0001
0000
,
1000
0000
0000
1000
0000
0000
1000
0000
,
0001
0000
0000
0001
0000
0000
0001
0000
,
0010
0000
0000
0010
0000
0000
0010
0000
,
0100
0000
0000
0100
0000
0000
0100
0000
,
0010
0000
0000
0010
0000
0000
0010
0000
,
0100
0100
0100
1001
,
2000
0000
0000
0000
,
3200
0320
0000
0032
,
0000
0000
0000
0000
,
0003
0000
0002
0203
,
0320
0000
2030
0000
,
3200
2300
0000
3020
,
0000
0000
0000
0000
,
0030
0000
0000
0000
,
0200
0000
0000
0000
,
0302
0023
0000
0032
,
0000
0000
0000
0000
,
0003
0000
0002
0000
,
0023
0000
0230
0000
,
2300
3020
0000
0230
,
0000
0000
0000
0300
,
1001
0000
0000
0000
,
0000
0000
0000
0000
,
0000
0000
0000
0000
,
0000
0000
0000
0000
,
0002
0000
0000
0000
0000
0003
0000
0000
,
1000
0000
0000
1000
0000
0000
1000
0000
,
0001
0000
0000
0001
0000
0000
0001
0000
,
1000
0000
0000
1000
0000
0000
1000
0000
,
0001
0000
0000
0001
0000
0000
0001
0000
,
0010
0000
0000
0010
0000
0000
0010
0000
,
0100
0000
0000
0100
0000
0000
0100
0000
,
0010
0000
0000
0010
0000
0000
0010
0000
,
0100
0100
0100
1001
,
2000
0001
0001
0001
,
3200
0000
0320
0000
0000
0030
0000
0000
;
