#TITLE:Pwnage U N00bs EX;
#SUBTITLE:;
#ARTIST:Bonehead & Princess Of Darkness;
#TITLETRANSLIT:;
#SUBTITLETRANSLIT:;
#ARTISTTRANSLIT:;
#CRChallenge:;
#BANNER:;
#BACKGROUND:;
#LYRICSPATH:;
#CDTITLE:;
#MUSIC:n00bs.ogg;
#OFFSET:0.000;
#SAMPLESTART:19.999;
#SAMPLELENGTH:12.000;
#SELECTABLE:NO;
#BPMS:0.000=150.000,48.000=600.000,176.000=300.000,240.000=600.000,304.000=150.000,313.000=600.000,377.000=300.000,441.000=150.000,473.000=1200.000,729.000=600.000;
#STOPS:312.000=2.000
;
#BGCHANGES:;
#NOTES:
     dance-single:
     Renard:
     Challenge:
     15:
     1.000,1.000,0.920,0.108,0.010:
0000
0000
0000
0000
,
0000
0000
0000
0000
,
0000
0000
0000
0000
,
0000
0000
0000
0000
,
2001
0100
0001
0100
,
0001
0000
0100
3000
1001
0110
1001
0000
,
1002
0100
1000
0100
,
1000
0000
0100
0003
1001
0110
1001
0000
,
2001
0010
0001
0010
,
0001
0000
0000
0000
0010
0000
3000
0000
0001
0000
0001
0000
1000
0100
0010
0002
,
2000
0000
0000
0000
,
0000
0000
0000
0000
0000
0000
0000
3003
,
0001
0010
0100
1000
,
0100
0010
0001
0100
,
0010
1000
0100
0010
,
0001
0010
0100
1000
,
0010
0100
0001
0010
,
0100
1000
0100
0010
,
0001
0100
0010
1000
,
0100
0010
0100
1000
,
0010
0100
0001
0010
,
0100
0010
0001
0100
,
0010
1000
0100
0010
,
0100
1000
0010
0100
,
0001
0100
0010
1000
,
0010
1000
0001
0100
,
0101
0000
0110
0000
,
1010
0000
1001
0000
,
0001
1000
0100
0010
,
0100
1000
0010
0100
,
0001
0010
0100
0010
,
0001
0100
0010
1000
,
0100
0010
0001
0010
,
0100
1000
0001
0100
,
0010
1000
0100
0010
,
0100
1000
0010
0100
,
0001
0010
0100
0010
,
0001
0100
0010
1000
,
0100
0001
0100
1000
,
0010
0001
0010
1000
,
0100
0010
0001
0010
,
0100
0010
1000
0010
,
0001
0010
0100
0010
,
1000
0010
0100
0010
,
0011
0011
0110
0110
,
1100
1100
0110
0110
,
0011
1010
0110
0011
,
1010
0110
0011
1010
,
0011
0011
0110
0110
,
0101
0101
1100
1100
,
1100
0110
0101
1100
,
0110
0101
1100
0110
,
1010
1010
0110
0110
,
0011
0011
0110
0110
,
1010
0110
0011
1010
,
0110
0011
1010
0110
,
1100
1100
0110
0110
,
0101
0101
0110
0110
,
1100
0110
0101
1100
,
0110
0000
0101
0000
0100
1000
0001
0010
,
0001
0100
0001
0100
,
0010
0100
0010
0100
,
1000
0100
1000
0100
,
0010
0100
0010
0100
,
0001
0010
0001
0010
,
0100
0010
0100
0010
,
1000
0010
1000
0010
,
0100
0010
0100
0010
,
0001
1000
0001
1000
,
0010
1000
0010
1000
,
0100
1000
0100
1000
,
0010
1000
0010
1000
,
0001
1000
0001
1000
,
0001
0100
0001
0100
,
0001
1000
0100
0010
,
0001
1000
0010
0200
,
0002
0000
0000
0000
,
0000
0000
0000
0000
0000
0000
0000
0303
,
1011
0001
0100
1000
,
0100
0001
0010
0001
,
0100
1000
0100
0001
,
0010
0001
0100
1000
,
0100
0001
0010
0001
,
0100
1000
0100
0001
,
0010
0100
1000
0100
,
0001
0100
1000
0010
,
0100
0001
0010
1000
,
0010
0001
0100
0001
,
0010
1000
0010
0001
,
0100
0001
0010
1000
,
0010
0001
0100
1000
,
0100
0001
0010
0001
,
0100
1000
0100
0001
,
0010
1000
0010
0001
,
0100
1000
1000
0100
,
0100
0001
0001
0010
,
0010
0100
0100
0001
,
0001
1100
1100
1001
,
1010
1100
1000
1000
,
1000
0100
0100
0100
,
0100
0001
0001
0001
,
0001
0110
0010
1001
,
0100
1001
0001
0001
,
0001
0100
0100
0100
,
0100
0010
0010
1000
,
1000
1001
0100
1010
,
0100
1001
1000
1000
,
1000
0100
0100
0100
,
0100
0010
0010
0010
,
0010
0000
1001
0000
0110
0000
0001
1000
,
0001
0000
2001
0001
0001
0001
0001
0001
,
0001
0001
0001
0001
0001
0001
0001
0001
,
0001
3001
1002
1000
1000
1000
1000
1000
,
1000
1000
1000
1000
1000
1000
1000
1000
,
1000
1003
2001
0000
0001
0000
0010
0000
,
0010
0001
0001
0100
,
0100
3100
1002
0000
1000
0000
0100
0000
,
0100
1000
1000
0100
,
0100
0103
0001
0000
1000
0000
0001
0000
,
1000
0001
1000
0001
,
1000
0001
1000
0001
,
1000
0001
1000
0001
,
1000
0001
1000
0001
,
1000
0001
1000
0001
,
1000
0001
1000
0001
,
1000
0001
1000
0001
,
1000
0001
1000
0001
,
1000
0001
1000
0001
,
1000
0001
1000
0001
,
1000
0001
1000
0001
,
1000
0001
1000
0001
,
1000
0001
1000
0001
,
1000
0001
1000
0001
,
1000
0001
1000
0001
,
1000
0001
1000
0001
,
1000
0001
1000
0001
,
1000
0001
1000
0001
,
1000
0001
1000
0001
,
1000
0001
1000
0001
,
1000
0001
1000
0001
,
1000
0001
1000
0001
,
1000
0001
1000
0001
,
1000
0001
1000
0001
,
1000
0001
1000
0001
,
1000
0001
1000
0001
,
1000
0001
1000
0001
,
1000
0001
0000
0010
,
0000
1000
0000
0010
,
0000
0001
0000
0100
,
0000
1000
0000
0100
,
0000
0001
1000
0001
,
1000
0001
1000
0001
,
1000
0001
1000
0001
,
1000
0001
1000
0001
,
1000
0001
1000
0001
,
1000
0001
1000
0001
,
1000
0001
1000
0001
,
1000
0001
1000
0001
,
1000
0001
1000
0001
,
1000
0001
1000
0001
,
1000
0001
1000
0001
,
1000
0001
1000
0001
,
1000
0001
1000
0001
,
1000
0001
1000
0001
,
1000
0001
1000
0001
,
1000
0001
1000
0001
,
1000
0001
1000
0001
,
1000
0001
1000
0001
,
1000
0001
1000
0001
,
1000
0001
1000
0001
,
1000
0001
1000
0001
,
1000
0001
1000
0001
,
1000
0001
1000
0001
,
1000
0001
1000
0001
,
1000
0001
1000
0001
,
1000
0001
1000
0001
,
1000
0001
1000
0001
,
1000
0001
1000
0001
,
1000
0001
0000
0100
,
0000
1000
0000
0100
,
0000
0001
0000
0010
,
0000
1000
0000
0010
,
0000
1001
0000
0000
;
