#TITLE:Propane Nightmares (Celldweller Remix);
#SUBTITLE:;
#ARTIST:Pendulum;
#TITLETRANSLIT:;
#SUBTITLETRANSLIT:;
#ARTISTTRANSLIT:;
#CRChallenge:;
#BANNER:propane.png;
#BACKGROUND:propane-bg.png;
#LYRICSPATH:;
#CDTITLE:;
#MUSIC:propane.ogg;
#OFFSET:0.000;
#SAMPLESTART:14.363;
#SAMPLELENGTH:12.000;
#SELECTABLE:YES;
#BPMS:0.000=174.000,188.000=87.000,204.000=174.000;
#STOPS:273.000=0.690
;
#BGCHANGES:;
#NOTES:
     dance-single:
     Renard:
     Hard:
     10:
     0.737,0.978,0.804,0.324,0.221:
0000
0000
0000
0000
,
0000
0000
0000
0000
,
0000
0000
0000
0000
,
0000
0000
0000
0000
,
1001
0000
0000
0100
0000
0000
1001
0000
0000
0010
0000
0000
1001
0000
0110
0000
,
0000
0000
0000
0000
,
0110
0000
0000
1000
0000
0000
0110
0000
0000
0001
0000
0000
0110
0000
1002
0000
,
2000
0000
0003
0001
0002
0000
0000
3003
,
1010
0000
0000
0101
0000
0000
1010
0000
0000
0101
0000
0000
1000
0000
0001
0000
,
0011
0000
0000
1100
0000
0000
0011
0000
0000
1100
0000
0000
0001
0000
1000
0000
,
1001
0110
1001
0110
1001
0000
0000
0000
,
2010
0000
3001
0000
0012
0000
1003
0001
,
0100
0100
0010
0010
1000
0000
0101
0000
,
2001
0000
3100
0000
1002
0000
0103
0001
,
1000
0100
0001
0100
1000
0000
1001
0000
,
0102
0000
1003
0000
2100
0000
3001
1000
,
0010
0010
0100
0100
0001
0000
1010
0000
,
0101
0000
0000
0000
0010
0000
1000
0100
0000
1000
0010
0000
1000
0000
0100
0000
,
0011
0000
0000
0000
0001
0000
0100
0001
0010
0000
0000
0000
1001
0000
0000
0000
,
0001
0001
1000
1000
0001
0001
1000
1000
,
0001
0001
1000
1000
0010
0010
0020
0000
,
1030
1000
0001
0001
1000
1000
0001
0001
,
1000
1000
0001
0001
0100
0100
1001
0000
,
0100
0000
1001
0000
1000
0100
0001
0100
,
1000
0000
1001
0000
0001
0100
1000
0100
,
0001
0000
1001
0000
0001
0010
1000
0010
,
0001
0000
1001
0000
1000
0010
0001
0010
,
1000
0000
1001
0000
1000
0100
0010
0100
,
1000
0000
1001
0000
0001
0010
0100
0010
,
0001
0000
1001
0000
1000
0010
0100
0010
,
1000
0000
1001
0000
0001
0100
0010
0100
,
0001
0100
1000
0100
0010
0100
0001
0000
,
0101
0000
0000
0000
0110
0000
0000
0100
0000
0100
0001
0000
1000
0001
1000
0000
,
0001
0100
1000
0100
0010
0100
0001
0000
,
0101
0000
0000
0000
0110
0000
0000
0100
0000
0100
0001
0000
1000
0001
1000
0000
,
0001
0100
1000
0100
0010
0100
0001
0000
,
0101
0000
0000
0000
0110
0000
0000
0100
0000
0100
0001
0000
1000
0001
1000
0000
,
0001
0100
1000
0100
0010
0100
0001
0000
,
0101
0110
2002
3013
,
1000
0000
1000
0001
0100
0000
0000
0001
0000
0001
0010
0000
0000
0100
0000
0100
,
1000
0000
0000
0000
1001
0000
0100
0001
0100
0000
0010
0000
2002
0000
0000
0000
,
3013
0000
0000
0000
1001
0000
0000
0100
0000
0100
0001
0000
0000
0010
0000
0010
,
0100
0000
0000
0000
1100
0000
0000
0000
0010
0001
0010
0000
1001
0000
0000
0000
,
0110
0000
0000
0000
1010
0000
0000
1000
0000
1000
0100
0000
0000
0010
0000
0010
,
0001
0000
0000
0000
1001
0000
0010
1000
0010
0000
0100
0000
2002
0000
0000
0000
,
3013
0000
0000
0000
1001
0000
0000
0010
0000
0000
2200
0000
0000
0000
0000
0000
,
3311
1000
0202
0313
,
0002
0000
0000
0000
,
2003
0000
0000
0000
,
3020
0000
0000
0000
,
0230
0302
2003
3200
,
1300
0100
0001
1000
0001
0100
1000
0000
,
0001
0100
1000
0001
1000
0100
0001
0000
,
1000
0100
0001
1000
0001
0100
1000
0000
,
0001
0100
1000
0001
1000
0100
0001
0000
,
0001
0010
1000
0001
1000
0010
0001
0000
,
1000
0010
0001
1000
0001
0010
1000
0000
,
0001
0010
1000
0001
1000
0010
0001
0000
,
1000
0010
0001
1000
0001
0010
1000
0000
,
2010
0010
0010
0010
0010
0010
3010
0000
,
0102
0100
0100
0100
0100
0100
0103
0000
,
0021
0001
0001
0001
0001
0001
0031
0000
,
1200
1000
1000
1000
1000
1000
1300
0000
,
1000
0100
1100
0100
0010
0001
0011
0001
,
0100
0001
0101
0100
0010
1000
1010
1000
,
1100
0100
0110
0010
0011
0001
0101
0100
,
0110
0010
1010
1000
1100
0100
0110
0010
,
0001
0010
0100
1000
0100
0010
0001
1000
0100
0010
0001
0010
0100
1000
0001
2000
,
0002
3013
1111
1111
;
#NOTES:
     dance-single:
     Renard:
     Medium:
     9:
     0.615,0.640,0.412,0.226,0.000:
0000
0000
0000
0000
,
0000
0000
0000
0000
,
0000
0000
0000
0000
,
0000
0000
0000
0000
,
1000
0100
0010
0001
0010
0100
1000
0001
,
0000
0000
0000
0000
,
1000
0100
0010
0001
0010
0100
1000
0001
,
0000
0000
0000
0000
,
0001
0010
0100
1000
0100
0010
0001
1000
,
0001
0010
0100
1000
0100
0010
0001
1000
,
0010
0010
0010
0010
0010
0000
0000
0000
,
1001
0000
0101
0000
0010
1000
0100
0010
,
0001
0000
1100
0000
1000
0010
0100
0001
,
1000
0000
1100
0000
1000
0010
0100
0001
,
0010
0010
0100
0100
1000
0000
1001
0000
,
1010
0000
0101
0000
0001
0100
0010
1000
,
0100
0000
0011
0000
0100
1000
0001
0100
,
0202
0000
0000
0000
0000
0010
0000
0000
,
1313
0000
0001
0000
0100
0010
1000
0000
,
0001
0100
0100
0100
0001
0100
0100
0100
,
0001
0001
0100
0100
0001
1000
0001
0000
,
0001
0100
0100
0100
0001
0100
0100
0100
,
0001
0100
0100
0100
0001
0001
1000
0000
,
0001
0000
1001
0000
1000
0100
0010
0001
,
1000
0000
1001
0000
0001
0010
0100
1000
,
0001
0000
1001
0000
1000
0100
0010
0001
,
1000
1000
0001
0001
1000
1000
0001
0001
,
1000
0000
1001
0000
1000
0100
0010
0001
,
1000
0000
1001
0000
0001
0010
0100
1000
,
0001
0000
1001
0000
1000
0100
0010
0001
,
1000
0000
1001
0000
0001
0100
0010
1000
,
0010
0000
0110
0000
0010
0100
1000
0100
,
0010
0100
0001
0100
0010
0100
1000
0100
,
0010
0000
0101
0000
0001
1000
0100
0000
,
0010
1000
0010
0100
0010
0001
0010
0100
,
0010
0000
0011
0000
0001
1000
0010
0000
,
0100
0010
0100
1000
0100
0010
0100
0001
,
0010
0000
0011
0000
0010
0100
0010
1000
,
0010
0100
0010
0001
1000
0010
0100
0000
,
0202
0000
0313
0000
0000
0000
0001
0100
,
0010
1000
0100
0000
1000
0100
1000
0000
,
0010
0000
0100
0000
0000
0001
1000
0100
,
0010
0000
0011
0000
1000
0100
1000
0000
,
0010
0000
0101
0000
0010
1000
0100
0010
,
0001
0000
1001
0000
0001
1000
0010
0100
,
0001
0000
1001
0000
1000
0001
0100
0010
,
1010
0000
0101
0000
0001
0100
0010
0000
,
2002
0000
0000
0003
,
0020
0000
0000
3000
,
0200
0000
0030
0001
,
0302
0203
0310
2000
0000
3020
0000
0230
,
0301
0100
1000
0100
0001
0000
0101
0000
,
0001
0010
1000
0010
0001
0000
0011
0000
,
1000
0100
0001
0100
1000
0000
1100
0000
,
1000
0010
0001
0010
1000
0000
1010
0000
,
1000
0100
0001
0100
1000
0000
1100
0000
,
0001
0010
1000
0010
0001
0000
0011
0000
,
0002
0023
2030
3020
,
0032
0203
2300
3200
,
0301
0100
1000
0100
0001
0000
0101
0000
,
0001
1000
0100
0001
0100
0000
1100
0000
,
1000
0010
0001
0010
1000
0000
1010
0000
,
0001
0010
1000
0010
0001
0000
0011
0000
,
1000
0010
0100
0000
0010
0100
0001
0000
,
0010
0100
1000
0000
0010
0100
0001
0000
,
1000
0100
1000
0100
1000
0100
1000
0100
,
0010
0001
0010
0001
0010
0001
0010
0001
,
1000
0010
0100
0001
0010
0100
1000
0001
,
0100
1001
0220
1331
;
#NOTES:
     dance-single:
     Renard:
     Easy:
     6:
     0.387,0.472,0.177,0.118,0.000:
0000
0000
0000
0000
,
0000
0000
0000
0000
,
0000
0000
0000
0000
,
0000
0000
0000
0000
,
0001
0000
0000
1000
0000
0000
0001
1000
,
0000
0000
0000
0000
,
0010
0000
0000
0100
0000
0000
0010
0100
,
0000
0000
0000
0000
,
0001
0000
0000
1000
0000
0000
0001
1000
,
0010
0000
0000
0100
0000
0000
0010
0100
,
0001
1000
0001
1000
0001
0000
0000
0000
,
1000
0000
0100
0000
0010
0000
0000
0001
,
0000
0001
0010
0100
1000
0000
0000
0000
,
0001
0000
1000
0000
0010
0000
0000
1000
,
0000
1000
0010
0100
0001
0000
1000
0000
,
0001
0000
0010
0000
0100
0000
0000
1000
,
0000
1000
0100
0010
0001
0000
0000
0000
,
1001
0000
0000
0000
0000
0110
0000
0000
,
1001
0000
0000
0000
0001
1000
0001
0000
,
1001
1000
1000
1000
,
1000
0000
1000
0000
0001
1000
0001
0000
,
1000
1000
1000
1000
,
1000
0000
1000
0000
0001
1000
0001
0000
,
0100
0101
0001
1000
,
0100
0000
0010
0000
0001
1000
0001
0000
,
1000
1001
1000
0010
,
0100
0000
0001
0000
1000
0100
1000
0000
,
0001
1001
1000
0010
,
0100
0000
0001
0000
1000
0100
1000
0000
,
0001
1001
0001
0101
,
0001
0000
0011
0000
0001
1000
0001
0000
,
2000
0100
0000
0010
,
0000
0000
0001
0000
0000
0001
0000
0000
,
3002
1000
0000
0100
,
0000
0000
1000
0000
0000
1000
0000
0000
,
2003
0010
0000
0001
,
0000
0000
0100
0000
0000
0100
0000
0000
,
3002
1000
0000
0010
,
0100
1000
0100
1003
,
1000
1001
0000
0001
,
0100
0000
0010
0000
1000
0010
1000
0000
,
0010
0100
0001
1000
,
0100
0000
0100
0000
1000
0001
1000
0000
,
0001
0100
0010
1000
,
0001
0000
0010
0000
0100
0010
0100
0000
,
1000
0001
0100
0010
,
1000
0000
0001
0000
0100
0010
1000
0000
,
0002
0000
0000
0000
,
2003
0000
0000
0000
,
3020
0000
0000
0000
,
0230
0302
2003
3200
,
0310
0000
0010
0001
0000
0001
1000
0000
,
0100
0000
0100
1000
0000
1000
0001
0000
,
1000
0100
0010
0001
,
0010
0100
1000
0000
,
0001
0000
0001
0010
0000
0010
0001
0000
,
1000
0000
1000
0100
0000
0100
1000
0000
,
0002
0000
0000
0000
,
0000
0000
0000
0000
,
1003
0000
1000
0000
0010
1000
0010
0000
,
1000
0000
1000
0000
0010
1000
0010
0000
,
0100
0000
0100
0000
0001
0100
0001
0000
,
0100
0000
0100
0000
0001
0100
0001
0000
,
1000
1001
0001
1001
,
1000
1001
0001
1001
,
1000
0001
1000
0001
,
1000
0001
1000
0001
,
1000
0100
0010
0001
0010
0100
1000
0001
,
1000
1001
0110
1001
;
#NOTES:
     dance-single:
     Renard:
     Beginner:
     4:
     0.310,0.472,0.127,0.265,0.000:
0000
0000
0000
0000
,
0000
0000
0000
0000
,
0000
0000
0000
0000
,
0000
0000
0000
0000
,
1000
0000
0000
1000
,
0000
0000
0000
0000
,
0001
0000
0000
0001
,
0000
0000
0000
0000
,
0100
0000
0000
0100
,
0010
0000
0000
0010
,
1000
0010
0100
0000
,
0100
0100
0010
0000
,
1000
0010
0100
0000
,
0001
0001
0100
0000
,
0010
0100
0001
0000
,
0100
0100
0010
0000
,
1000
0010
0100
0000
,
1001
0000
0000
0000
,
0110
0000
1001
0110
,
2001
0001
0001
0001
,
0001
0001
0001
3001
,
1002
1000
1000
1003
,
2001
3001
1002
1003
,
1000
1000
0000
0001
,
0000
0100
0000
0010
,
1000
1000
0000
0001
,
0000
0100
0000
0010
,
1000
1000
0000
0001
,
0000
0100
0000
0010
,
1000
1000
0100
0100
,
0010
0010
0001
0010
,
0002
0000
1000
0000
,
0103
0001
0100
0001
,
2000
0000
0100
0000
,
3001
1000
0001
1000
,
0020
0000
1000
0000
,
0130
1000
0010
0100
,
0002
0000
0100
0000
,
1003
1000
0001
0001
,
0100
1001
0000
0001
,
0000
1000
0000
1000
,
0000
0010
0000
0010
,
0000
0100
0000
0100
,
0000
0001
0000
0001
,
0000
1000
0000
1000
,
0010
0010
1000
1000
,
0001
0100
0010
1000
,
0002
0000
0000
0000
,
2003
0000
0000
0000
,
3020
0000
0000
0000
,
0230
0000
0000
0000
,
0301
0000
0001
0000
,
1000
0000
1000
0000
,
0010
0000
0010
0000
,
0100
0000
0100
0000
,
0001
0000
0001
0000
,
1000
0000
1000
0000
,
0020
1000
1000
1000
,
1000
1000
1000
1030
,
2000
0001
0010
0001
,
3002
1000
0010
1000
,
2003
0001
0010
3002
,
1000
0010
1000
0010
,
2003
0010
3002
0010
,
2003
0010
3002
0010
,
2003
0010
3002
0010
,
2003
0010
3002
0010
,
2003
0010
3002
0013
,
1001
1001
1001
1001
;
