#TITLE:Please II;
#SUBTITLE:;
#ARTIST:Renard vs Kitsune?;
#TITLETRANSLIT:;
#SUBTITLETRANSLIT:;
#ARTISTTRANSLIT:;
#CRChallenge:;
#BANNER:;
#BACKGROUND:;
#LYRICSPATH:;
#CDTITLE:;
#MUSIC:please.ogg;
#OFFSET:0.000;
#SAMPLESTART:25.073;
#SAMPLELENGTH:12.000;
#SELECTABLE:YES;
#BPMS:0.000=180.000,64.000=360.000,257.000=200.000,321.000=400.000;
#STOPS:64.000=3.833
;
#BGCHANGES:;
#NOTES:
     dance-single:
     Renard:
     Challenge:
     14:
     0.983,1.000,0.835,0.134,0.134:
0000
0000
0000
0000
,
0000
0000
0000
0000
,
0000
0000
0000
0000
,
0000
0000
0000
0000
,
0000
0000
0000
0000
,
0000
0000
0000
0000
,
0000
0000
0000
0000
,
0000
0000
0000
0000
,
1000
0100
0000
1100
0000
1000
0001
0000
,
0101
0000
0110
0000
2200
0000
0000
3300
,
0100
0001
0000
0011
0000
0010
0100
0000
,
1100
0000
0101
0000
2200
0000
0000
3300
,
1000
0010
0000
0011
0000
0010
0100
0000
,
1100
0000
0101
0000
2002
0000
0000
3003
,
0010
0100
0000
1001
0000
1000
0100
0000
,
0011
0000
2200
0000
0022
0000
0000
0033
,
33MM
1000
1000
0100
,
0100
0000
0010
0000
0010
0000
0001
1000
,
0001
0000
1000
0000
0010
0100
0010
0000
,
1000
0010
0100
0001
1000
0000
0001
0010
,
0001
0000
0001
0000
0001
1000
0010
0000
,
0010
0100
0100
0001
,
1000
0001
1000
0001
0010
0100
1000
0000
,
1000
0000
0001
0000
1000
0100
0010
0000
,
0010
0001
0001
0010
,
0010
0000
0100
0000
0100
0000
1000
0001
,
1000
0000
0001
0000
0100
0010
0100
0000
,
0001
0100
0010
1000
0001
0000
1000
0100
,
1000
0000
1000
0000
1000
0001
0100
0000
,
0100
0010
0010
1000
,
0010
0100
0010
0100
0001
1000
0010
0000
,
0010
0000
0100
0000
0010
1000
0001
0000
,
0001
1001
1000
0110
,
0100
0000
0110
0000
0010
0000
0001
1000
,
0001
0000
1001
0000
0010
0100
0010
0000
,
1000
0010
0100
0001
1000
0000
0001
0010
,
0001
0000
0101
0000
0001
1000
0010
0000
,
0010
0101
0100
1001
,
1000
0001
1000
0001
0010
0100
1000
0000
,
1001
0000
1001
0000
1000
0100
0010
0000
,
0011
1001
0001
0110
,
0010
0000
0101
0000
0100
0000
1000
0001
,
1000
0000
1001
0000
0100
0010
0100
0000
,
0001
0100
0010
1000
0001
0000
1000
0100
,
1000
0000
1001
0000
1000
0001
0100
0000
,
0110
0010
0110
1001
,
0001
1000
0001
1000
0100
0010
0001
0000
,
1001
0200
0000
0000
,
0300
0000
0010
1000
0001
0100
0010
1000
,
0100
0010
0001
1000
0100
1000
0001
0010
,
0100
1000
0001
0010
0001
1000
0010
0100
,
0001
1000
0100
0010
0001
0010
0100
1000
,
0001
0010
0100
1000
0100
0010
0001
0100
,
0010
1000
0010
0100
0001
0010
0100
1000
,
0001
0100
0010
1000
0100
0010
0001
0010
,
0100
1000
0001
0010
0001
1000
0100
1000
,
0001
0010
0100
1000
0100
0010
0001
0100
,
0010
1000
0010
1000
0001
0100
0001
1000
,
0100
1000
0001
0010
0001
1000
0010
0100
,
0001
0010
0100
1000
0001
0100
0001
1000
,
0100
1000
0001
0010
0001
1000
0010
1000
,
0001
0010
0100
1000
0001
0010
0001
1000
,
0100
0010
0001
1000
0100
1000
0001
0100
,
0010
1000
0100
0010
0001
0100
0010
1000
,
0100
0010
0001
0010
0000
0010
0100
0000
,
0100
1000
0000
1000
0010
0000
0110
0000
,
0101
0000
0001
0100
0000
0100
1000
0000
,
0100
0010
0000
1000
0100
0000
0101
0000
,
1100
0000
1000
0010
0000
0010
0100
0000
,
0100
0001
0000
0001
0100
1000
0001
0000
,
0011
0000
0010
1000
0000
1000
0100
0000
,
0100
0001
0000
0100
1000
0001
0100
0000
,
1100
0000
0000
0000
1000
0100
0010
0001
0010
0100
1000
0100
0010
0001
0010
0100
,
1000
0100
0010
0001
1000
0000
0100
0000
0000
0000
0100
0000
1000
0000
0000
0000
,
0011
0000
0000
0000
0001
0100
0010
1000
0010
0100
0001
0100
0010
1000
0010
0100
,
0001
0100
0010
1000
0010
0000
0100
0000
0000
0000
0100
0000
0001
0000
0000
0000
,
1001
0000
0000
0000
1000
0100
0010
0001
1000
0100
1000
0001
0010
0100
1000
0001
,
0010
0001
1000
0100
0010
0000
0001
0000
0000
0000
0001
0000
1000
0000
0000
0000
,
1010
0000
0000
0000
0001
0100
0010
1000
0001
0100
0001
1000
0010
0100
0001
1000
,
0010
1000
0001
0100
0010
0000
1000
0000
0000
0000
1000
0000
0100
0000
0100
0000
,
0200
0000
0000
0300
1000
0000
0100
0000
0001
0000
0100
0000
1000
0000
0100
0000
,
0001
0100
1000
0100
0001
0100
1000
0100
,
0001
0100
1000
0010
0001
0010
1000
0010
,
0001
0010
1000
0010
0001
0010
1000
0010
,
0001
0010
1000
0100
0010
0001
0010
1000
,
0010
0001
0010
1000
0010
0001
0010
1000
,
0010
0001
0010
1000
0010
0001
0100
1000
,
0100
0001
0100
1000
0100
0001
0100
1000
,
0100
0001
0010
1000
0010
0001
0010
1000
,
0010
0001
0010
1000
0010
0001
0010
1000
,
0010
0001
0100
1000
0100
0001
0100
1000
,
0100
0001
0100
1000
0100
0001
0100
1000
,
0100
0001
0010
0100
1000
0100
0001
0100
,
1000
0100
0001
0100
1000
0100
0001
0100
,
1000
0100
0002
0000
0000
0000
0000
0000
,
0000
0000
0000
0003
,
0000
0110
0000
1100
,
1100
0000
1010
1010
,
0200
0000
0301
0010
,
0011
0000
1000
0100
1000
0001
0010
0001
,
1000
0100
0010
0000
0000
0000
0011
0000
,
0011
0000
1001
1010
,
0101
0000
0011
0110
,
1100
0000
0001
0010
0100
1000
0100
0010
,
0001
1000
0001
0000
0000
0000
0011
0000
,
0110
0000
1100
1010
,
0101
0000
0101
1010
,
1100
0000
0001
0010
0100
1000
0001
0010
,
0100
1000
0100
0000
0000
0000
0011
0000
,
0011
0000
0101
1010
,
0101
0000
0011
1100
,
1001
0000
0001
0100
0010
1000
0010
0100
,
0001
0100
0010
0000
0110
0000
0101
0000
,
0110
1000
0101
1010
,
1100
0001
1010
0101
,
1010
0000
0001
0100
0010
1000
0100
0010
,
0001
0010
0100
0000
1100
0000
1010
0000
,
0100
0011
0101
0010
,
1001
0101
0010
1100
,
1001
0000
0001
0100
0010
1000
0010
0100
,
0001
1000
0100
0000
0110
0000
1010
0000
,
0110
0001
1010
0101
,
0011
1000
0101
1010
,
0101
0000
1000
0010
0100
0001
0010
0100
,
1000
0100
0010
0001
0010
0000
0000
0000
,
0100
1000
0100
0000
0000
0000
1000
0001
,
1000
0000
0001
0200
0000
0000
0000
0000
,
0000
0000
0310
1000
0001
0100
0020
0000
,
0030
0000
0000
0000
;
#NOTES:
     dance-single:
     Renard:
     Medium:
     9:
     0.640,0.748,0.342,0.025,0.000:
0000
0000
0000
0000
,
0000
0000
0000
0000
,
0000
0000
0000
0000
,
0000
0000
0000
0000
,
0000
0000
0000
0000
,
0000
0000
0000
0000
,
0000
0000
0000
0000
,
0000
0000
0000
0000
,
0001
1000
0100
1000
0000
0001
0100
0000
,
0110
1001
1011
0000
,
1000
0001
0100
0010
0000
0010
1000
0100
,
0010
1001
1011
0000
,
0001
0100
0010
1000
0000
1000
0100
0000
,
0010
1001
1011
0000
,
0001
0100
0010
1000
0000
1000
0100
0000
,
0010
0001
1011
0000
,
0000
0001
1000
0100
,
0010
0001
0010
0100
,
1000
0010
0100
0001
,
0100
0101
0000
0110
,
0000
0010
1000
0100
,
0010
0001
0010
0100
,
1000
0010
0100
0010
,
1000
1010
0000
0110
,
0000
0010
1000
0100
,
0010
0001
0010
0100
,
1000
0001
0100
0010
,
0010
0110
0000
1010
,
0000
1000
0010
0100
,
0001
0010
0100
1000
,
0100
0010
0001
0010
,
0001
0011
0000
0110
,
0000
0100
1000
0010
,
0100
0110
0000
0101
,
0000
0100
0010
1000
,
0100
1100
0000
1010
,
0000
1000
0010
0100
,
0001
0011
0000
0101
,
0000
0001
0100
0010
,
1000
1010
0000
1001
,
0000
1000
0100
0010
,
0001
1001
0000
0101
,
0000
0001
0100
0010
,
1000
1010
0000
1100
,
0000
1000
0100
0010
,
0001
0011
0000
1001
,
0000
0001
0100
0010
,
1000
0100
0000
0000
,
0000
0100
1000
0001
,
0100
0010
1000
0100
,
0010
0001
1000
0100
,
0010
0000
0001
0010
0001
0010
0001
0000
,
0010
0100
1000
0001
,
0100
0010
1000
0100
,
0010
0001
0100
0010
,
1000
0000
0100
1000
0100
1000
0100
0000
,
1000
0010
0100
0001
,
1000
0000
0100
0000
0010
0000
0001
0010
,
0001
0010
0100
1000
,
0001
0000
0100
0000
0010
1000
0010
0000
,
1000
0100
0010
0001
,
0010
0000
0001
0010
0001
0010
0001
0000
,
0010
0000
0001
0100
0001
0100
0001
0000
,
0100
0010
1000
0100
,
0010
0000
0001
0010
0100
1000
0000
1000
,
0010
0110
0101
1011
,
0000
0000
1000
0010
0100
0001
0000
0001
,
0010
0100
1001
1011
,
0000
0000
1000
0010
0100
0001
0000
0001
,
0010
0100
1000
0000
0001
0000
1011
0000
,
0000
0000
1000
0010
0100
0001
0000
0001
,
0010
0100
1000
1011
,
0000
0000
1000
0010
0100
0001
0010
0100
,
1000
0001
0100
0010
1000
0100
1001
0000
,
0000
0000
1000
0100
0010
0001
0010
0100
,
1000
0010
0100
0001
0010
0001
1001
0000
,
0000
0000
1000
0010
0100
0001
0010
0100
,
1000
0010
0100
0001
0010
0100
1001
0000
,
0000
0000
1000
0010
0100
0001
0010
0100
,
0010
0001
0100
0010
1000
1000
1001
0000
,
0000
0001
0001
1000
,
1000
0001
0001
1000
,
1000
0001
0001
1000
,
1000
0001
0001
1000
,
1000
0001
0001
1000
,
1000
0001
0001
1000
,
1000
0001
0001
1000
,
1000
0001
0001
1000
,
1000
0001
0001
1000
,
1000
0001
0001
1000
,
1000
0001
0001
1000
,
1000
0001
0001
1000
,
1000
0001
0001
1000
,
1000
0001
0001
1000
,
1000
0002
0000
0000
,
0000
0000
0000
0003
,
0000
0001
0010
1000
,
0010
0001
0100
1000
,
0100
0001
0010
0100
,
0001
0100
1000
0010
,
0100
1000
0100
0001
,
0010
0100
0001
0100
,
1000
0010
0001
0010
,
1000
0010
0100
1000
,
0100
0001
0010
0100
,
0001
0100
1000
0001
,
0010
1000
0010
0001
,
0010
0100
0001
0100
,
1000
0010
0100
0001
,
0010
0100
0001
0100
,
1000
0010
0001
0010
,
0100
1000
0100
0001
,
0010
0100
0001
0100
,
1000
0001
0010
0100
,
0001
0100
1000
0010
,
0001
0010
0100
1000
,
0100
0001
0010
0100
,
0001
0100
1000
0010
,
0100
0001
0010
1000
,
0010
0001
0010
0100
,
0001
0100
1000
0001
,
0010
1000
0010
0100
,
0001
0100
1000
0010
,
0100
1000
0100
0001
,
0010
0100
0010
0000
,
0001
0010
0000
0100
,
1000
0002
0000
0000
,
0003
0000
1000
0100
0010
0001
2000
0000
,
3000
0000
0000
0000
;
#NOTES:
     dance-single:
     Renard:
     Easy:
     7:
     0.455,0.587,0.017,0.125,0.000:
0000
0000
0000
0000
,
0000
0000
0000
0000
,
0000
0000
0000
0000
,
0000
0000
0000
0000
,
0000
0000
0000
0000
,
0000
0000
0000
0000
,
0000
0000
0000
0000
,
0000
0000
0000
0000
,
0001
0001
1000
1000
,
0100
0010
0002
0000
,
1003
1000
0010
0010
,
0100
0001
2000
0000
,
3001
0001
0010
0100
,
1000
1000
0002
0000
,
0103
0100
0010
1000
,
0001
0001
2000
0000
,
3000
0001
1000
0001
,
0000
0100
0010
0100
,
0000
0001
1000
0001
,
0100
0001
1000
0001
,
0000
1000
0001
1000
,
0000
0010
0100
0010
,
0000
0100
0001
0100
,
0001
1000
0000
0001
,
0000
1000
0100
1000
,
0000
0001
0010
0001
,
0000
1000
0010
1000
,
0001
0100
0000
0100
,
0000
0001
1000
0100
,
0000
1000
0001
0100
,
0000
0001
1000
0001
,
1000
0001
0000
1000
,
0000
0010
0100
0010
,
0000
0100
0001
0100
,
0000
0001
1000
0001
,
1000
0100
0000
0100
,
0000
1000
0001
1000
,
0000
0001
0010
0001
,
0000
1000
0010
1000
,
0001
0100
0000
0100
,
0000
0001
1000
0001
,
0000
1000
0100
1000
,
0000
0001
0100
0001
,
1000
0001
0000
0001
,
0000
1000
0100
1000
,
0001
0100
0001
1000
,
0100
0010
0001
1000
,
0001
2000
0000
0000
,
3000
0001
0000
0001
,
0000
0100
0000
0100
,
0000
0010
0000
0010
,
0000
1000
0010
0100
,
0001
1000
0000
1000
,
0000
0010
0000
0010
,
0000
0100
0000
0100
,
0000
0001
0100
0010
,
1000
0100
0100
1000
,
1000
0001
0001
0010
,
0010
0001
0001
1000
,
1000
0010
0010
0100
,
0100
0001
0001
0100
,
0100
0010
0010
1000
,
1000
0100
0100
0010
,
0010
0001
0001
0010
,
0100
1000
1000
0100
,
2000
0200
0010
3301
,
0000
1000
0010
0100
,
0001
0200
0002
1313
,
0000
0001
0100
0010
,
2000
0200
0010
3301
,
0000
1000
0010
0100
,
0001
0200
0002
1313
,
0000
0000
0001
0100
0010
1000
0100
0010
,
0001
0010
0001
0000
0000
0000
0001
0000
,
0000
0000
1000
0100
0010
0001
1000
0010
,
0100
0001
1000
0000
1000
0000
1000
0000
,
0000
0000
0001
0100
0010
1000
0100
0010
,
0001
1000
0001
0000
0001
0000
0001
0000
,
0000
0000
1000
0010
0100
0001
0100
0010
,
1000
0001
1000
0000
1000
0000
1000
0000
,
0000
0001
0000
1000
,
0000
0001
0000
1000
,
0000
0001
0000
1000
,
0000
0001
0000
1000
,
0000
0010
0000
0100
,
0000
0010
0000
0100
,
0000
0010
0000
0100
,
0000
0010
0000
0100
,
0000
0001
0000
1000
,
0000
0001
0000
1000
,
0000
0001
0000
1000
,
0000
0001
0000
1000
,
0000
0010
0000
0100
,
0000
0010
0000
0100
,
0000
0002
0000
0000
,
0000
0000
0000
0003
,
0000
1000
0000
1000
,
0000
0100
0000
0100
,
0000
1000
0000
0100
,
0000
1000
0100
1000
,
0000
0001
0000
0001
,
0000
0010
0000
0010
,
0000
0001
0010
0001
,
0010
0001
0010
0001
,
0000
1000
0000
1000
,
0000
0001
0000
0001
,
0000
0100
0000
0100
,
0000
0010
0100
0010
,
0000
0100
0001
0100
,
0000
0001
1000
0001
,
0000
1000
0100
1000
,
0100
1000
0100
1000
,
0000
0001
0000
0001
,
0000
0001
0000
0001
,
0000
0100
0010
0100
,
0010
0100
0010
0100
,
0000
0001
0000
0001
,
0000
0001
0000
0001
,
0000
0100
0010
0100
,
0010
0100
0010
0100
,
0000
0001
0000
0001
,
0000
0001
0000
0001
,
0000
0100
0010
0100
,
0010
0100
0010
0100
,
0010
1000
0010
0000
,
0100
0001
0000
1000
,
0100
0020
0000
0000
,
0030
0001
0010
0100
;
#NOTES:
     dance-single:
     Renard:
     Beginner:
     4:
     0.323,0.587,0.008,0.167,0.000:
0000
0000
0000
0000
,
0000
0000
0000
0000
,
0000
0000
0000
0000
,
0000
0000
0000
0000
,
0000
0000
0000
0000
,
0000
0000
0000
0000
,
0000
0000
0000
0000
,
0000
0000
0000
0000
,
1000
1000
0001
1000
,
0002
2000
3013
0000
,
1000
1000
0001
0001
,
2000
0002
3013
0000
,
0001
0001
1000
1000
,
0002
2000
3013
0000
,
1000
1000
0001
0001
,
2000
0002
3013
0000
,
1001
0001
0000
0001
,
0000
1000
0000
1000
,
0000
0001
0000
0001
,
0000
1000
0001
1000
,
0000
0010
0000
0010
,
0000
0100
0000
0100
,
0000
0010
0000
0010
,
0000
0100
0010
0100
,
0000
0001
0000
0001
,
0000
1000
0000
1000
,
0000
0001
0000
0001
,
0000
0100
0010
0100
,
0000
0001
0000
0001
,
0000
1000
0000
1000
,
0000
0010
0000
0100
,
0000
0001
1000
0001
,
0000
1000
0000
1000
,
0000
0100
0000
0100
,
0000
0010
0000
0001
,
0000
1000
0001
1000
,
0000
0001
0000
0001
,
0000
0010
0000
0010
,
0000
0100
0000
1000
,
0000
0001
1000
0001
,
0000
1000
0000
1000
,
0000
0010
0000
0010
,
0000
0100
0000
0001
,
0000
1000
0001
1000
,
0000
0001
0000
0100
,
0000
0010
0000
1000
,
0000
0001
1000
0001
,
1000
0001
0000
0000
,
0000
1000
0000
1000
,
0000
0001
0000
0001
,
0000
0100
0000
0100
,
0000
0010
0000
0010
,
0000
1000
0000
1000
,
0000
0100
0000
0100
,
0000
0010
0000
0010
,
0000
0001
0000
0001
,
0000
1000
0000
0001
,
1000
0001
0000
0100
,
0010
0100
0000
0001
,
1000
0001
0000
0100
,
0010
0100
0000
0001
,
1000
0001
0000
0100
,
0010
0100
0000
0001
,
1000
0001
0000
1000
,
0000
0001
0000
0001
,
0000
2000
0002
3013
,
0000
1000
0000
1000
,
0000
0002
2000
3013
,
0000
1000
0000
1000
,
0000
0002
2000
3013
,
0000
0001
0000
0001
,
0000
2000
0002
3013
,
0000
1000
0000
1000
,
0001
1000
0000
1000
,
0000
0001
0000
0001
,
1000
0001
0000
0001
,
0000
1000
0000
1000
,
0001
1000
0000
1000
,
0000
0001
0000
0001
,
1000
0001
1000
0001
,
0000
2000
0000
0000
,
0000
0000
0000
0000
,
0000
0000
0000
0000
,
0000
0000
0000
0000
,
0000
0000
0000
0000
,
0000
0000
0000
0000
,
0000
0000
0000
0000
,
0000
0000
0000
0000
,
0000
0002
0000
0000
,
0000
0000
0000
0000
,
0000
0000
0000
0000
,
0000
0000
0000
0000
,
0000
0000
0000
0000
,
0000
0000
0000
0000
,
0000
0020
0000
0000
,
0000
3033
0000
0000
,
0000
1000
0000
1000
,
0000
0001
0000
0001
,
0000
0100
0000
0100
,
0000
0001
0000
0001
,
0000
1000
0000
1000
,
0000
0100
0000
0100
,
0000
1000
0000
1000
,
0000
0001
0000
0001
,
0000
0010
0000
0010
,
0000
0001
0000
0001
,
0000
1000
0000
1000
,
0000
0010
0000
0010
,
0000
0100
0000
0100
,
0000
0001
0000
0001
,
0000
1000
0000
0100
,
0000
1000
0000
0001
,
0000
0010
0000
0001
,
0000
1000
0000
0001
,
1000
0001
0000
1000
,
0000
0010
0000
0100
,
0000
0001
0000
1000
,
0000
0100
0000
1000
,
0001
1000
0000
0001
,
0000
0100
0000
0010
,
0000
1000
0000
0001
,
0000
1000
0000
0100
,
1000
0100
0000
1000
,
0000
0001
0000
0100
,
0000
0010
0000
0000
,
0010
0000
0000
0010
,
0000
0200
0000
0000
,
0300
0001
0100
0010
;
