#TITLE:Playground;
#SUBTITLE:;
#ARTIST:MGD-Crew;
#TITLETRANSLIT:;
#SUBTITLETRANSLIT:;
#ARTISTTRANSLIT:;
#CRChallenge:;
#BANNER:playground.png;
#BACKGROUND:playground-bg.png;
#LYRICSPATH:;
#CDTITLE:;
#MUSIC:playground.ogg;
#OFFSET:0.000;
#SAMPLESTART:10.647;
#SAMPLELENGTH:12.000;
#SELECTABLE:YES;
#BPMS:0.000=180.000,64.000=90.000,83.500=180.000,152.000=190.000,220.000=200.000;
#STOPS:83.500=0.167
;
#BGCHANGES:;
#NOTES:
     dance-single:
     Renard:
     Hard:
     11:
     0.826,1.000,0.390,0.000,0.652:
0000
0000
0000
0000
,
0000
0000
0000
0000
,
0000
0000
0000
0000
,
0000
0000
0000
0000
,
0000
0000
0000
0000
,
0000
0000
0000
0000
,
0000
0000
0000
0000
,
0000
0000
0000
0000
,
1001
0000
1000
0010
0100
0000
0000
0100
,
0001
0000
0010
0000
0100
1000
0000
1100
0000
0000
0000
0000
1001
0000
0000
0000
,
0101
0000
0010
1000
0100
0000
0011
0001
,
0100
0000
0010
0000
1000
0010
0000
0101
0000
0000
0010
0000
1010
0000
1000
0000
,
0000
0000
1100
0000
0110
0000
0000
0010
0001
0000
1000
0000
0010
0000
1000
0000
,
0100
0000
0010
0000
0001
1000
0000
1001
0000
0000
0001
0000
1000
0000
0100
0000
,
0010
0000
0000
0011
0000
0000
0100
0000
1000
0000
0000
0000
1100
0000
1000
0000
,
0010
0000
0100
0000
0001
0100
0000
0101
0000
0000
0010
0000
1001
0000
0000
0000
,
0001
0100
0001
0100
0001
0010
0001
0010
0100
1000
0100
1000
0010
1000
0010
1000
,
0010
0001
0010
0001
0010
0100
0010
0100
0010
1000
0010
0100
0010
0100
0010
1000
,
0010
1000
0001
1000
0100
1000
0100
1000
0001
0010
0001
1000
0001
0100
0001
0100
,
0001
1000
0010
1000
0001
1000
0100
1000
0010
0100
0010
0001
0010
0100
0010
1000
,
0001
0010
0100
0010
1000
0010
0100
0010
0001
1000
0010
0100
0010
0000
1010
0000
,
1001
0110
1001
0110
1001
0110
1001
0000
,
1001
0000
0001
0001
1000
1000
0010
0000
,
0100
0000
0000
0000
0100
0000
0100
0000
0010
1000
0010
0000
1000
0000
0000
0000
,
0010
0000
0010
0010
0100
0100
0001
0000
,
1001
0000
0000
0000
,
1000
0000
0100
0100
0010
0010
0001
0000
,
1000
0000
0000
0000
1000
0000
1000
0000
0001
0010
0100
0000
1000
0000
0000
0000
,
0100
0000
1000
1000
0100
0100
0010
0010
,
0001
0010
0100
1011
,
1000
0000
0001
0001
0100
0100
0010
0000
,
1000
0000
0000
0000
0010
0000
0100
0000
0001
1000
0001
0000
1000
0000
0000
0000
,
0100
0000
0010
0001
0010
0100
1000
0000
,
0001
0101
1000
1010
,
1000
0000
0100
0100
0010
0001
1000
0000
,
1001
0000
0000
0000
0100
0000
0010
0000
1000
0001
0100
0000
0010
0000
0000
0000
,
1000
0000
1001
0000
0100
0010
1010
0000
,
1000
0000
0101
0000
0001
1000
0101
0010
,
1001
0000
0000
0000
0000
0000
0000
0000
0001
1000
0001
1000
0001
1000
0001
1000
,
0001
0010
0001
0010
0100
0010
0100
0000
,
1000
0100
1000
0000
0100
0010
0100
0000
,
0010
0001
0010
0001
0100
0001
0100
0010
,
1000
0100
0010
0001
0010
0000
0011
0000
,
0010
1000
0010
1000
0010
0001
0010
0001
,
0100
0001
0100
0001
0100
1000
0100
1000
,
0001
0010
0001
0010
1000
0010
1000
0100
,
0001
0100
0010
0001
0010
0000
0011
0000
,
0001
0010
0100
0001
0100
1000
0010
0001
,
0010
0100
1000
0100
0001
0010
0100
0001
,
0100
1000
0010
0001
0010
1000
0010
0001
,
0010
0100
1000
0100
0001
0100
1000
0100
,
0001
0010
0100
0001
0100
1000
0010
0100
,
1000
0100
0010
1000
0001
0010
1000
0010
,
0001
0100
1000
0100
0001
0010
0100
0001
,
0100
1000
0010
0100
0001
0000
1001
0000
,
1001
0000
0000
0000
0000
0000
0000
0000
0010
0000
0000
0000
0001
1000
0001
1000
,
0001
0010
0100
1000
0100
1001
1001
0000
,
0001
0010
0001
0010
0001
1000
0001
1000
0001
0010
0001
0010
0001
0000
0000
0000
,
0001
0100
0001
0100
0001
1000
0001
1000
0001
0100
0001
0100
0001
0000
0000
0000
,
1000
0100
1000
0100
1000
0001
1000
0001
1000
0100
1000
0100
1000
0000
0000
0000
,
1000
0010
1000
0010
1000
0001
1000
0001
1000
0010
1000
0010
1000
0000
0000
0000
,
0010
1000
0010
1000
0010
0100
0010
0100
0010
1000
0010
1000
0010
0000
0000
0000
,
0010
0001
0010
0001
0010
0100
0010
0100
0010
0001
0010
0001
0010
0000
0000
0000
,
0100
0001
0100
0001
0100
0010
0100
0010
0100
0001
0100
0001
0100
0000
0000
0000
,
0100
1000
0100
1000
0100
0010
0100
0010
0100
1000
0100
1000
0100
0000
0000
0000
,
0001
0010
0000
0001
0010
0000
0001
0000
1000
0100
0010
0001
1000
0000
0000
0000
,
1000
0100
0000
1000
0100
0000
1000
0000
0001
0010
0100
1000
0001
0000
0000
0000
,
1000
1000
0100
0100
0010
0010
0001
0001
,
1000
0000
0001
0000
0001
0100
0010
1000
0001
0000
1000
0000
1001
0000
0000
0000
,
0001
0010
0000
0001
0010
0000
0001
0000
1000
0100
0010
0001
1000
0000
0000
0000
,
1000
0100
0000
1000
0100
0000
1000
0000
0001
0010
0100
1000
0001
0000
0000
0000
,
1000
1000
0100
0100
0010
0010
0001
0000
,
0001
0100
0010
1000
0001
0100
0010
1000
0100
0010
0001
0010
0100
1000
0001
0100
,
0010
1000
0100
0010
0001
0010
0100
1000
0001
0100
0010
0000
1001
0000
0000
0000
;
#NOTES:
     dance-single:
     Renard:
     Medium:
     9:
     0.596,0.596,0.057,0.010,0.000:
0000
0000
0000
0000
,
0000
0000
0000
0000
,
0000
0000
0000
0000
,
0000
0000
0000
0000
,
0000
0000
0000
0000
,
0000
0000
0000
0000
,
0000
0000
0000
0000
,
0000
0000
0000
0000
,
0001
0000
1000
0100
0010
0000
0000
0100
,
1000
0001
0100
0010
0100
0010
0100
0010
,
0100
0000
0100
0001
1000
0000
0000
0001
,
1000
0100
0010
0001
0010
0001
0010
0100
,
0000
1000
0001
0000
0100
0010
0000
1000
,
0010
0100
0001
0010
0100
0000
1000
0100
,
0010
0000
0001
0010
0100
0000
1000
0010
,
0100
0001
0100
0010
1000
0000
1001
0000
,
1000
1000
0100
0100
0010
0010
0001
0000
,
0001
0001
0010
0010
0100
0100
1000
0000
,
1000
1000
0010
0010
0100
0100
0001
0000
,
0001
0001
0100
0100
0010
0010
1000
0000
,
0001
0001
0100
0100
0010
0010
2000
0000
,
0001
0001
0001
0001
0001
0001
3001
0000
,
1000
0000
0100
1000
0100
1000
0100
0000
,
1000
0000
0001
1000
0001
1000
0001
0000
,
0100
0000
0001
0100
0001
0100
0001
0000
,
1000
0000
0000
0000
,
0001
0000
0010
0001
0010
0001
0010
0000
,
0001
0000
1000
0001
1000
0001
1000
0000
,
0010
0000
1000
0010
1000
0010
1000
0000
,
0001
0000
0000
0000
,
1000
0000
0100
1000
0001
1000
0010
0000
,
1000
0000
0001
0100
0001
1000
0001
0000
,
1000
0000
0001
0010
0100
1000
0001
0000
,
1000
0000
0000
0000
,
0010
0000
1000
0010
0100
0001
0100
0000
,
0001
0000
0010
0100
1000
0100
0010
0000
,
0100
1000
0001
0100
0010
1000
0100
0010
,
0001
1001
0100
1001
,
1000
0000
0000
0000
,
0100
1000
0001
0010
0001
0010
0001
0000
,
1000
0010
1000
0000
0001
0100
0001
0000
,
1000
0100
0010
0001
0010
0001
0010
0001
,
0100
0010
1000
0100
0010
0000
0000
0000
,
0100
1000
0001
0010
0100
1000
0100
0000
,
1000
0001
1000
0000
0001
0100
0001
0000
,
1000
0010
0100
0001
0010
0001
0010
0100
,
1000
0100
0010
0001
1000
0000
0001
0000
,
1000
0010
1000
0010
0100
0001
0100
0001
,
0010
0001
0010
0001
0010
0100
0010
0100
,
1000
0100
1000
0100
0010
0001
0010
0100
,
1000
0001
0100
0010
1000
0000
1010
0000
,
1000
0100
0010
0001
0010
0100
1000
0100
,
0010
0001
1000
0010
0100
0001
0010
0100
,
0010
0001
0100
0010
1000
0100
0010
0001
,
1000
0010
0100
0001
1000
0000
1001
0000
,
1000
0100
1000
0100
,
1000
0100
1000
0100
1000
0100
1000
0000
,
0001
0010
0100
1000
0010
0100
0001
0010
,
0100
0010
0001
0100
0010
1000
0100
0010
,
0100
1000
0010
0100
0001
0010
0100
0010
,
0001
0100
0010
1000
0100
0010
0001
0010
,
0100
1000
0001
0100
0010
1000
0100
0010
,
0001
0010
0100
1000
0001
0010
0100
1000
,
0010
0100
0001
0100
0010
1000
0010
0100
,
0001
0100
0010
1000
0100
0010
0001
0000
,
1000
0100
1000
0100
0010
0010
0001
0001
,
1000
0010
0100
0001
0100
0100
0010
0010
,
1000
1000
0010
0010
0100
0100
0001
0001
,
1000
0100
0010
0001
0010
0100
1000
0001
,
0100
0100
0010
0010
1000
1000
0001
0001
,
0100
0100
0010
0010
1000
1000
0100
0100
,
0010
0010
0010
0010
0001
0001
0001
0001
,
1000
1000
1000
1000
1000
1000
1000
1000
,
1000
1000
1000
1000
1000
1000
1001
0000
;
#NOTES:
     dance-single:
     Renard:
     Easy:
     6:
     0.433,0.596,0.000,0.057,0.000:
0000
0000
0000
0000
,
0000
0000
0000
0000
,
0000
0000
0000
0000
,
0000
0000
0000
0000
,
0000
0000
0000
0000
,
0000
0000
0000
0000
,
0000
0000
0000
0000
,
0000
0000
0000
0000
,
0001
0001
1000
0000
,
0100
1000
0100
1000
0100
0000
0000
0000
,
1000
1000
0001
0000
,
0100
0001
0100
0001
0100
0000
0000
0000
,
0001
1000
0001
1000
,
0010
0100
0010
0100
,
0001
0000
0001
1000
0001
0000
0000
0000
,
1000
0100
1000
0100
1000
0000
0000
0000
,
0001
0000
1000
0000
0100
0100
0100
0000
,
1000
0000
0001
0000
0100
0100
0100
0000
,
0001
0000
1000
0000
0100
0100
0100
0000
,
1000
0000
0001
0000
0100
0100
0100
0000
,
0001
0000
1000
0000
0001
1000
0001
0000
,
1000
0001
1000
0001
1000
0001
1000
0000
,
0001
0001
0001
0001
,
0100
0000
0100
0000
0010
0100
0010
0000
,
1000
1000
1000
0010
,
0200
0000
0300
0000
,
0001
0001
0001
1000
,
0100
0000
0100
0000
0010
0001
0010
0000
,
0001
1000
0010
0100
,
0002
0000
0003
0000
,
1000
0000
0100
0000
1000
0100
1000
0000
,
0001
1000
0001
1000
,
0001
0000
0100
0000
0001
0100
0001
0000
,
2000
0000
3000
0000
,
0001
0000
0001
0000
1000
0100
1000
0000
,
0001
0000
0001
0000
1000
0001
1000
0000
,
0001
0100
0010
1000
,
0002
0000
0000
1003
,
0100
0000
0000
0000
,
1000
0100
1000
0100
1000
0100
1000
0000
,
0100
0100
0010
0010
,
0001
0001
0100
0100
,
0010
0010
1000
0000
,
0001
0100
0001
0100
0001
0100
0001
0000
,
0100
0100
0010
0010
,
1000
1000
0001
0001
,
1000
0100
1000
0000
,
0001
1000
0001
1000
0001
1000
0001
0000
,
0100
0100
0010
0010
,
1000
0001
0100
0010
,
1000
0001
0100
0000
,
0010
1000
0010
1000
0010
1000
0010
0000
,
0100
0100
0001
0001
,
1000
0100
0010
0001
,
1000
0001
1000
0001
1000
0000
0001
0000
,
0100
0010
0100
0010
,
0100
0010
0100
0010
,
0100
0001
0100
0001
0100
0001
0100
0001
,
0100
0001
0100
0001
0100
0001
0100
0001
,
0100
0001
0100
0001
0100
0001
0100
0001
,
0100
0001
0100
0001
0100
0001
0100
0000
,
0010
1000
0010
1000
0010
1000
0010
1000
,
0010
1000
0010
1000
0010
1000
0010
1000
,
0010
1000
0010
1000
0010
1000
0010
1000
,
0010
1000
0010
1000
0010
1000
0010
0000
,
1000
1000
0001
0001
,
1000
1000
0001
0001
,
0200
0010
0001
0010
,
0301
0001
0100
0010
,
2000
0010
0100
0010
,
0100
0010
0100
0010
,
3010
1000
0100
0010
,
0001
0010
0001
0010
0001
0010
0001
0010
,
0001
0010
0001
0010
0100
1000
0001
0000
;
#NOTES:
     dance-single:
     Renard:
     Beginner:
     4:
     0.329,0.456,0.000,0.114,0.000:
0000
0000
0000
0000
,
0000
0000
0000
0000
,
0000
0000
0000
0000
,
0000
0000
0000
0000
,
0000
0000
0000
0000
,
0000
0000
0000
0000
,
0000
0000
0000
0000
,
0000
0000
0000
0000
,
0001
0001
1000
0000
,
0100
0000
1000
0000
,
0001
0001
1000
0000
,
0100
0000
1000
0000
,
0001
1000
0001
1000
,
0001
1000
0001
1000
,
0010
0010
0010
0000
,
0100
0100
0100
0000
,
0002
0000
2003
0000
,
3002
0000
2003
0000
,
3020
0000
0230
0000
,
0320
0000
0230
0000
,
0302
0000
2003
0000
3002
0000
2003
3000
,
0001
0001
1000
1000
,
0001
0001
0001
0001
,
1000
1000
1000
1000
,
0010
0010
0100
0010
,
1000
0000
0000
0000
,
0010
0010
0010
1000
,
0001
0001
0001
0100
,
0001
1000
0100
0010
,
0001
0000
0000
0000
,
1000
1000
1000
0000
,
0001
0001
0001
0000
,
0100
0100
0010
0010
,
0100
0000
0000
0000
,
0001
0001
0001
0100
,
0010
0010
0010
1000
,
0010
1000
0001
0100
,
0001
0000
0000
0000
,
1000
0000
0000
0000
,
0001
0001
0001
0001
,
1000
1000
0001
0001
,
1000
1000
1000
1000
,
0001
1000
0001
0000
,
1000
1000
1000
1000
,
0001
0001
1000
1000
,
0001
0001
1000
0001
,
1000
0001
1000
0000
,
0001
0100
0001
0100
,
0010
1000
0010
1000
,
0001
0100
0001
0100
,
0010
1000
0010
1000
,
0001
0100
0010
1000
,
0001
0100
0010
1000
,
0001
0100
0010
1000
,
0001
1000
0001
0000
,
1000
0000
0000
0000
,
0001
0001
0001
0001
,
1000
1000
0100
0100
,
0010
0010
0001
0001
,
1000
1000
0100
0100
,
0010
0010
0001
0001
,
1000
0100
1000
0100
,
0010
0001
0010
0001
,
1000
0100
1000
0100
,
0010
0010
0001
0001
,
1000
0000
1000
0000
0001
0001
0001
0000
,
1000
0000
1000
0000
0001
0001
0001
0000
,
0100
0010
0100
0010
,
0100
0010
0100
0010
,
1000
0000
1000
0000
0001
0001
0001
0000
,
1000
0000
1000
0000
0001
0001
0001
0000
,
1000
0001
0100
0010
,
1000
0100
0010
0001
,
1000
0000
0001
0000
1000
0001
1000
0000
;
