#TITLE:Pink + Green;
#SUBTITLE:;
#ARTIST:Venetian Snares;
#TITLETRANSLIT:;
#SUBTITLETRANSLIT:;
#ARTISTTRANSLIT:;
#CRChallenge:;
#BANNER:pink.png;
#BACKGROUND:pink-bg.png;
#LYRICSPATH:;
#CDTITLE:;
#MUSIC:pink.ogg;
#OFFSET:0.000;
#SAMPLESTART:22.569;
#SAMPLELENGTH:11.500;
#SELECTABLE:YES;
#BPMS:0.000=175.000;
#STOPS:;
#BGCHANGES:;
#NOTES:
     dance-single:
     Renard:
     Hard:
     11:
     0.862,0.899,0.300,0.591,0.625:
0000
0000
0000
0000
,
0000
0000
0000
0000
0000
0000
1000
0100
,
0002
0203
2300
3010
,
0101
0000
0000
0000
0010
1000
0010
0000
0100
0000
0001
0100
0000
0010
1000
0000
,
0000
1001
0000
0000
0001
0100
0010
1000
0001
0000
0000
0001
0000
0001
0010
0000
,
0000
0100
1000
0010
0002
0000
0023
0000
,
1030
0001
1000
0000
0001
0000
0000
0000
1001
0000
0000
0000
0010
1000
0010
0000
,
1000
0000
0000
1001
0000
0000
0001
0000
0000
1001
0000
0000
0001
0000
0100
0000
,
1001
0000
0000
0000
0010
0000
0000
0010
0000
0000
0010
0000
1000
0000
0200
0000
,
0000
0302
0000
0203
0000
2300
0000
3020
,
0000
0000
0230
0000
0301
0000
0000
0001
1000
0000
0100
0000
0001
0000
0100
0000
,
1000
0000
0000
0000
0001
0100
0001
0100
0010
0000
1000
0000
0100
0000
0001
0000
,
0200
0000
1300
0020
0000
0032
0000
0023
,
0000
0230
0000
0302
0000
0013
0100
0000
,
1000
0000
0001
0100
0001
0100
0001
0000
1000
0000
0000
0000
0110
0000
0000
0000
,
0020
0000
0000
2030
0000
0000
3002
0000
0000
0023
0000
0000
0230
0000
0300
0100
,
0000
0000
2000
0000
3000
1000
0000
0000
0002
0000
0000
0000
0203
0000
0000
0000
,
2300
0000
0000
0000
3100
0001
0100
0000
0101
0000
0000
0101
0000
0000
1010
0000
,
0000
1010
0000
0000
2000
0000
0000
0000
3020
0000
0000
0000
0032
0000
0000
0000
,
0013
0100
0010
0000
1000
0000
0010
0000
0001
0000
0010
0000
1000
0000
0100
0000
,
0001
0000
0100
0000
1000
0000
1000
0001
0000
0001
0010
0000
0100
0000
1000
0000
,
0001
0100
1000
0100
0001
0010
0100
1000
,
0001
0000
1000
0001
0000
1000
0010
0000
1000
0001
0000
1000
0100
0000
1000
0000
,
0010
0000
0001
0000
0010
0000
0100
0000
0001
0000
1000
0000
0100
0000
0100
0010
,
0000
0010
0001
0000
0001
0000
1000
0000
0010
0000
0100
0000
0001
0000
1000
0000
,
0210
0000
0301
0100
1000
0100
0010
1000
,
0100
0001
0100
0100
0020
0000
0032
0000
,
0013
0001
0010
0001
0010
0001
0000
0010
0001
0010
0000
0001
0010
0001
0010
0001
,
1000
0000
0000
0100
0010
0001
1000
0000
0000
0101
0000
0000
1001
0000
0000
0000
,
0001
0000
0010
1100
0000
0101
1001
0100
,
0020
0000
0000
0000
2030
0000
0000
0000
3010
0100
0010
0000
0000
0000
1001
0000
,
0000
0000
0110
0000
0001
0100
0001
0100
0002
0000
0000
2003
0000
0000
3002
0000
,
0000
2003
0000
0000
3001
0100
0010
0000
1001
0000
0000
0000
1000
0000
0000
1000
,
0001
1000
0001
0001
0100
0100
1000
0000
,
0001
0001
0010
0010
1000
0010
1001
0000
,
0001
0010
0100
1000
0100
0010
0001
1000
0100
0010
0001
0010
0100
1000
0001
0010
,
0100
1000
0100
0010
0001
1000
0100
0010
0001
0010
0100
1000
0001
0000
0100
0000
,
1000
0100
0001
0000
0001
0010
1000
0010
,
0001
0000
1001
0000
0001
0100
0020
0000
,
2030
0000
0000
0000
3001
0000
0000
0000
0110
0000
0000
0001
0100
0010
1000
0001
,
1000
0100
0010
0001
1000
0000
0000
0000
0100
0000
0001
0000
0100
0000
0000
0000
,
1000
0001
0200
0000
0000
0000
0310
1000
0010
1000
0001
0000
1000
0000
0100
0000
,
1000
0001
0100
0000
0010
0000
1000
0000
0200
0000
0000
0000
0310
0001
0010
0001
,
2000
0000
0000
3200
0000
0000
0310
0001
0010
0000
0001
0000
1000
0000
0000
0000
,
0001
0000
0001
0000
0100
0000
0000
0000
0010
1000
0001
0100
0010
0000
1000
0000
,
0001
1000
0100
0010
0002
0000
0000
0000
1003
0000
0100
0010
0001
0000
0001
0000
,
1000
0000
0100
0010
0001
0000
0001
0000
1000
0000
0010
0000
0100
0000
0001
0000
,
0010
1000
0010
0001
0100
1000
0100
0001
,
0010
0000
1000
0000
0010
0000
0010
0000
0001
0010
0100
1000
0001
1000
0000
0000
,
0001
0100
0010
1000
0000
0000
1000
0010
0100
0001
0000
1000
0100
0000
0010
0000
,
0001
1000
0010
0100
1001
0000
0001
0100
,
1000
0001
0010
1000
0001
0100
1000
0100
,
0001
0000
0000
0000
0011
0000
0000
0000
1000
0100
0010
0001
0000
0000
0001
0010
,
0100
1000
0000
0001
0100
0000
0010
1000
0010
1000
0010
1000
0010
1000
0010
1000
,
0010
0100
0000
0000
0010
0000
1000
0000
0002
0000
0000
0000
0023
0000
0000
0000
,
0230
0000
0000
0000
1300
0000
0000
1000
0000
0000
1000
0000
0000
0000
0000
0000
,
0001
0100
0010
1000
0000
0000
1000
0010
0100
0001
0000
0000
0000
0000
0000
0000
,
1000
0000
0000
0100
0000
0000
0010
0000
0000
0001
0000
0000
1000
0000
0100
0000
,
0020
0000
0000
0000
0032
0000
0000
0000
2003
0000
0000
0000
3001
0000
0000
0001
,
0000
0000
0001
0000
0000
0001
0000
0000
0001
0000
1000
0000
0100
0000
0001
0000
,
0100
0000
1000
1000
0010
0001
0010
0100
,
0001
1000
0000
1001
,
0001
0000
0100
0001
0000
0000
1000
0000
0010
0000
1000
0000
1010
0000
0000
0000
,
0100
0000
0001
0000
1000
0000
0000
0000
1200
0000
0000
0000
0310
0000
0001
0010
,
0000
0100
1000
0010
0110
0000
0210
0000
,
0000
0000
0301
0000
0000
0000
0000
0000
1000
0000
0001
0100
0000
0000
0010
0000
,
1000
0000
0100
0000
0010
0000
0000
0010
0001
0000
0000
1000
0100
0000
0000
0100
,
1000
0000
0000
0000
0001
0000
0000
0001
0100
0000
0000
0100
0010
0000
1000
0000
,
0000
0010
0000
0000
0100
0000
0000
0000
0000
0000
0000
0000
1001
0000
0000
0000
,
0000
0000
0000
0000
0001
0100
0010
1000
0000
0000
0000
0000
0000
0000
0000
0000
,
0001
1000
0200
0000
0320
0000
0032
0000
,
1003
0000
0000
0000
0100
1000
0001
0010
0100
1000
0000
0000
0001
0000
0010
0000
,
0200
0000
0000
0000
2300
0000
0000
0000
3002
0000
0000
0000
0103
0000
0000
0100
,
0000
0000
0100
0000
0000
0100
0000
0000
0001
0000
1000
0000
0002
0000
0000
0000
,
2003
3001
0000
0000
;
#NOTES:
     dance-single:
     WinDEU:
     Medium:
     9:
     0.756,0.866,0.058,0.620,0.422:
0000
0000
0000
0000
,
0000
0000
0000
0000
0000
0000
1000
1000
,
0020
0230
0302
0013
,
0010
0100
1000
0010
0110
0100
0001
0010
,
0000
0100
0000
0000
1000
0001
1000
0001
1000
0000
0000
1000
0001
0000
0100
0000
,
0010
1000
0100
0100
0020
0000
0032
0003
,
2000
0000
0000
0000
3010
0000
0000
0000
0100
0000
0001
0100
0001
0100
0001
0000
,
1000
0000
0000
0100
0000
0000
0010
0000
0000
0001
0000
0000
0100
0001
0100
0001
,
1000
0000
0000
0000
0100
0000
0000
0100
0010
0000
0001
0000
0100
0000
0020
0000
,
0000
2030
0000
3200
0000
0320
0000
0032
,
0000
0203
0000
0000
0310
1000
0010
1000
,
0100
0000
0010
0001
0100
0001
0010
0100
,
1000
0000
0010
0200
0000
0302
0000
0023
,
0000
0230
0000
1300
0000
0010
1000
0000
,
0100
0010
0000
0001
0100
0010
0000
1000
,
0010
0000
0000
0100
0000
0000
0001
0000
0000
0010
0000
0000
0100
0000
0000
1000
,
0000
0000
0010
0000
0000
0100
0000
0000
0020
0000
0000
0000
2030
0000
3002
0000
,
2003
0000
0000
0000
,
0000
0000
3200
0000
0320
0032
0023
0000
,
0000
0000
0031
0010
0001
0010
0100
1000
,
0010
0100
0010
1000
0001
0010
0100
1000
,
0010
0110
0101
MMMM
,
0001
0000
1000
0001
0000
1000
0001
0000
1000
0001
0000
1000
0001
0000
0100
0000
,
0010
0000
0000
0000
1000
0000
0000
0000
MMMM
0000
0000
0000
1000
0000
0010
1000
,
0000
0010
1000
0000
0010
0000
1000
0000
0010
0000
0000
0100
0000
0000
0001
0000
,
0010
0100
1000
0100
0010
0001
0100
0010
,
1000
0100
1000
1000
0020
0000
0230
0000
,
0301
0001
0020
0000
0230
0000
2300
0000
,
3010
0000
0000
0000
0100
0000
0001
0000
0000
0010
0000
0000
0100
0000
1000
0000
,
0100
0000
0000
0000
1000
0000
0001
0100
0000
0000
0010
0000
1000
0000
1000
0000
,
0200
0000
0320
0000
0031
0001
0200
0300
,
0020
0000
0000
0000
2030
0000
0000
0000
3010
0000
0000
0100
0000
0000
0001
0000
,
0000
1000
0000
0000
0100
0000
0100
0000
0010
0000
0000
0000
0001
0000
0000
0001
,
0100
0000
0001
0100
0001
0000
0100
0000
0010
0000
0100
0000
0001
0000
0000
0000
,
1000
0100
0010
0100
1000
0010
0100
0000
,
0001
1000
0001
1000
0001
1000
0001
1000
0001
1000
0001
1000
0001
1000
0001
1000
,
0001
1000
0001
1000
0001
1000
0001
1000
0001
1000
0001
1000
0002
0000
0000
0000
,
0103
0010
1000
0000
0100
0010
0001
0100
,
0010
0000
1010
0000
1000
1000
0020
0000
,
0230
0000
0300
0000
0001
0000
0020
0000
0130
0000
0000
0100
1000
0100
1000
0001
,
0000
0100
0010
0100
0020
0000
0030
0000
1000
0000
0010
0000
1000
0000
0000
0000
,
0001
0020
0000
0130
1000
0010
0100
0001
,
0010
0100
1000
0010
0100
0010
1000
0100
,
0010
0000
0000
0010
0000
0000
0001
0000
0000
0000
0000
0000
1001
0000
0000
0000
,
0001
0000
0100
0000
0010
0000
0000
0000
1000
0010
1000
0010
1000
0000
0001
0000
,
0010
0001
0010
0001
0010
0000
0100
0000
1000
0000
0001
0100
0001
0000
1000
0000
,
0001
0000
1000
0100
1000
0000
0001
0000
1000
0000
0001
0000
2000
0000
0000
0000
,
3000
0010
0100
0100
0001
0010
0010
0100
,
1000
1000
0010
0010
0200
0000
0302
0003
,
0010
0100
0010
0000
0000
0000
0100
1000
0100
0000
0000
0000
1000
0000
0001
0000
,
0100
0010
1000
0010
0110
0000
0001
0001
,
0010
0100
0100
1000
0010
0010
0100
0100
,
0002
0000
0000
0000
0023
0000
0030
0000
0100
1000
0100
0000
0000
0000
0010
0001
,
0010
0000
0000
0001
0100
0000
0001
1000
0001
1000
0001
1000
0001
1000
0001
1000
,
0001
1000
0000
0000
0010
0000
0010
0000
0200
0000
0000
0000
0302
0000
0000
0000
,
0023
0000
0000
0000
0130
0000
0000
0100
0000
0000
1000
0000
0000
0000
0000
0000
,
0001
0100
0001
0000
0000
0000
1000
0010
1000
0000
0000
0000
0010
0000
0000
0000
,
0100
0000
0000
0100
0000
0000
0001
0000
0000
0010
0000
0000
0100
0000
0100
0000
,
2000
0000
0000
0000
3020
0000
0000
0000
0230
0000
0000
0000
0301
0000
0000
0001
,
0000
0000
0010
0000
0000
0100
0000
0000
1000
0000
0100
0000
1000
0000
0010
0000
,
0100
0000
0001
0100
0001
0010
0001
1000
,
0100
0000
0000
0000
0010
0000
0000
0010
0000
0000
0001
0000
0100
0000
0000
0000
,
0010
0000
0000
0010
0000
0000
1000
0000
0100
0000
0000
0000
0010
0000
0000
0000
,
0001
0000
0001
0000
0100
0000
0010
0000
0000
0000
0010
0000
1000
0000
0000
1000
,
0000
0010
0100
0000
0001
0000
0010
0010
,
0200
0000
0000
0000
2300
0000
0000
0000
3010
0000
0000
0010
0000
0000
0100
0000
,
0001
0000
0000
0000
0010
0000
0000
0100
1000
0001
1000
0000
0001
0100
0001
0000
,
1000
0010
1000
0000
0001
0000
0000
0001
1000
0000
0000
1000
0001
0000
0100
0000
,
0000
0100
0000
0000
0010
0000
0010
0000
2000
0000
0000
0000
3002
0000
0000
0000
,
0013
0000
0000
0000
0100
1000
0100
1000
0200
0000
0000
0000
0000
0000
0000
0000
,
0310
0010
0002
0000
0203
0000
0320
0000
,
2030
0000
3002
0000
,
0013
0000
0000
0000
0100
0000
0000
0000
1000
0000
0000
0000
0010
0000
0000
0100
,
0000
0000
0010
0000
0000
0100
0000
0000
0001
0000
0000
0000
2000
0000
0000
0000
,
3002
2003
3000
0000
;
#NOTES:
     dance-single:
     WinDEU:
     Easy:
     7:
     0.555,0.576,0.087,0.737,0.015:
0000
0000
0000
0000
,
0000
0000
0000
0000
0000
0000
1000
0001
,
0020
0130
2000
3001
,
0100
0001
0000
0001
2000
0000
3000
0200
,
0000
0300
0010
0001
0100
0000
0000
0001
,
0000
0001
0010
0100
2000
0000
3020
0030
,
1001
0000
0001
0000
0001
0100
0000
0100
,
0020
0000
0030
2000
0000
3000
0100
0010
,
0001
0000
2000
0000
3000
1000
0010
0200
,
0000
0302
0000
0023
0000
0230
0000
2300
,
0000
3020
0000
0030
0100
0000
0100
0000
,
0001
0000
1000
0100
0000
0100
1000
0001
,
1000
0000
1000
0020
0000
0230
0000
0302
,
0000
0023
0000
0130
0000
0100
1000
0000
,
0001
0100
0000
0001
1000
0100
0000
0010
,
0002
0000
0003
0200
0000
0300
0000
0000
,
0000
0000
0000
0000
0002
0000
0103
0010
,
2000
0000
0000
3000
,
0000
0000
2000
0000
3100
0010
0002
0000
,
0003
0100
0001
1000
,
0000
0000
0100
0010
0100
0010
0100
0010
,
0001
0100
0010
0000
,
1000
0000
0000
0001
0000
0000
1000
0000
0000
0001
0000
0000
1000
0000
0000
0000
,
0001
0000
0000
0000
0100
0000
0000
0000
0000
0000
0000
0000
0010
0000
0000
0100
,
0000
0010
0000
0100
0010
0000
1000
0000
,
0100
0000
0010
0001
0100
0001
0010
0001
,
1000
0000
0010
1000
0020
0000
0230
0000
,
0301
0100
0002
0000
2003
0000
3200
0000
,
0310
0000
0001
0200
0000
0300
0020
0000
,
1030
0000
0100
1000
0000
0010
0100
0001
,
0200
0000
0302
0000
0013
0001
0020
0030
,
0200
0000
2300
0000
3020
0000
0030
0200
,
0000
0300
0001
1000
0001
0000
2000
0000
,
3000
1000
0100
0010
0100
1000
0100
0000
,
0010
0001
1000
0001
0020
0000
0030
0000
,
2002
0000
0000
0000
,
0000
0000
0000
3003
,
1000
0010
0100
0000
0001
0010
0100
0010
,
0002
0000
0003
0000
1000
0010
2000
0000
,
3020
0030
0100
0000
0001
0000
1000
0100
,
1000
0100
0010
0000
0001
0100
0001
0000
,
0100
0020
0000
0000
0030
1000
0000
0100
,
0000
0010
0002
0000
0000
0000
0000
0000
,
2003
0000
3000
2000
0000
3000
0010
0000
,
0100
0001
0100
0000
0010
1000
0010
1000
,
0100
0000
0010
0000
0001
1000
0100
1000
,
0001
1000
0100
1000
0001
1000
0200
0000
,
0300
0000
0010
0000
0001
0100
0000
0010
,
1000
0000
0010
0000
0200
0000
0302
0003
,
0101
0000
0000
1010
0000
0000
1000
0100
,
1000
0100
1000
0100
0010
0000
0001
0000
,
0100
0010
0000
1000
0100
0000
0010
0000
,
0002
0000
0203
0300
0110
0000
0000
1001
,
0000
1000
0100
0010
,
0000
0000
0001
0100
0002
0000
2003
0000
,
3200
0000
2300
0000
3000
0020
0030
0000
,
1010
0000
0000
0101
0000
0000
0000
0000
,
0002
0000
0003
2000
0000
3000
0100
1000
,
0200
0320
0032
0203
,
0300
0020
0000
0030
1000
0010
1000
0010
,
1000
0000
0010
0100
0010
0100
0010
0100
,
0001
1000
0100
0010
,
0001
0000
1000
0010
0100
0000
0010
0000
,
1000
0000
0001
0000
0010
0100
1000
0000
,
0010
0100
0001
1000
,
0100
0000
0010
0000
0001
0000
0100
0010
,
1000
0010
0100
0001
,
0010
0000
0100
0000
0010
0000
0001
2000
,
0000
3000
0001
0100
0002
0000
0023
0000
,
0230
0300
2200
0000
0000
0000
3300
0000
,
0100
0010
0200
0000
0320
0000
0032
0000
,
0103
0001
1000
0100
,
0010
0001
0100
0010
,
1000
0010
0100
0001
,
0010
0001
0000
0000
;
#NOTES:
     dance-single:
     WinDEU:
     Beginner:
     4:
     0.352,0.396,0.078,0.310,0.000:
0000
0000
0000
0000
,
0000
0000
0000
1000
,
0100
0010
0001
0200
,
0000
0000
0300
0000
0010
0000
0000
1000
,
0000
0000
0100
0000
0010
0000
0000
0001
,
0000
0100
0010
1000
,
0001
0000
0010
0000
0000
0100
0000
0000
,
1000
0000
0000
0010
0000
0000
0100
0000
,
0001
0000
1000
0000
0000
0000
1000
0100
,
0000
0010
0000
0001
0000
0100
0000
0010
,
0000
1000
0000
0000
0010
0000
0100
0000
,
0001
0010
0100
1000
,
0010
0000
0100
0001
0000
1000
0000
0010
,
0000
1000
0000
0001
0000
0010
0100
0000
,
1000
0010
0100
0001
,
0202
0000
0303
0000
,
0000
0000
0002
0203
,
0320
0000
0000
0030
,
0000
2000
3200
0320
,
0000
0031
0100
0010
,
0000
2020
0000
3030
,
0100
0001
0010
0000
,
0022
0000
0033
0100
,
1000
0010
0000
2020
,
0000
3030
0100
0001
,
0010
0100
1000
0010
,
0000
0001
0100
0001
,
0010
0100
1000
0010
,
0200
0000
0000
0300
,
0010
1000
0000
0100
,
0010
0001
1000
0010
,
0100
0000
0001
0000
0100
0000
0000
0010
,
0000
1000
0100
2000
,
0000
3002
0203
0320
,
1030
0100
0010
0001
,
2002
0000
0000
0000
,
0000
0000
3003
0001
,
0100
0010
1000
0100
,
0010
0001
1000
0010
,
0100
0010
1010
0000
,
0000
0001
0100
0001
,
0020
0000
0030
0000
,
0000
0000
0000
0000
,
0000
0000
0000
0100
,
1000
0100
0010
0001
,
0100
0010
2000
0000
,
0000
0000
0000
0000
,
3000
0000
0001
0000
0000
0100
0000
0000
,
0010
1000
0100
0010
,
0002
0000
0000
0003
0000
0000
0100
0000
,
0010
1000
1001
0001
,
0000
0010
0000
0000
0100
0000
0010
0000
,
0001
0000
0100
0000
0020
0000
0000
0030
,
0000
1000
0000
0000
,
0000
1000
0001
1000
,
0001
0200
0000
0300
,
0010
1000
0100
0010
,
0002
0000
0003
0100
,
0010
1000
0001
0020
,
0000
0030
0100
0010
,
0001
0100
0010
1000
,
0010
0100
0000
0001
,
0010
0100
0100
1000
,
0010
0000
0100
0001
,
1000
1000
0100
0010
,
0000
0001
0100
0001
,
0001
1000
0010
0100
,
0010
0100
0010
0200
,
0300
0001
0010
0100
,
1000
2200
0000
3300
,
0100
0010
0001
0100
,
0010
1000
0100
0010
,
0001
0100
0010
1000
,
0001
1000
0010
0100
,
0001
0100
0000
0000
;
