#TITLE:Pictures (Paul Van Dyk Remix);
#SUBTITLE:;
#ARTIST:Timo Maas;
#TITLETRANSLIT:;
#SUBTITLETRANSLIT:;
#ARTISTTRANSLIT:;
#CRChallenge:;
#BANNER:pictures.png;
#BACKGROUND:pictures-bg.png;
#LYRICSPATH:;
#CDTITLE:!cdtitle.png;
#MUSIC:pictures.ogg;
#OFFSET:0.000;
#SAMPLESTART:26.549;
#SAMPLELENGTH:12.000;
#SELECTABLE:YES;
#BPMS:0.000=137.339,32.000=68.670,48.000=137.339,144.000=68.670,152.000=137.339;
#STOPS:;
#BGCHANGES:;
#NOTES:
     dance-single:
     Renard:
     Challenge:
     9:
     0.521,0.628,0.131,0.633,0.422:
0000
0000
0000
0000
,
0000
0000
0000
0000
,
0000
0000
0000
0000
,
0000
0000
0000
0000
,
0000
0000
0000
0000
,
0000
0000
0000
0000
,
0000
0000
0000
0000
,
0000
0000
0000
0000
,
0022
0000
0000
0000
0000
0000
0000
0000
0030
0000
0000
0203
0320
2030
3200
0320
,
0032
0000
0000
0000
0000
0000
0000
0000
0000
0000
0000
0023
0230
2300
0000
0000
,
3020
0000
0230
0000
0000
0000
0000
0000
0000
0000
0000
0320
2030
0000
3200
0320
,
0000
0000
0032
0000
0000
0000
0023
0000
0000
0000
0000
0000
0000
0000
0000
0000
0032
0000
0000
0000
0000
0000
0000
0000
0000
0000
0000
0000
0003
0000
0000
1000
,
0001
0000
1000
0100
1000
0000
0001
0100
0001
0000
0000
0000
0010
0000
0100
0000
,
M00M
0000
1000
0100
1000
0000
0001
0010
0001
0000
0000
0000
0100
0000
0010
0000
,
M00M
0000
1000
0010
1000
0000
0001
0100
0001
0000
0000
0000
0010
0000
0100
0000
,
M00M
0000
1000
0100
1000
0000
0001
0010
0001
0000
0000
0000
1000
0000
0010
0000
,
M00M
0000
1000
0100
1000
0000
0001
0100
0001
0000
0000
0000
0010
0000
0100
0000
,
M00M
0000
1000
0100
1000
0000
0001
0010
0001
0000
0000
0000
0100
0000
0010
0000
,
M00M
0000
1000
0100
1000
0000
0001
0100
0001
0000
1000
0010
1000
0000
0001
0010
,
0001
0010
0100
1000
0001
0100
0010
1000
,
0001
0010
0002
0000
0000
0003
1000
0010
2000
0000
0000
3000
0001
0100
0002
0000
,
0000
0003
1000
0100
2000
0000
0000
3000
0001
0010
0001
0000
1000
0010
1000
0000
,
0001
0100
0002
0000
0000
0003
1000
0100
2000
0000
0000
3000
0001
0010
0002
0000
,
0000
0003
1000
0010
2000
0000
0000
3000
0001
0100
0001
0000
1000
0100
1000
0000
,
0001
0010
0002
0000
0000
0003
1000
0010
2000
0000
0000
3000
0100
1000
0200
0000
,
0000
0300
1000
0001
2000
0000
0000
3000
0001
0100
0001
0000
0010
0001
0010
0000
,
0100
0010
0200
0000
0000
0300
1000
0100
2000
0000
0000
3000
0001
0100
0002
0000
,
0000
0003
0100
0010
0200
0000
0000
0300
0010
1000
0010
0000
1000
0001
1000
0000
,
0001
0100
0001
0000
0000
0000
0101
0000
0000
0000
0000
0000
0010
1000
0010
0000
,
0000
0000
1010
0000
0000
0000
0000
0000
1000
0000
0100
1000
0100
0000
1000
0001
,
1000
0001
1000
0000
0000
0000
0101
0000
0000
0000
0000
0000
0001
0010
0001
0000
,
0000
0000
1100
0000
0000
0000
0000
0000
0011
0000
0001
1000
0001
0000
1000
0010
,
1000
0010
1000
0000
0000
0000
0101
0000
0000
0000
0000
0000
0010
0001
0010
0000
,
0000
0000
1100
0000
0000
0000
0000
0000
0101
0000
0001
0100
0001
0000
1000
0010
,
1000
0010
1000
0000
0000
0000
0101
0000
0000
0000
0000
0000
0001
0010
0001
0000
,
0000
0000
1100
0000
0000
0000
0000
0000
0101
0000
0010
1000
0010
0000
0100
0000
,
0002
0000
0000
0023
0000
0000
0032
0000
0000
0023
0000
0000
0031
0010
0100
1000
,
0200
0000
0000
2300
0000
0000
3200
0000
0000
2300
0000
0000
3100
1000
0100
0010
,
0001
1000
0001
1000
0010
0000
0000
0000
0010
0000
0000
0000
0000
0000
0000
0000
,
1000
0001
1000
0001
0100
0000
0000
0000
0100
0000
0000
0000
0000
0000
0000
0000
,
0001
1000
0001
1000
0010
0000
0000
0000
0010
0000
0000
0000
0000
0000
0000
0000
,
1000
0001
0000
0000
0101
0000
0010
1000
0000
0001
0100
0001
1000
0001
1000
0000
,
0002
0000
0100
0023
0000
0001
0230
0000
,
0010
2300
0000
0001
3020
0000
0230
0000
,
0302
0000
1000
0023
0000
0001
0230
0000
,
0010
2300
0000
0001
3020
0000
0230
0000
,
2300
0000
0000
3020
0000
0000
0230
0000
,
0000
0302
0000
0000
0023
0000
2030
0000
,
0002
0000
0000
0000
,
0000
0000
0000
0000
,
3003
0000
0000
0000
;
#NOTES:
     dance-single:
     Renard:
     Medium:
     8:
     0.420,0.628,0.010,0.502,0.110:
0000
0000
0000
0000
,
0000
0000
0000
0000
,
0000
0000
0000
0000
,
0000
0000
0000
0000
,
0000
0000
0000
0000
,
0000
0000
0000
0000
,
0000
0000
0000
0000
,
0000
0000
0000
0000
,
0022
0000
0000
0000
0000
0000
0000
0000
0030
0000
0000
0203
0320
2030
3200
0320
,
0032
0000
0000
0000
0000
0000
0000
0000
0000
0000
0000
0023
0230
2300
0000
0000
,
3020
0000
0230
0000
0000
0000
0000
0000
0000
0000
0000
0320
2030
0000
3200
0320
,
0000
0000
0032
0000
0000
0000
0023
0000
0000
0000
0000
0000
0000
0000
0000
0000
0032
0000
0000
0000
0000
0000
0000
0000
0000
0000
0000
0000
0003
0000
0000
1000
,
0001
0100
0010
0100
1000
0000
1000
0000
,
1000
0100
0010
0100
0001
0000
0001
0000
,
0001
0010
0100
0010
1000
0000
1000
0000
,
1000
0010
0100
0010
0001
0000
0001
0000
,
1000
0010
0100
0010
0001
0000
0001
0000
,
0001
0010
0100
0010
1000
0000
1000
0000
,
1000
0100
0010
0100
0001
0000
0001
0000
,
0001
0100
0010
0100
1000
0010
0100
0001
,
1000
0100
0010
0100
1000
0000
0001
0010
,
0100
0010
0001
0000
1000
0010
0001
0000
,
0001
0010
1000
0010
0001
0000
0001
0010
,
1000
0100
0010
0001
0010
0100
1000
0000
,
0001
0010
0100
0010
0001
0000
1000
0100
,
0010
0100
1000
0000
1000
0100
0001
0000
,
0001
0100
1000
0100
0001
0000
0001
0100
,
1000
0010
0100
0001
0010
0100
1000
0001
,
0100
0001
0100
0001
0100
0001
0010
0001
,
0010
0001
0010
0100
1000
0001
0010
0100
,
1000
0100
1000
0100
1000
0100
1000
0010
,
1000
0010
1000
0010
0100
0001
0010
0000
,
0100
1000
0100
1000
0100
0000
0010
0001
,
0010
0001
0010
0000
0001
0010
0100
1000
,
0001
0100
0001
0100
0001
0000
1000
0010
,
1000
0010
0100
0001
0010
0100
1000
0001
,
2000
0000
0000
3200
0000
0000
2300
0000
0000
3200
0000
0000
1300
0100
0010
0001
,
0020
0000
0000
0032
0000
0000
0023
0000
0000
0032
0000
0000
0013
0001
0010
0100
,
1000
1000
0001
0000
0002
0000
0000
0000
,
0103
0100
0010
0000
0020
0000
0000
0000
,
1030
1000
0001
0000
0002
0000
0000
0000
,
1003
0010
0000
0000
1000
0000
0001
0100
0000
0001
1000
0001
1000
0000
0001
0000
,
2000
0000
0000
3002
0000
0000
0023
0000
,
0000
2030
0000
0000
3002
0000
0203
0000
,
2300
0000
0000
3020
0000
0000
0032
0000
,
0000
2003
0000
0000
3200
0000
0302
0000
,
0023
0000
0000
0230
0000
M000
2300
0000
,
00M0
3020
0000
0M00
0230
000M
0302
0000
,
0023
000M
000M
000M
000M
000M
000M
000M
,
000M
000M
000M
000M
000M
000M
000M
000M
,
003M
0000
0000
0000
;
#NOTES:
     dance-single:
     Renard:
     Easy:
     6:
     0.261,0.326,0.010,0.301,0.000:
0000
0000
0000
0000
,
0000
0000
0000
0000
,
0000
0000
0000
0000
,
0000
0000
0000
0000
,
0000
0000
0000
0000
,
0000
0000
0000
0000
,
0000
0000
0000
0000
,
0000
0000
0000
0000
,
1002
0000
0000
0000
0000
0000
0203
0320
,
2030
0000
0000
3020
,
0230
0000
0000
0302
,
0023
0000
0130
M00M
,
0001
0100
0100
0000
,
0000
0010
1000
0100
0010
0000
0000
0000
,
0001
1000
1000
0000
,
0000
0010
0100
0001
0010
0000
00M0
0000
,
0001
1000
1000
0000
,
0000
0010
1000
0100
0010
0000
0010
0000
,
00M0
0001
1000
0000
1000
0000
0010
0000
,
0000
0100
0001
0010
0001
0000
1000
0000
,
0001
0000
0100
0001
0000
0010
0001
0000
,
1000
0001
0000
0100
0001
0000
0010
0000
,
0001
0000
1000
0010
0000
1000
0100
0000
,
1000
0001
0000
1000
0010
0000
1000
0000
,
0001
0000
0100
0001
0000
1000
0001
0000
,
0010
0001
0000
1000
0001
0000
0100
0000
,
0001
0000
1000
0010
0000
1000
0100
0000
,
1000
0001
0000
1000
0010
0000
1000
0000
,
0001
0000
0001
0010
0000
0010
0100
0000
,
0100
1000
0000
1000
0010
0000
00M0
0000
,
1000
0000
1000
0010
0000
0010
0100
0000
,
0100
0001
0000
0001
0010
0000
00M0
0000
,
0001
0000
0001
1000
0000
1000
0100
0000
,
0100
0010
0000
0010
0001
0000
000M
0000
,
1000
0000
1000
0010
0000
0010
0100
0000
,
0100
0001
0000
0001
0010
0000
00M0
0000
,
0002
0000
0000
0000
0000
0000
2003
3200
,
0320
0000
0000
0000
,
0031
0001
1000
0000
,
0000
0010
1000
0100
0010
0000
0000
0000
,
0001
0001
1000
0000
,
M00M
0000
0000
0000
0001
1000
0001
0000
,
2000
0000
0000
3002
0000
0000
0203
0000
,
0000
0320
0000
0000
2030
0000
3200
0000
,
0320
0000
0000
0032
0000
0000
2003
0000
,
0000
3020
0000
0000
0230
0000
0302
0000
,
0023
0000
0000
0032
0000
0000
2003
0000
,
0000
3200
0000
0000
0320
0000
0000
0000
,
0032
0000
0000
0000
,
0000
0000
0000
0000
,
0003
0000
0000
0000
;
#NOTES:
     dance-single:
     Renard:
     Beginner:
     3:
     0.201,0.251,0.110,0.291,0.000:
0000
0000
0000
0000
,
0000
0000
0000
0000
,
0000
0000
0000
0000
,
0000
0000
0000
0000
,
0000
0000
0000
0000
,
0000
0000
0000
0000
,
0000
0000
0000
0000
,
0000
0000
0000
0000
,
0002
0000
0000
2003
,
3200
0000
0000
0000
,
0320
0000
0000
0000
,
0032
0000
0003
0000
,
1000
0001
0101
0000
,
0001
1000
1100
0000
,
1000
0001
0011
0000
,
0001
1000
1010
0000
,
1000
0001
0101
0000
,
0001
1000
1100
0000
,
1000
0001
0011
0000
,
0001
1000
1010
0000
,
2000
0000
0000
3020
0000
0000
2030
0000
,
0000
3020
0000
0000
0100
0000
0000
0000
,
0230
0000
0000
0302
0000
0000
0203
0000
,
0000
0302
0000
0000
0010
0000
0000
0000
,
0023
0000
0000
0032
0000
0000
0023
0000
,
0000
0032
0000
0000
1000
0000
0000
0000
,
0203
0000
0000
0320
0000
0000
0230
0000
,
0000
0320
0000
0000
1030
0000
0000
0000
,
1000
0000
1000
0000
,
0010
0010
0010
0010
,
0100
0000
0100
0000
,
0001
0001
0001
0001
,
0020
0000
0032
0000
,
1003
1000
0100
0100
,
2000
0000
3200
0000
,
0310
0010
0001
0001
,
2000
0000
0000
0000
,
0002
0000
0000
0000
0000
0000
0000
3003
,
1000
0001
1001
0000
,
0001
1000
1001
0000
,
1000
0001
1001
0000
,
0001
0000
1000
0000
,
0001
0000
0000
0100
0000
0000
0001
0000
,
0000
0100
0000
0000
0001
0000
0100
0000
,
0010
0000
0000
1000
0000
0000
0010
0000
,
0000
1000
0000
0000
0010
0000
1000
0000
,
0200
0000
0000
0000
,
0000
0000
0000
0000
,
0320
0000
0000
0000
,
0000
0000
0000
0000
,
0030
0000
0000
0000
;
