#TITLE:Passage d;
#SUBTITLE:;
#ARTIST:The Flashbulb;
#TITLETRANSLIT:;
#SUBTITLETRANSLIT:;
#ARTISTTRANSLIT:;
#CRChallenge:;
#BANNER:passage.png;
#BACKGROUND:passage-bg.png;
#LYRICSPATH:;
#CDTITLE:!cdtitle.png;
#MUSIC:Passage d.ogg;
#OFFSET:-0.010;
#SAMPLESTART:69.160;
#SAMPLELENGTH:11.760;
#SELECTABLE:YES;
#BPMS:0.000=180.000;
#STOPS:;
#BGCHANGES:;
#NOTES:
     dance-single:
     pyroko:
     Challenge:
     14:
     1.000,1.000,0.366,0.100,1.000:
0000
0000
0000
0000
,
0000
0000
0000
0000
,
1000
0010
0100
0001
,
0100
0010
1000
0001
,
0101
0000
0000
0000
0110
0000
0010
0000
1000
0000
0000
0000
1100
0000
1000
0100
,
1000
0001
0100
0010
1000
0000
0001
0000
0100
0000
0001
0000
0101
0000
0000
0000
,
0100
0010
1000
0001
0100
0000
0001
0000
0101
0000
0001
0100
0001
0000
0001
1000
,
0001
0000
0000
0010
0000
0000
0100
0000
0000
1000
0000
0000
0001
0000
0000
0000
0000
0000
0100
0000
0000
0000
0000
0000
0010
0000
0000
1000
0000
0000
0010
0000
1000
0000
0010
0000
1000
0000
0000
0010
0000
0000
0000
0000
0000
0000
0000
0000
,
1000
0010
0100
0010
1000
0000
0100
0000
1000
0010
1000
0000
0100
0000
1000
0100
,
1000
0010
1000
0001
0100
0000
0001
0000
0001
0000
1000
0100
1000
0000
0100
0000
,
1000
0000
0000
0100
0000
0000
0010
0000
0000
0001
0000
0000
0000
0000
0000
0000
0010
0000
0000
0000
0000
0000
0000
0000
0001
0000
0000
0000
0000
0000
0100
0000
0000
0001
0000
0000
1000
0000
0000
0010
0000
0000
1000
0000
0000
0000
0000
0000
,
0010
0000
1000
0000
1100
0000
1000
0000
0010
0000
0100
0000
0101
0000
0001
1000
,
0001
1000
0100
0000
1000
0100
0010
0000
0100
0010
0001
1000
0010
0000
1000
0100
,
1000
0010
0100
0001
0100
0000
0010
1000
0100
0010
0100
1000
0001
0000
0100
0010
,
1000
0001
0100
0010
1000
0000
1000
0100
0010
0001
0100
0000
0010
1000
0100
0000
,
0100
0000
0010
0100
1000
0000
1000
0010
0100
0001
0010
0001
0010
0000
0001
0100
,
0001
0000
0001
0100
0001
0000
1000
0100
0010
0001
0100
0010
1000
0100
1000
0000
,
0010
0000
1000
0000
1001
0000
0010
0100
0010
1000
0100
0010
0001
0000
1000
0100
,
2000
0000
0000
0000
,
0000
0000
0000
0000
0000
0000
0000
3000
,
0101
0000
0000
0001
1000
0000
0010
1000
0100
0000
0010
0000
0011
0000
0001
0010
,
0001
0000
0100
0000
0110
0000
0010
1000
0100
0000
1000
0000
1001
0000
0000
0000
,
0101
0000
0000
0010
1000
0000
1000
0100
0010
0000
0100
0000
1100
0000
0100
1000
,
0100
0000
1000
0000
0001
0000
0100
0001
1000
0010
0100
0001
0100
0000
0010
0100
,
0010
0000
1000
0100
0000
1000
0100
0000
0010
0001
1000
0010
0100
0000
0001
0010
,
0100
0000
1000
0000
0100
0000
1000
0000
0100
0000
0000
0000
1000
0000
0001
0000
1000
0000
0001
0000
1000
0000
0001
0000
1000
0001
1000
0001
0000
0000
0000
0000
,
0100
0000
0000
0000
0000
0000
0001
0000
0000
0010
0000
0000
0100
0000
0000
0000
0000
0000
1000
0000
0000
0010
0000
0000
0100
0000
0000
0000
0001
0000
0000
0000
1000
0000
0000
0000
0010
0000
0000
0000
0000
0000
0100
0000
0000
0001
0000
0000
,
0100
0000
0001
0000
0010
0000
0100
1000
0100
1000
0001
0100
0010
0100
0001
1000
,
0100
0000
1000
0010
0100
0000
0010
0000
0101
0000
0001
0010
0100
0000
1000
0000
,
0001
0000
0010
0000
0100
0000
1000
0000
0001
0010
0100
1000
0001
0010
0001
0010
,
0001
0010
0100
1000
0001
0100
0010
1000
,
0001
0000
0001
0000
0101
0000
0001
1000
0010
0100
0010
1000
0010
0000
1000
0010
,
1000
0001
0100
0010
0100
0001
0011
0001
,
0011
0000
0100
0000
1000
0000
0100
0000
1000
0000
1010
0000
0100
0000
0010
0001
,
0010
0100
1000
0001
0100
0001
0010
0100
,
0010
0000
0100
0000
1000
0000
0100
0000
1000
0010
1000
0010
1000
0010
1000
0010
,
0100
0000
0001
0010
0100
0000
0100
1000
0100
0010
0001
0100
0001
0000
1000
0100
,
1000
0001
0100
0001
0100
0000
0010
0000
1000
0000
0100
0000
0220
0000
0330
0000
,
0001
1000
0010
1000
0001
0000
0100
0010
1000
0001
0100
0010
0100
0000
0001
0010
,
0100
1000
0001
0100
0010
0000
0100
0000
0001
0010
0001
0010
0001
1000
0010
0000
,
0100
0000
0001
0010
0001
0000
0100
0000
0001
0010
0100
0010
0001
0000
0100
0001
,
0100
0000
0001
0000
0010
0000
0100
1000
0100
0000
1000
0010
1000
0001
0100
0000
,
0001
0000
0010
0100
0010
0000
0001
1000
0010
0100
0010
1000
0001
0010
0100
0000
,
1000
0000
0010
0100
0001
0000
0100
0010
1000
0100
0010
0001
0100
0000
0001
0100
,
0001
0000
0010
0100
1000
0000
0000
0000
0001
0100
0010
1000
0010
0100
0001
0000
,
0010
0000
0000
0100
1000
0000
0001
0000
1010
0000
0100
0000
0001
0010
0001
0000
,
0001
0000
0010
0000
0110
0000
1000
0000
0001
0000
0100
0010
1000
0000
0001
0000
,
0100
0000
0001
0000
0010
0100
0010
0000
0001
0000
0100
0010
1000
0000
0001
0000
,
0010
0000
0100
1000
0100
0000
1000
0000
0001
0100
0010
1000
0010
0000
0100
0000
,
2020
0000
0000
0000
0000
0000
0000
3030
,
0100
0000
0001
0000
0010
0000
0100
1000
0001
0010
0100
1000
0001
0000
0100
0010
,
0100
0001
1000
0001
0100
0000
0010
0100
0001
0010
0100
1000
0001
0010
0001
0010
,
0001
0100
0001
1000
0100
0000
0010
0100
1000
0100
1000
0001
1000
0000
0001
1000
,
0001
1000
0001
0100
0010
0000
0100
0001
0010
0001
0010
0100
1000
0000
0001
0000
,
0011
0000
1000
0001
0100
0000
0010
0100
0001
0000
0100
0001
1000
0000
0001
0010
,
0001
0000
0100
0001
1000
0000
0100
0010
0100
1000
0100
0010
0100
0000
1000
0000
,
0020
0000
0000
0000
0230
0000
0000
0000
0302
0000
0000
0000
1003
0001
1000
0001
,
1000
0000
0000
0010
0100
0000
0110
0000
0000
0101
0000
0000
1001
0000
0000
1010
,
0000
0000
0110
0000
0000
0101
0000
0000
1001
0000
0000
0001
1000
0000
0001
0100
,
0000
0010
0000
0000
1010
0000
0100
0000
0100
0001
0010
0100
0010
0000
0001
0010
,
0100
0000
0000
0000
1000
0000
0000
0000
1010
0000
0000
0000
0100
0000
0001
0000
0100
0000
0000
0000
0001
0000
0000
0000
1000
0010
0000
0000
0000
0000
0000
0000
,
0100
0000
0001
0000
1001
0000
0100
0001
0010
0100
0010
0001
0010
0000
0000
0000
,
0100
0000
0001
0010
0001
0000
0100
0010
1000
0100
0010
0001
0010
0000
0001
0010
,
0001
0100
0010
1000
0010
0000
0100
0001
0010
0001
1000
0010
0100
0000
0010
0100
,
0010
0100
0001
0010
0100
0000
1000
0010
0100
0010
1000
0001
0010
0000
0001
0010
,
0001
0010
0100
0010
0001
0000
1000
0010
0100
0010
1000
0001
0010
0001
0010
0001
,
0010
0001
0010
0100
0010
0000
0010
0001
1000
0010
1000
0100
1000
0000
0001
1000
,
0001
0100
0010
0100
0001
0000
0001
0000
1000
0100
0010
0001
0010
0000
0001
0000
,
1000
0010
0100
0001
0100
0000
0010
1000
0010
0100
0001
0100
0010
0000
1010
0000
,
1000
0100
0010
0001
1000
0000
1000
0100
0010
0001
1000
0010
0100
0000
0101
0000
,
1000
0100
0010
0001
1000
0000
1000
0100
0010
0100
1000
0100
1000
0000
0010
0000
,
0100
0000
0001
0000
0010
0000
0001
0000
1000
0000
0010
0000
2020
0000
0000
3030
,
1000
0000
0100
0010
0001
0000
0010
0001
1000
0010
0100
0010
1000
0000
1000
0010
,
1000
0000
0001
1000
0100
0000
0010
0000
0001
1000
0010
0100
0001
0000
0000
0000
,
0010
0000
0100
1000
0100
0000
1000
0001
1000
0000
0100
0010
0100
0000
0001
1000
,
0001
0000
1000
0100
1000
0000
0100
0000
0010
0001
0010
0001
0100
0000
0010
0000
,
1000
0100
0010
0100
1000
0000
0100
0000
0100
0000
0010
0001
1000
0010
0100
0001
,
0100
0010
1000
0100
1000
0000
1000
0000
0100
0000
0010
0001
0010
0000
0011
0000
,
0001
1000
0010
0100
0000
0010
0100
0000
1001
0000
0001
0000
0100
0000
0101
0000
,
0010
0000
0010
1000
0100
0000
0010
0000
0001
0000
0100
0000
0101
0000
0010
1000
,
0100
0000
0010
0001
1000
0000
1000
0000
0010
1000
0100
0010
0100
0000
1000
0000
,
1100
0000
0010
0000
1000
0000
0100
1000
0100
0000
1000
0000
0100
0000
0010
0000
,
0001
1000
0001
0100
0010
0000
0100
0001
0100
0000
0010
1000
0010
0000
1000
0010
,
1000
0001
0100
0010
1000
0000
0010
1000
0001
0000
0110
0000
0100
0010
0100
0010
,
0100
0000
0000
0000
0001
0000
0000
0000
0010
0000
0000
0001
0000
0000
0010
0000
0001
0000
0010
0000
0100
0000
1000
0000
0001
0000
1000
0000
0010
0000
0100
0000
,
0001
0100
0010
1000
0100
0010
0001
1000
0020
0000
0030
0000
0100
0000
0001
0000
,
1000
0000
0010
0000
0100
0001
0100
0010
1000
0000
0000
0000
0101
0000
0001
0010
,
0200
0000
0000
0000
,
0300
0000
0000
0000
;
#NOTES:
     dance-single:
     Renard:
     Medium:
     9:
     0.744,0.759,0.166,0.000,0.108:
0000
0000
0000
0000
,
0000
0000
0000
0000
,
0000
0000
0000
0000
,
0000
0000
0000
0000
,
0001
1000
0100
1000
0010
0001
0010
0100
,
1000
0000
1000
0100
0000
0100
0001
0010
,
0100
1000
0010
0100
0001
0010
0100
1000
,
0001
0000
0001
0010
0000
0010
0001
0010
,
0100
1000
0010
0100
0001
0010
0100
1000
,
0001
0000
0001
0010
0000
0010
0001
1000
,
0010
0100
0001
0010
0100
0001
0100
1000
,
0010
0000
0010
1000
0000
1000
0010
0001
,
0010
1000
0100
0001
0100
0010
0001
0010
,
0001
0000
0001
0010
0000
0010
0100
1000
,
0001
0100
0010
1000
0100
0010
0100
1000
,
0010
0000
0010
1000
0000
1000
0010
0100
,
0001
0010
0100
1000
0100
0010
0100
1000
,
0001
0010
0100
0010
0001
1000
0010
0100
,
0001
0010
0001
0010
0001
0010
0001
0010
,
0001
0010
0001
0010
0001
0010
0001
0010
,
0001
0010
0100
1000
0010
0100
0001
0010
,
0100
0000
0110
0110
0000
0100
1000
0010
,
0100
0001
0010
0100
1000
0010
0100
0001
,
0010
0000
0011
0011
0000
0001
0010
0100
,
1000
0000
1000
0010
0100
0000
0100
0010
,
1000
0000
1000
0100
0010
0000
0010
0001
,
0010
0100
1000
0001
0100
0010
1000
0100
,
0010
0000
0010
0001
1000
0010
0100
0001
,
0010
0000
0010
0001
0010
0100
1000
0001
,
0100
0000
0100
0010
1000
0000
1000
0100
,
0010
0000
0010
0001
0010
0000
0010
0001
,
0010
0000
0010
0001
0010
0000
0010
0100
,
1000
0010
0100
0001
0100
0010
1000
0010
,
1000
0010
0100
0001
0100
0010
1000
0010
,
1000
0010
0100
0001
0100
0010
0100
0010
,
0100
0001
0100
0010
0100
0001
0100
0010
,
1000
0000
1000
0010
0100
0001
0010
0100
,
1000
0100
0001
0100
0010
0001
0010
1000
,
0010
0000
0010
0100
1000
0010
0100
0001
,
0010
0100
1000
0100
0010
0001
0100
0010
,
1000
0000
1000
0010
0100
0001
0100
0010
,
1000
0010
0001
0010
0100
1000
0100
0001
,
0100
0000
0100
0001
0100
0000
0100
0010
,
1000
0000
1000
0010
1000
0100
0010
0001
,
0010
0000
0010
0001
0010
0100
1000
0100
,
0001
0000
0001
0100
1000
0010
0001
0010
,
1000
0000
1000
0010
0100
0001
0100
1000
,
0100
0000
0100
0010
1000
0100
0001
0100
,
0010
0000
0010
0001
0010
0100
0001
0100
,
1000
0000
0000
0000
,
1000
0010
0100
0010
0001
0010
0100
0010
,
1000
0100
0010
0100
0001
0100
0010
0100
,
0010
1000
0100
0010
0001
0100
0001
0010
,
0001
0010
0100
1000
0001
0100
0010
0000
,
1000
0100
0010
0100
1000
0000
0001
0000
,
0010
0100
0010
0001
0100
0000
1010
0000
,
1000
0010
0100
0001
0010
0100
1000
0000
,
0011
0000
0000
0110
0000
0000
1100
0000
0000
0110
0000
0000
0011
0000
0000
1100
,
0000
0000
0110
0000
0000
0011
0000
0000
1100
0000
0000
0110
0000
0000
0011
0000
,
0000
0110
0000
0000
0100
0000
1000
0000
0010
0000
0100
0000
0001
0000
0000
0000
,
0100
0001
0010
0100
1000
0000
1010
0000
,
1000
0000
0010
0100
0001
0010
0100
1000
,
0001
0000
0001
0010
0100
1000
0001
0100
,
0010
0000
0010
1000
0100
0010
0100
1000
,
0001
0000
0010
0100
0010
0001
1000
0010
,
0100
0000
0100
0010
1000
0000
1000
0010
,
0001
0000
0001
0010
0100
1000
0100
0001
,
0010
0000
0010
0100
0001
0100
1000
0010
,
0001
0000
0001
0010
1000
0100
0001
0100
,
0010
0000
0010
0001
0010
1000
0010
0100
,
0001
0000
0001
0100
1000
0010
0001
0010
,
0100
0000
0000
0000
0100
0000
0000
0000
0100
0000
0100
0000
0100
0000
0000
0100
,
0010
0000
1000
0000
0010
0000
0100
0000
0001
0000
0010
0000
0100
0000
1000
0100
,
1000
0000
0001
0000
0010
0000
0100
0000
1000
0000
0001
0000
0100
0000
0010
0100
,
0010
0000
0100
0000
0010
0000
1000
0000
0100
0000
0010
0000
0001
0000
1000
0001
,
1000
0000
0001
0000
0100
0000
0010
0000
1000
0000
0100
0000
0010
0000
0001
0010
,
0001
0000
0010
0000
0100
0000
1000
0000
0001
0000
0100
0000
0010
0000
1000
0010
,
1000
0000
0010
0000
1000
0000
0100
0000
0010
0000
0001
0000
0010
0000
0001
0100
,
0001
0100
0010
1000
0100
0010
0100
1000
,
0001
0000
0100
0000
0010
0000
1000
0000
0001
0000
1000
0000
0100
1000
0100
1000
,
0100
0000
1000
0000
0001
0000
0010
0000
0100
0000
1000
0000
0001
0100
0001
0100
,
0001
0000
0100
0000
0010
0000
1000
0000
0100
0000
0010
0000
0001
0010
0001
0010
,
0001
0000
0010
0000
0100
0000
1000
0000
0001
0000
0100
0000
0010
1000
0010
1000
,
0010
0000
0100
0000
0001
0000
0010
0000
0100
0000
1000
0000
0001
0100
0001
0100
,
0001
0000
0010
0000
0100
0000
1000
0000
0001
0000
0100
0000
0010
1000
0010
1000
,
0010
0000
0000
1010
0101
0000
0001
0100
,
0010
0000
1000
0000
0100
0000
0010
0000
0001
0000
0010
0000
0100
0000
1000
0100
,
1000
0000
0000
0000
;
#NOTES:
     dance-single:
     WinDEU:
     Easy:
     7:
     0.322,0.506,0.083,0.199,0.096:
0000
0000
0000
0000
,
0000
0000
0000
0000
,
0000
0000
0000
0000
,
0000
0000
0000
0000
,
1000
0000
0000
0100
0000
0000
0010
0000
0100
0000
1000
0000
0100
0000
0010
0000
,
0001
0000
0000
0100
0000
0000
0000
0000
,
0010
0000
0000
1000
0000
0000
0010
0000
0100
0000
0001
0000
0100
0000
0010
0000
,
1000
0000
0000
0100
0000
0000
0000
0000
,
0010
0000
0000
0010
0000
0000
0010
0000
0001
0000
0000
0000
0000
0000
0000
0000
,
0100
0010
0000
1000
0000
0000
0000
0000
,
0100
0000
0000
0010
0000
0000
0001
0000
0100
0000
0000
0000
0010
0000
1000
0000
,
0010
0100
0000
0001
0000
0000
0000
0000
,
0010
0000
0000
0100
0000
0000
1000
0000
0010
0000
0100
0000
0010
0000
0100
0000
,
0001
0000
0000
1000
0000
0000
0000
0000
,
0100
0000
0000
0010
0000
0000
0001
0000
1000
0000
0010
0000
1000
0000
0010
0000
,
0100
0000
0000
0001
0000
0000
0000
0000
,
1001
0000
0000
0000
,
1001
0000
0000
0000
,
2002
0000
0000
0000
,
0000
0000
0000
3003
,
0001
0000
0100
0000
0010
1000
0010
0000
,
0100
0000
0001
0000
,
0010
0000
0100
0000
1000
0100
1000
0000
,
0010
0000
0100
0000
,
0001
0000
0010
0000
0100
1000
0100
0000
,
0010
0001
0100
0010
,
1000
0010
0100
0001
,
0010
0100
1000
0001
,
0100
0010
1000
0100
,
0010
0100
1000
0001
,
0100
0001
1000
0001
0100
0001
1000
0001
,
0100
0001
1000
0001
0010
0000
0000
0000
,
0200
0000
0000
0300
,
2000
0000
0000
3000
,
0020
0000
0000
0030
,
0000
0000
0000
0000
0000
0000
0000
0000
0000
0000
0000
0000
0000
0000
0000
0100
,
0001
0000
0000
0000
,
1000
0100
1000
0100
1000
0100
1000
0000
,
0010
0000
0000
0000
,
0000
0000
0000
0000
,
0100
0000
0000
0000
,
0001
0010
0001
0010
0001
0010
0001
0000
,
1000
0000
0000
0000
,
0010
0000
0000
0100
0000
0000
0001
0000
0000
0010
0000
0000
0100
0000
1000
0000
,
0100
0000
0000
0000
,
0010
0000
0000
0000
,
0001
0000
0000
0000
,
0001
0000
0000
0000
,
0001
0000
0000
0000
,
2002
0000
0000
3003
,
1000
0000
0000
1000
0000
0000
1000
0000
0010
0000
0000
0000
0100
0000
0000
0000
,
0001
0000
0000
0010
0000
0000
0000
0000
,
0100
0000
0000
0100
0000
0000
0100
0000
0010
0000
0000
0000
0001
0000
0000
0000
,
1000
0000
0000
0010
0000
0000
0100
0000
,
0200
0300
0002
0003
,
0020
0030
0000
0000
,
0000
0000
0000
0000
,
0001
0000
0000
0100
0000
0000
0010
0000
0000
1000
0000
0000
0100
0000
0000
1000
,
0000
0000
0010
0000
0000
0100
0000
0000
0001
0000
0000
0010
0000
0000
0100
0000
,
0000
0010
0000
0000
0000
0000
0000
0000
0000
0000
0000
0000
0000
0000
0000
0000
,
0000
0000
0000
0000
,
0100
0000
0000
0010
0000
0000
0001
0000
0100
0000
0010
0000
0100
0000
0010
0000
,
1000
0100
1000
0100
0010
0001
0010
0001
,
1000
0000
0000
0000
,
1010
0000
0000
0000
,
0110
0000
0000
0101
0000
0000
0011
0000
,
0110
0000
0000
0000
0000
0000
0000
0100
,
2000
0000
0000
3000
,
0020
0000
0000
0030
,
0200
0000
0000
0300
,
0200
0000
0000
0300
,
0002
0000
0000
0000
0000
0000
0000
0000
0000
0000
0000
0000
0003
0000
0000
0001
,
0020
0000
0000
0030
,
0100
1000
0100
1000
0001
0100
0001
0000
,
0010
0000
0000
0100
0000
0000
0000
0000
,
2000
0000
0000
3000
,
0010
0000
0000
0000
,
0100
0001
0100
0001
1000
0010
1000
0000
,
0001
0000
0000
0010
0000
0000
0100
0000
1000
0000
0000
0000
0010
0000
0000
0100
,
0000
0000
0001
0000
0000
1000
0000
0000
0100
0000
0000
0010
0000
0000
0001
0000
,
2000
0000
0000
3000
,
0020
0000
0000
0030
,
0200
0000
0000
0300
,
0002
0000
0000
0003
,
0020
0000
0000
0030
,
0200
0000
0000
0300
,
2000
0000
0000
3000
,
1100
0000
0000
0000
;
#NOTES:
     dance-single:
     WinDEU:
     Beginner:
     3:
     0.241,0.325,0.108,0.150,0.000:
0000
0000
0000
0000
,
0000
0000
0000
0000
,
0000
0000
0000
0000
,
0000
0000
0000
0000
,
0001
0010
0100
0010
,
0001
0000
0011
0000
,
1000
0010
0100
0010
,
1000
0000
1010
0000
,
0010
0100
0001
0000
,
0010
0100
1000
0000
,
0010
0100
0001
0000
,
0010
0100
1000
0000
,
0001
0100
0010
0100
,
0001
0000
0101
0000
,
1000
0100
0010
0100
,
1000
0000
1100
0000
,
1001
0000
0000
0000
,
1001
0000
0000
0000
,
2002
0000
0000
0000
,
0000
0000
0000
3003
,
0001
0100
0010
1000
,
0100
0000
1100
0000
,
1000
0010
0100
0001
,
0010
0000
0011
0000
,
0001
1000
0001
1000
,
0100
1000
0100
1000
,
0010
0100
0010
0100
,
0001
0010
0001
0010
,
0100
1000
0100
1000
,
0001
0100
0001
0100
,
0010
1000
0010
1000
,
0001
0000
0010
0000
,
0200
0000
0000
0300
,
2000
0000
0000
3000
,
0020
0000
0000
0030
,
0000
0000
0000
0000
,
0001
0000
0000
0000
,
0010
0001
0010
0001
,
0100
0000
0000
0000
,
0000
0000
0000
0000
,
0010
0000
0000
0000
,
1000
0010
1000
0010
,
0100
0000
0000
0000
,
0001
0000
1000
0000
,
0100
0000
0000
0000
,
0010
0000
0000
0000
,
0001
0000
0000
0000
,
0001
0000
0000
0000
,
0001
0000
0000
0000
,
2002
0000
0000
3003
,
1000
0100
0001
0100
,
1000
0010
1010
0000
,
0001
0010
1000
0010
,
0001
0100
0101
0000
,
0100
0000
0010
0000
,
1000
0000
0000
0000
,
0000
0000
0000
0000
,
2000
0000
3000
0200
0000
0300
0020
0000
,
0030
0002
0000
0003
0200
0000
0300
0020
,
0000
0030
0000
0000
0000
0000
0000
0000
,
0000
0000
0000
0000
,
1000
0010
0100
0001
,
0010
0100
1000
0100
,
0010
0000
0000
0000
,
0001
0000
0000
0000
,
1000
0000
0000
0100
0000
0000
1000
0000
,
0010
0000
0000
0000
,
0200
0000
0000
0300
,
0002
0000
0000
0003
,
0020
0000
0000
0030
,
0020
0000
0000
0030
,
0200
0000
0000
0300
,
1000
0000
0000
0000
,
0010
0100
0001
0010
,
0100
0000
0000
1000
0000
0000
0000
0000
,
0001
0000
0000
0000
,
0100
0000
0000
0000
,
0010
1000
0010
1000
,
0001
0000
0010
0100
,
0000
0000
1000
0100
,
0010
0000
0000
0000
,
0001
0000
0000
0000
,
0100
0000
0000
0000
,
0010
0000
0000
0000
,
1000
0000
0000
0000
,
0001
0000
0000
0000
,
0100
0000
0000
0000
,
1001
0000
0000
0000
;
