#TITLE:Out of the Dark;
#SUBTITLE:;
#ARTIST:Falco;
#TITLETRANSLIT:;
#SUBTITLETRANSLIT:;
#ARTISTTRANSLIT:;
#CRChallenge:;
#BANNER:dark.png;
#BACKGROUND:dark-bg.png;
#LYRICSPATH:;
#CDTITLE:;
#MUSIC:dark.ogg;
#OFFSET:0.000;
#SAMPLESTART:57.314;
#SAMPLELENGTH:12.000;
#SELECTABLE:YES;
#BPMS:0.000=70.140;
#STOPS:;
#BGCHANGES:;
#NOTES:
     dance-single:
     Renard:
     Challenge:
     8:
     0.569,0.577,0.430,0.375,0.656:
0000
0000
0000
0000
,
1000
0001
0000
0000
0110
0000
0010
0100
0000
0001
1000
0000
0110
0000
0000
0000
,
1000
0001
0000
0000
0110
0000
0001
1000
0000
0010
0100
0000
1001
0000
0000
0000
,
1000
0100
0000
0000
0011
0000
0001
0010
0000
0100
1000
0000
1001
0000
0000
0000
,
0001
0100
0000
0000
1010
0000
0001
0100
0000
0010
1000
0000
1100
0000
0011
0000
,
0001
1000
0000
0000
0110
0000
0010
1000
0010
0000
1000
0000
0101
0000
0000
0000
,
0001
0010
0000
0000
0011
0000
0100
1000
0000
0000
0000
0000
0000
0000
0000
0000
,
0001
0001
0010
0010
1000
1000
0010
0010
0001
0001
0100
0100
1000
1000
0100
0100
,
0001
0001
1000
1000
0100
0100
0010
0010
0001
0001
1000
0001
1000
0000
0010
0000
,
1000
1000
0010
0010
0100
0100
0001
0001
0010
0010
1000
1000
0010
0010
0100
0100
,
1000
1000
0001
0001
0010
0010
0001
0001
1000
0010
0100
0001
1000
0000
0001
0000
,
1000
1000
0001
0001
1000
1000
0001
0001
0100
0100
0010
0010
0100
0100
0010
0010
,
1000
1000
0001
0001
0100
0100
1000
1000
0100
0100
0001
0010
0100
1000
0001
0000
,
1000
1000
0100
0100
1000
1000
0001
0001
0010
0010
0001
0001
1000
1000
0010
0010
,
0100
0001
0100
0001
1000
0010
1000
0001
0000
0100
0001
0000
1001
0000
0000
0000
,
0001
2000
0200
0000
3311
0000
1000
0001
0200
0000
0002
0000
1313
0000
1000
0000
,
0001
0000
0200
0000
0002
0000
0000
0000
1313
0000
0000
0000
1000
0000
0100
0000
1000
0000
0001
0010
0001
0000
2000
0000
0200
0000
0010
0000
3301
0000
0000
0000
,
2100
0000
0100
3100
0120
0000
0100
0130
0021
0000
0001
0031
0201
0000
0001
0301
,
2010
0000
0010
3010
1000
0010
0100
0001
0010
0100
1000
0010
0100
0001
0010
0100
,
0120
0000
0100
0130
2100
0000
0100
3100
2010
0000
0010
3010
0210
0000
0010
0310
,
0101
0000
0100
0010
1000
0100
0010
0001
0010
0100
1000
0001
0010
0100
0010
0001
,
0021
0000
0001
0031
0120
0000
0100
0130
2100
0000
0100
3100
2001
0000
0001
3001
,
0201
0000
0001
0301
0210
0000
0010
0310
2010
0000
0010
3010
1000
0100
0010
0001
,
0021
0000
0001
0031
0120
0000
0100
0130
2100
0000
0100
3100
2010
0000
0010
3010
,
0210
0000
0010
0310
0202
0000
0010
1303
0000
0000
0000
0000
0000
0002
2000
0020
,
0000
0000
3033
0000
;
