#TITLE:Our Turn;
#SUBTITLE:;
#ARTIST:Hrvatski;
#TITLETRANSLIT:;
#SUBTITLETRANSLIT:;
#ARTISTTRANSLIT:;
#CRChallenge:;
#BANNER:turn.png;
#BACKGROUND:turn-bg.png;
#LYRICSPATH:;
#CDTITLE:;
#MUSIC:turn.ogg;
#OFFSET:0.000;
#SAMPLESTART:55.920;
#SAMPLELENGTH:11.900;
#SELECTABLE:YES;
#BPMS:0.000=180.000;
#STOPS:;
#BGCHANGES:;
#NOTES:
     dance-single:
     Renard:
     Hard:
     11:
     0.652,0.843,0.515,0.656,0.431:
0000
0000
0000
0000
,
0000
0000
0000
0000
,
0000
0000
0000
0000
,
0000
0000
0000
0000
,
0000
0000
0000
0000
,
0000
0000
0000
0000
,
0000
0000
0000
0000
,
0000
0000
0000
0000
,
1001
0100
1001
0100
1001
0100
0100
0000
,
0101
0000
0000
0010
1000
0000
0101
0000
0000
0010
1000
0000
0101
0000
0000
0000
,
0001
0100
0001
0010
0000
0000
0001
0000
1000
0000
0000
0000
0100
1000
0001
0000
,
0000
1010
0101
0101
0101
0000
0010
0000
,
1000
0010
1000
0010
1000
0001
1000
0001
0100
0001
0000
1000
0001
0000
0000
0000
,
1010
0000
0100
1001
0000
0010
0010
0000
,
0100
0001
0100
0000
0010
1000
0010
0000
0100
0000
0010
0000
0010
0000
1000
0000
,
0001
0000
0010
0000
0001
1000
0010
0000
0000
0100
0000
0010
1000
0000
0000
0000
,
0010
0000
1000
0000
0001
1000
0010
0100
0001
0000
1000
0000
0100
0000
0000
0000
,
1000
0000
0100
0000
0010
0001
0010
0000
0001
0000
0000
1000
0010
0100
0010
0100
,
0001
0000
1000
0100
1000
0000
0000
0000
1001
0000
0000
0000
0100
0001
0010
0000
,
0100
1100
1110
1001
,
0001
0000
0100
0000
0001
0000
0000
0000
1000
0100
0010
0001
0010
0100
0000
0000
,
1000
0100
0010
0000
0001
0010
0100
0000
1000
0000
0000
0000
0010
0000
0000
0000
,
0100
0000
0000
0000
1001
0000
0000
0000
0100
0001
0100
0001
0010
0000
0000
0000
,
1001
0000
0000
0000
0100
0000
1010
0000
0000
0000
0100
0000
0001
1000
0010
0000
,
0100
0000
0001
0000
0100
0000
0010
0000
0000
0000
0000
0000
1000
0000
0000
0010
0000
0000
0202
0000
0000
0000
0000
0000
,
0000
0000
0000
0000
0000
0000
0000
0303
,
1000
0010
1000
0001
1000
0000
0001
0010
0001
1000
0001
0000
1000
0010
1000
0001
,
0100
0000
0100
0000
0100
0000
0001
1000
0010
1000
0001
0000
0000
0000
0100
0000
,
0000
0010
0101
0000
0010
1100
0000
0010
,
1001
0000
0100
1010
0000
0100
0011
0000
,
1001
0000
0110
0000
,
1011
0000
0000
0000
,
1000
0000
0000
0001
0000
0000
0101
0000
0001
1000
0000
0100
,
0010
0000
0000
0011
0000
0000
0010
0000
0100
1000
0000
0001
,
0100
0000
0000
0110
0000
0000
1010
0000
0000
1000
0000
0010
,
0100
0101
0110
1000
,
0100
0000
0000
0110
0000
0000
0011
0000
0010
0100
0000
1000
,
0001
0000
0000
0100
0000
0000
0110
0000
0010
1000
0000
0001
,
0100
0110
1010
1000
,
0001
0000
0100
0000
1000
0000
0100
0000
0001
0000
0010
0000
,
0200
0000
0000
0000
,
0300
0000
0000
0000
,
2000
0000
0000
3000
0000
0000
2000
0000
0000
3000
0000
0000
2000
0000
0000
3000
0000
0000
2000
0000
0000
0000
3200
0000
,
0000
0000
0000
0300
0000
0000
0000
0000
0200
0000
0000
0000
0000
0000
0000
0000
0000
0000
0000
0000
0000
0000
0000
0000
0320
0000
0000
0000
0000
0000
0030
0000
0000
0000
0000
0000
0020
0000
0000
0000
0000
0000
0000
0000
0000
0000
0000
0000
,
0032
0000
0000
0000
0000
2003
0000
0000
0000
0000
0000
0000
,
0000
0000
0000
3000
0000
0002
2003
0000
3020
0230
0000
0302
,
0000
0000
0003
0000
0000
0000
0002
0000
0000
0003
0000
0000
0002
0000
0000
0003
0000
0000
0002
0000
0000
0000
0000
0000
,
0203
0000
0000
0300
0000
0000
0200
0000
0000
0000
0000
0000
0320
0000
0000
0000
0000
0000
2030
0000
0000
0000
3200
0000
,
0000
0000
0000
0000
,
0300
0000
0000
0020
0000
0000
0032
0000
2003
3200
0000
0320
,
0000
0032
0000
2003
,
3020
0030
0020
0000
0230
0000
0302
0000
,
2003
0000
0000
0000
0000
0000
3002
0000
0000
0000
0000
0203
,
0000
0000
0320
2030
,
3002
0000
0000
0203
0000
0320
0000
0000
0000
2030
0000
0000
,
3020
0000
0000
0230
0000
0000
0302
0000
0000
2003
0000
3200
,
0000
0000
0000
0000
0000
0000
0000
0300
,
1001
0000
0000
0000
;
#NOTES:
     dance-single:
     WinDEU:
     Medium:
     8:
     0.584,0.807,0.039,0.707,0.482:
0000
0000
0000
0000
,
0000
0000
0000
0000
,
0000
0000
0000
0000
,
0000
0000
0000
0000
,
0000
0000
0000
0000
,
0000
0000
0000
0000
,
0000
0000
0000
0000
,
0000
0000
0000
0000
,
1000
0100
1000
0100
1000
0010
0010
0000
,
0100
0000
0000
0100
0001
0000
1000
0000
0100
1000
0100
0000
0020
0000
0030
0000
,
0001
0100
0001
0100
0001
0000
1000
0000
0010
0000
0100
0000
0010
1000
0010
0000
,
0100
0000
0001
0010
0000
0100
1000
0000
,
0001
0100
0001
0000
1000
0100
1000
0000
0001
0100
0001
0000
1000
0000
0100
0000
,
0010
0100
1000
0100
0010
0001
0100
0000
,
0010
0100
0010
0000
1000
0010
1000
0000
0010
0000
0100
0000
0001
0000
0010
0000
,
0100
0000
1000
0000
0100
1000
0100
0000
1000
0100
0000
0010
0002
0000
0000
0000
,
0103
0001
0100
0001
0100
0010
0100
0010
,
1000
0010
1000
0000
1010
0000
1001
0000
,
0001
0000
0010
0001
0010
0000
0000
0000
0100
0000
0000
0000
1000
0000
0100
0000
,
0010
0000
0000
0001
0000
0000
0100
0000
0000
0000
0100
0000
0010
0000
0000
0000
0010
0000
1000
0000
0000
0100
0000
0000
,
1000
0000
0010
0000
0100
0000
0001
0000
0010
0100
0000
0010
0100
0000
1000
0000
,
0002
0000
0000
0003
,
0100
0020
1030
0100
,
1000
0000
0000
0000
0100
0000
0010
0000
0000
0000
0001
0000
1000
0001
1000
0000
,
0001
0000
0100
0000
0001
0000
0100
0000
0000
0000
0000
0000
0010
0000
0000
1000
0000
0000
0001
0000
1000
0000
0001
0000
,
2000
0000
0000
3000
,
0100
1000
0000
0100
0010
0000
0001
0010
0000
0100
0010
0000
0001
1000
0001
1000
,
0001
0000
0100
0000
0010
0000
1000
0010
1000
0000
0100
0000
0010
0000
0001
0000
,
0010
0100
1000
0010
0100
0001
0010
0100
,
1000
0000
0000
0010
0000
0000
0100
0000
0000
0001
0000
2000
,
0000
0000
0000
0000
,
3001
0000
0000
0000
,
1000
0000
0100
0000
0010
0000
0001
0000
0010
0000
0100
0000
,
1000
0000
0010
0000
0100
0000
0001
0000
0100
0000
0010
0000
,
1000
0000
0001
0000
0010
0000
0100
0000
0010
0000
0001
0000
,
1000
0000
0010
0000
0100
0000
0001
0000
0100
0000
0010
0000
,
1000
0000
0100
0000
0001
0000
0100
0000
1000
0000
0010
0000
,
0100
0000
0001
0000
0010
0000
1000
0000
0010
0000
0001
0000
,
0100
0000
0001
0000
0100
0000
0001
0000
0100
0000
0001
0000
,
0100
0000
0100
0000
0100
0000
0100
0000
0100
0000
0100
0000
,
0200
0000
0000
0000
,
0300
0000
0000
0000
,
0002
0000
0000
0003
0000
0000
0002
0000
0000
0003
0000
0000
0002
0000
0000
0003
0000
0000
0002
0000
0000
0000
0023
0000
,
0000
0000
0000
0030
0000
0000
0000
0000
0020
0000
0000
0000
0000
0000
0000
0000
0000
0000
0000
0000
0000
0000
0000
0000
0230
0000
0000
0000
0000
0000
0300
0000
0000
0000
0000
0000
0200
0000
0000
0000
0000
0000
0000
0000
0000
0000
0000
0000
,
2300
0000
0000
0000
0000
3002
0000
0000
0000
0000
0000
0000
,
0000
0000
0000
0003
0000
2000
3002
0000
0203
0320
0000
2030
,
0000
0000
3000
0000
0000
0000
2000
0000
0000
3000
0000
0000
2000
0000
0000
3000
0000
0000
2000
0000
0000
0000
0000
0000
,
3020
0000
0000
0030
0000
0000
0020
0000
0000
0000
0000
0000
0230
0000
0000
0000
0000
0000
0302
0000
0000
0000
0023
0000
,
0000
0000
0000
0000
,
0030
0000
0000
0200
0000
0000
2300
0000
3002
0023
0000
0230
,
0000
2300
0000
3002
,
0203
0300
0200
0000
0320
0000
2030
0000
,
3002
0000
0000
0000
0000
0000
2003
0000
0000
0000
0000
3020
,
0000
0000
0230
0302
,
2003
0000
0000
3020
0000
0230
0000
0000
0000
0302
0000
0000
,
0203
0000
0000
0320
0000
0000
2030
0000
0000
3002
0000
0023
,
0000
0000
0000
0000
0000
0000
0000
0030
,
1001
0000
0000
0000
;
#NOTES:
     dance-single:
     WinDEU:
     Easy:
     5:
     0.309,0.367,0.013,0.167,0.257:
0000
0000
0000
0000
,
0000
0000
0000
0000
,
0000
0000
0000
0000
,
0000
0000
0000
0000
,
0000
0000
0000
0000
,
0000
0000
0000
0000
,
0000
0000
0000
0000
,
0000
0000
0000
0000
,
0002
0000
0000
0103
,
0010
0000
0000
1000
0000
0000
0100
0000
0000
0010
0000
0002
,
0000
0000
0000
0103
0000
0000
0000
0000
0010
1000
0000
0000
,
0100
0000
0000
1000
0000
0010
0000
0000
0100
0001
0000
0000
,
0010
0000
0000
0100
0000
1000
0000
0000
0000
0100
0000
0000
,
0010
0000
0000
0001
0000
0000
0100
0000
0000
0010
0000
2000
,
0000
0000
0000
0000
,
3000
0000
0000
0000
,
0100
0000
0000
0100
0000
0000
0100
0000
0000
0100
0000
1000
,
0000
0000
1000
0000
0000
0000
0010
0000
0000
0100
0000
0000
,
0001
0000
0000
0000
0000
2000
0000
0000
0000
0000
0000
0000
,
0000
0000
0000
3000
0000
0100
0010
0000
0001
0100
0000
0020
,
0000
0030
0000
0010
0000
0000
0010
0000
0000
0010
0000
0000
,
1000
0000
0000
1000
0000
0000
0010
0000
0000
0100
0000
0002
,
0000
0000
0000
0000
,
0003
0000
0000
0100
0000
0000
0010
0000
1000
0100
0000
0010
,
0000
0002
0003
0001
,
0100
0100
0010
1000
,
0002
0000
0000
0000
0000
0000
0203
0000
0000
0300
0000
0020
,
0000
0030
1000
0010
,
0010
0000
0000
0100
0000
0100
0000
0000
0000
0001
0000
0000
,
0010
0000
0000
0100
0000
0000
0010
0000
0000
0001
0000
2000
,
0000
0000
0000
0000
,
3001
0000
0000
0000
,
0002
0000
0000
0103
,
0010
0000
0000
1000
0000
0000
0010
0000
0000
0100
0000
0001
,
0000
0000
0000
0100
0000
0000
0000
0000
1000
0010
0000
0000
,
0100
0000
0000
0010
0000
1000
0000
0000
0100
0000
0000
0000
,
0010
0000
0000
0001
0000
0100
0000
0000
0000
0010
0000
0000
,
1000
0000
0000
0001
0000
0000
0010
0000
0000
0100
0000
1000
,
0100
0000
0010
0000
,
0001
0000
1000
0000
0001
0000
1000
0000
0001
0000
1000
0000
,
0002
0000
0000
0000
,
0003
0000
0000
0000
,
1000
0000
0000
1000
0000
0000
1000
0000
0000
1000
0000
0100
,
0000
0000
0100
0000
0000
0000
0010
0000
0000
0010
0000
0000
,
0001
0000
0000
0000
0000
1000
0000
0000
0000
0000
0000
0000
,
0000
0000
0000
0000
0000
0001
1000
0000
0010
0100
0000
0001
,
0000
0001
0001
0001
,
0100
0000
0000
0100
0000
0000
0010
0000
0000
1000
0000
0100
,
0000
0000
0000
0000
,
0000
0000
0000
0010
0000
0000
0001
0000
1000
0100
0000
0010
,
0000
0001
0000
1000
,
0010
0010
0100
0001
,
1000
0000
0000
0000
0000
0000
0001
0000
0000
0000
0000
0100
,
0000
0000
0010
1000
,
0001
0000
0000
0100
0000
0010
0000
0000
0000
1000
0000
0000
,
0010
0000
0000
0100
0000
0000
0001
0000
0000
1000
0000
0100
,
0000
0000
0000
0000
,
1001
0000
0000
0000
;
#NOTES:
     dance-single:
     WinDEU:
     Beginner:
     3:
     0.248,0.367,0.103,0.167,0.000:
0000
0000
0000
0000
,
0000
0000
0000
0000
,
0000
0000
0000
0000
,
0000
0000
0000
0000
,
0000
0000
0000
0000
,
0000
0000
0000
0000
,
0000
0000
0000
0000
,
0000
0000
0000
0000
,
2000
0000
0000
3100
,
0010
0001
0100
0010
,
1000
0000
0001
0000
,
0010
0100
1000
0000
,
0001
0100
0010
0000
,
1000
0001
0010
0100
,
2002
0000
0000
0000
,
0000
0000
0000
3003
,
0100
0010
1000
0010
,
0100
0001
0010
0100
,
0010
0000
0001
0000
,
0100
0000
0010
1000
,
0001
0010
0100
0010
,
0001
1000
0010
0100
,
2002
0000
0000
0000
,
3003
0000
0001
0000
,
0100
0010
1000
0010
,
0100
0001
0010
0100
,
1000
0000
0001
0000
,
2002
0000
3003
0000
,
0010
0100
0001
0000
,
0010
0100
1000
0010
,
0220
0000
0000
0330
,
1001
0000
0000
0000
,
0001
0000
0100
0000
,
0010
0000
1000
0000
,
0001
0000
0010
0000
,
0100
0000
1000
0000
,
0010
0000
0100
0000
,
0001
0000
0100
0000
,
0010
0000
1000
0000
,
0001
0000
0010
0000
,
0200
0000
0000
0000
,
0300
0000
0000
0000
,
0010
0100
0010
0100
,
1000
0000
0100
0000
,
0010
0000
0001
0000
,
0000
0000
0100
0000
,
0010
0000
1000
0000
,
0100
0010
0100
0010
,
0002
0000
0000
0000
,
0003
0000
0100
0000
,
0010
0000
1000
0000
,
0100
0010
0100
0010
,
0001
0000
0100
0000
,
0110
0000
1000
0000
,
0100
0010
0100
0000
,
1000
0001
1000
0000
,
2002
0000
0000
3003
,
1001
0000
0000
0000
;
