#TITLE:Our Furry Past Life;
#SUBTITLE:;
#ARTIST:The Flashbulb;
#TITLETRANSLIT:;
#SUBTITLETRANSLIT:;
#ARTISTTRANSLIT:;
#GENRE:;
#CRChallenge:;
#BANNER:furry.png;
#BACKGROUND:furry-bg.png;
#LYRICSPATH:;
#CDTITLE:!cdtitle.png;
#MUSIC:furry.ogg;
#OFFSET:0.000;
#SAMPLESTART:25.714;
#SAMPLELENGTH:12.000;
#SELECTABLE:YES;
#BPMS:0.000=112.000;
#STOPS:;
#BGCHANGES:;
#KEYSOUNDS:;
#NOTES:
     dance-single:
     Renard:
     Medium:
     8:
     0.474,0.000,0.057,0.076,0.381:
0000
0000
0000
0000
,
0000
0000
0000
0000
,
0000
0000
0000
0000
,
0000
0000
0000
0000
,
1000
0000
0100
0000
0010
0000
0001
0000
1000
0000
0010
1000
0000
0000
0001
0000
,
0100
0000
0001
0000
0010
0000
0100
0000
1000
0000
0001
0100
0000
0000
0010
0000
,
1000
0000
0100
0000
1000
0000
0001
0010
0001
0000
1000
0000
0100
0000
0000
0000
,
1000
0000
0001
0000
0100
0000
0010
1000
0010
0000
1000
0000
0001
0000
1000
0000
,
0001
0000
0100
0000
0010
0000
1000
0000
0100
1000
0001
1000
0000
0000
0000
0000
,
0001
0000
0100
0000
0010
0000
1000
0000
0001
1000
0001
0010
0000
0000
0000
0000
,
0001
0000
1000
0000
0100
0000
0000
0100
1000
0000
0001
0000
0100
0000
0000
0000
,
0001
0000
1000
0000
0010
0000
1000
0001
1000
0000
0001
0000
0100
0000
0010
0000
,
1000
0000
0100
0000
1000
0000
0001
0200
0000
0000
0000
0000
0001
0001
0001
0000
,
0301
0000
1000
0000
0100
0000
0010
0001
0000
0000
1000
0010
0000
0000
0010
0000
,
1000
0000
0001
0000
0100
0001
0000
1000
0000
0000
0100
0000
0010
0000
0001
0000
,
1000
0000
0010
0000
1000
0001
0000
0100
0001
0000
1000
0000
0100
0000
0010
0000
,
0001
0000
1000
0000
0010
0000
0100
0010
0000
0000
1000
0010
0000
0000
1000
0000
,
0010
0000
0100
0000
0001
0000
0010
0001
0000
0000
1000
0100
0000
0000
1000
0000
,
0001
0000
0100
0000
0010
1000
0000
0010
0000
0000
0100
0000
0010
0000
0100
0000
,
0001
0000
1000
0000
0100
0010
0000
0001
0010
0000
0100
0000
1000
0000
0001
0000
,
1000
0000
0100
0000
1000
0000
0001
0100
0000
0001
0100
0010
1000
0000
0010
0000
,
1000
0000
0100
0000
0010
0000
0001
0010
0000
0000
0100
1000
0000
0000
0100
0000
,
1000
0000
0001
0000
0100
0000
0010
1000
0000
0000
0010
0000
1000
0000
0001
0000
,
0100
0000
0001
0000
0010
0000
0001
1000
0000
0100
0010
0001
0010
0100
1000
0100
,
0010
0000
0001
0000
1000
0000
0010
0100
0000
0001
0100
0010
1000
0000
0100
0000
,
0010
0000
0001
0000
0010
0000
0100
1000
0000
0000
0001
0010
0000
0000
0001
0000
,
1000
0000
0100
0000
0010
0000
0001
1000
0000
0000
0001
0000
0100
0000
0010
0000
,
1000
0000
0001
0000
0010
0000
0100
1000
0000
0100
1000
0001
0010
0100
1000
0100
,
0010
0000
0001
0000
0011
0000
0001
0000
0100
0000
0010
0000
1000
0010
0100
0001
,
1000
0000
0100
0000
1100
0000
1000
0000
0001
0000
0010
0000
0001
1000
0000
0000
,
0001
0000
0100
0000
0001
0000
1000
0100
1000
0000
0001
0100
0000
0000
0000
0000
,
0001
0000
1000
0000
0100
0000
0010
0001
0010
0000
0000
1100
0000
0000
0000
0000
,
1000
0000
0010
0000
0100
0000
0000
0100
0001
0000
1000
0000
0100
0000
0000
0000
,
1000
0000
0001
0000
0010
0000
0000
0010
0001
0000
1000
0000
0010
0000
0100
0000
,
0001
0000
0100
0000
0010
0000
1000
0100
0000
0100
0000
0011
0000
0000
0010
0000
,
0100
0000
1000
0000
0001
0000
0100
0010
0000
0010
0000
1010
0000
0000
1000
0000
,
0100
0000
1000
0000
0001
0010
0000
0001
0000
0000
1000
0000
0010
0000
0100
0000
,
0001
0000
1000
0000
0100
0010
0000
0001
0010
0000
0100
0000
1000
0000
0001
0000
,
0100
0000
0010
0000
1000
0000
0010
0100
0000
0001
0100
0010
1000
0000
0010
0000
,
0100
0000
0001
0000
1000
0000
0100
0010
0000
0001
0000
0011
0000
0000
0100
0000
,
1000
0000
0001
0000
0100
0000
0010
1000
0000
1000
0010
0000
0100
0000
0001
0000
,
1000
0000
0100
0000
0010
0000
0001
0010
0000
0010
0001
0010
0100
1000
0100
0010
,
0002
0000
0000
0000
,
0023
0000
0000
0000
,
0230
0000
2300
0000
,
3020
0000
0032
0000
,
0203
0000
0000
0000
,
0300
0000
0000
0000
;
#NOTES:
     dance-single:
     Renard:
     Easy:
     6:
     0.271,0.000,0.038,0.000,0.081:
0000
0000
0000
0000
,
0000
0000
0000
0000
,
0000
0000
0000
0000
,
0000
0000
0000
0000
,
0001
0000
0000
0000
0100
0000
0000
0000
0010
0000
0000
1000
0000
0000
0010
0000
,
0100
0000
0000
0000
0001
0000
0000
0000
0010
0000
0000
0100
0000
0000
1000
0000
,
0001
0000
0100
0010
1000
0000
0010
1000
,
0001
0000
0100
0001
1000
0000
0100
0000
,
0010
0000
0000
0000
0001
0000
0000
0000
1000
0000
0000
0100
0000
0000
1000
0000
,
0001
0000
0000
0000
0100
0000
0000
0000
0010
0000
0000
1000
0000
0000
0010
0000
,
0100
0000
0010
1000
0001
0000
0100
0000
,
0001
0000
1000
0100
1000
0000
0001
0000
,
1000
0100
0000
0011
,
0010
0000
0000
0000
0100
0000
0000
0000
1000
0000
0000
0001
0000
0000
0100
0000
,
0010
0000
1000
0000
0010
0100
0001
0000
,
1000
0000
0100
0000
1000
0001
0100
0001
,
1000
0000
0000
0000
0100
0000
0000
0000
0010
0000
0000
0001
0000
0000
0010
0000
,
0100
0000
1000
0000
0001
0000
0000
0000
0100
0000
0000
0010
0000
0000
1000
0000
,
0010
1000
0010
0000
0100
0001
0100
0000
,
0001
0010
0001
0000
1000
0100
1000
0000
,
0001
0000
0000
0000
0100
0000
0000
0000
0010
0000
1000
0010
0000
0000
0000
0000
,
1000
0000
0000
0000
0001
0000
0000
0000
0100
0000
0001
0100
0000
0000
0000
0000
,
0001
0010
0100
1000
,
0001
0100
0001
0000
1000
0100
1000
0000
,
0001
0000
0000
0000
0010
0000
0000
0000
0100
0000
1000
0100
0000
0000
0000
0000
,
0010
0000
0000
0000
0001
0000
0000
0000
0100
0000
0001
1000
0000
0000
0000
0000
,
0001
0000
0100
0000
0010
1000
0010
0000
,
1000
0100
0010
0001
,
1000
0000
1100
0000
0010
0000
0001
0010
,
0001
0011
0100
1100
,
1000
0000
0000
0000
0001
0000
0000
0000
0100
0000
0000
0010
0000
0000
0010
0000
,
0100
0000
0000
0000
0010
0000
0000
0000
1000
0000
0000
0100
0000
0000
0100
0000
,
0010
0001
0100
0001
,
1000
0100
1000
0010
,
1000
0000
0000
0000
0001
0000
0000
0000
0010
0000
0000
0100
0000
0000
0100
0000
,
1000
0000
0000
0000
0010
0000
0000
0000
0100
0000
0000
0001
0000
0000
0010
0000
,
0001
0100
0010
1000
,
0010
0000
0100
0000
0001
1000
0001
0100
,
0010
0000
0000
0000
0010
0000
0000
0000
1000
0000
0001
0010
0000
0000
0000
0000
,
0001
0000
0000
0000
0100
0000
0000
0000
0010
0000
1000
0100
0000
0000
0000
0000
,
1000
0010
0100
0001
,
1000
0000
0100
0000
0010
0001
0010
0000
,
0001
0000
0000
0000
,
1000
0000
0000
0000
,
0100
0000
0100
0000
,
0010
0000
0001
0000
,
0100
0000
0000
0000
;
#NOTES:
     dance-single:
     Jinxie:
     Beginner:
     2:
     0.169,0.000,0.000,0.181,0.076:
0000
0000
0000
0000
,
0000
0000
0000
0000
,
0000
0000
0000
0000
,
0000
0000
0000
0000
,
0001
0000
1000
0000
,
0001
0000
1000
0000
,
0100
0000
1000
0000
,
0001
0000
1000
0000
,
0010
0000
1000
0000
,
0100
0000
1000
0000
,
0001
0000
0010
0000
,
0001
0000
0100
0000
,
1000
0000
0000
0000
0001
0000
0000
0010
0000
0000
0000
0000
0000
0000
0000
0000
,
0100
0000
0000
0000
1000
0000
0000
0010
0000
0000
0000
0000
0000
0000
0000
0000
,
1000
0000
0000
0000
0100
0000
0000
0010
0000
0000
0000
0000
0001
0000
0000
0000
,
0010
0000
0000
0000
0100
0000
0000
1000
0000
0000
0000
0000
0010
0000
0000
0000
,
0100
0000
0000
0000
0001
0000
0000
0010
0000
0000
0000
0000
0001
0000
0000
0000
,
0100
0000
0000
0000
0010
0000
0000
1000
0000
0000
0000
0000
0100
0000
0000
0000
,
1000
0000
0000
0000
0001
0000
0000
1000
0000
0000
0000
0000
0100
0000
0000
0000
,
0010
0000
0000
0000
0001
0000
0000
0100
0000
0000
0000
0000
0001
0000
0000
0000
,
0010
0000
0000
0000
0100
0000
0000
1000
0000
0000
0000
0000
0100
0000
0000
0000
,
0010
0000
0000
0000
0001
0000
0000
0100
0000
0000
0000
0000
0001
0000
0000
0000
,
0010
0000
0000
0000
0100
0000
0000
1000
0000
0000
0000
0000
0010
0000
0000
0000
,
1000
0000
0000
0000
0100
0000
0000
0010
0000
0000
0000
0000
0001
0000
0000
0000
,
0100
0000
0000
0000
0001
0000
0000
0010
0000
0000
0000
0000
0001
0000
0000
0000
,
0100
0000
0000
0000
0010
0000
0000
1000
0000
0000
0000
0000
0100
0000
0000
0000
,
0010
0000
0000
0000
0001
0000
0000
0100
0000
0000
0000
0000
0001
0000
0000
0000
,
0010
0000
0000
0000
0100
0000
0000
1000
0000
0000
0000
0000
0100
0000
0000
0000
,
0010
0001
1000
0100
,
0010
0001
0100
0010
,
2000
0000
0000
0000
0000
0000
0000
0000
0000
0000
0000
0000
0000
3000
0000
0000
,
0200
0000
0000
0000
0000
0000
0000
0300
,
0020
0000
0000
0000
0000
0000
0000
0030
,
0002
0000
0000
0000
0000
0000
0000
0000
0000
0000
0000
0000
0000
0003
0000
0000
,
0200
0000
0000
0000
0000
0000
0000
0300
,
0020
0000
0000
0000
0000
0000
0000
0000
0000
0000
0000
0000
0000
0000
0000
0030
,
2000
0000
0000
0000
0000
0000
0000
3000
,
0200
0000
0000
0000
0000
0000
0000
0300
,
0020
0000
0000
0000
0000
0000
0000
0030
,
0002
0000
0000
0000
0000
0000
0000
0003
,
2000
0000
0000
0000
0000
0000
0000
3000
,
0200
0000
0000
0000
0000
0000
0000
0300
,
0020
0000
0030
0000
,
0002
0000
0003
0000
,
2000
0000
0000
0000
0000
0000
0000
3000
0200
0000
0000
0000
0000
0000
0300
0000
,
0020
0000
0000
0030
0002
0000
0000
0000
,
2000
0000
0000
0000
,
3003
0000
0000
0000
;
#NOTES:
     dance-single:
     Jinxie + pyroko:
     Hard:
     11:
     0.819,0.403,0.038,0.553,1.000:
1000
0000
0001
0000
1000
0000
0100
0000
0010
0000
0001
0010
0000
0100
1000
0000
,
0010
0000
1000
0000
0100
0000
0010
0000
0001
0000
0100
0010
0000
0100
0001
0000
,
0010
0100
1000
0010
1000
0002
1003
0100
,
0010
0000
0001
0000
1000
0000
0002
0020
0033
0001
0100
0000
0010
1000
0010
0000
,
0100
0000
0001
0000
0100
0000
0010
0100
0010
0000
1000
0000
0100
0000
0010
0000
0001
0000
0100
0001
0100
0000
0002
0000
0003
0000
1000
0000
0010
0000
0000
0000
,
0100
0000
0001
0000
1000
0000
0100
0010
0100
0000
1000
0000
0001
0000
0100
0000
0010
0000
1000
0000
0100
0000
0020
0000
0030
0000
0001
0000
2000
0000
3000
0000
,
0010
0100
0010
1000
0100
0010
0100
0000
1000
0100
0020
0000
0032
0000
0003
0000
,
0000
0000
0100
0010
0100
0000
0010
0000
1000
0000
0100
0000
0010
0000
0000
0000
0001
0000
1000
0000
0001
0100
0001
0100
0001
0000
0200
0000
0020
0000
0330
0000
,
1000
0000
0100
0000
0010
0000
0100
1000
0100
0000
0010
0000
0002
0000
0003
0000
0000
0000
0100
0010
0100
0000
0002
0000
0003
0000
1000
0000
0010
0000
0000
0000
,
0000
0200
0310
1000
0100
0000
0010
0001
0000
1000
0010
1000
0001
0000
0100
0000
,
0000
0001
0100
0000
0010
0000
1000
0000
0100
0010
0100
0000
1100
0000
0100
0000
,
0000
0000
1000
0100
1000
0000
0100
0000
0010
0000
0000
0000
0001
1000
0001
1000
0001
0000
0010
0000
0100
0000
1000
0100
1000
0000
0100
0000
0010
0000
0000
0000
,
0002
0000
0203
0000
0320
0000
2030
0000
3002
0000
0203
0000
0310
0010
0010
0000
,
1000
0100
0010
0100
1000
0100
1000
0001
1000
0100
1000
0001
1000
0001
1000
0010
,
1000
0001
1000
0100
0010
0100
1000
0001
0100
0010
0200
0000
0302
0000
0003
0000
,
1000
0000
0001
1000
0001
0000
0100
0000
0010
0000
1000
0000
0001
0000
1000
0000
0100
0000
0010
0000
0001
1000
0001
1000
0001
0000
1000
0000
0001
0000
1000
0000
,
0010
0000
1000
0000
0100
0000
0010
0001
0010
0000
0001
0000
0001
0000
1000
0000
0010
0000
1000
0100
1000
0000
0020
0000
0030
0000
1000
0000
0100
0000
0010
0000
,
0000
0000
0001
0000
0100
0000
0010
0000
1000
0000
0000
0000
0100
0000
0010
0000
0000
0000
0001
1000
0001
0000
0100
0000
0000
0000
0010
0000
1000
0000
0000
0000
,
0000
0200
0310
0000
0002
0000
0003
0000
0010
0001
0010
0000
0001
0000
0000
0000
,
0000
0000
0200
0000
0310
0000
1000
0000
0001
0000
0000
0000
0000
0000
0000
0000
0200
0000
0310
0000
1000
0100
1000
0100
1000
0000
0000
0000
0100
0000
0000
0000
,
0000
0000
1000
0000
0100
0000
0010
0001
0010
0000
0000
0000
0002
0000
0003
0000
0000
0000
0100
0010
0100
0000
0010
0000
0000
0000
0000
0000
0000
0000
0200
0000
,
0301
0000
0100
0001
0100
0000
0010
0000
1000
0000
0000
0000
0000
0000
0200
0000
1300
0000
0000
0000
0100
0000
0010
0000
0000
0000
0001
0000
0100
0000
0010
0000
,
1000
0200
0310
0000
0001
1000
0001
0000
0100
0010
1000
0000
0100
0000
0010
0000
,
0000
0000
0001
1000
0001
0000
0100
0000
0010
0000
0000
0000
0000
0000
0000
0000
1000
0000
0100
0000
0010
0000
0001
0010
0001
0000
1000
0000
0010
0000
0000
0000
,
1000
0000
0010
0000
0100
0000
0001
0100
0001
0000
1000
0000
0100
0000
0000
0000
0000
0000
0010
0001
0010
0000
0100
0000
1000
0000
0000
0000
0010
0000
0000
0000
,
0000
0000
0100
0010
0100
0000
0001
0000
0100
0000
0000
0000
0010
0000
1000
0000
0000
0000
0100
0000
0010
0000
0100
0000
1000
0000
0001
0000
0100
0000
0000
0000
,
0000
0000
0010
0000
1000
0000
0100
0000
0010
0000
0000
0000
0000
0000
0000
0000
0001
0000
1000
0000
0010
0000
0000
0000
0200
0000
0000
0000
0320
0000
0000
0030
,
2000
0000
3100
0010
0100
0000
0010
0000
0001
0000
0000
0000
0000
0000
0000
0000
1000
0000
0010
0000
0100
0000
0010
1000
0010
0000
1000
0000
0001
0000
0000
0000
,
1000
0000
0001
0000
1001
0000
0010
0000
1000
0000
0100
0000
1000
0100
1000
0100
,
1000
1000
1100
0100
0010
0001
0200
0000
,
0301
0000
1000
0000
0010
0000
1000
0010
1000
0000
0001
0000
1000
0000
0100
0000
0010
0000
0001
1000
0001
0000
0020
0000
0030
0000
0001
0000
1000
0000
0010
0000
,
1000
0100
0010
0001
0100
0010
0100
0001
1000
0100
0010
0002
0003
1000
0001
1000
,
0001
1000
0010
1000
0100
0010
0001
0100
0010
1000
0200
0000
0310
0000
0001
1000
,
0010
0000
1000
0010
1000
0000
0001
0000
1000
0000
0010
0000
1000
0000
0100
0000
0010
0000
0001
0000
0100
0010
0100
0010
0100
0000
0001
0000
1000
0000
0010
0000
,
2000
0000
3020
0000
0230
0000
0302
0000
2003
0000
3020
0000
0130
0100
0100
0000
,
0001
0010
0100
0010
0001
0010
0001
1000
0001
0010
0001
1000
0001
1000
0001
0100
,
0001
1000
0001
0010
0100
0010
0001
1000
0010
0100
0020
0000
2030
0000
3000
0000
,
0001
0000
1000
0001
1000
0000
0010
0000
0100
0000
0001
0000
1000
0000
0001
0000
0010
0000
0100
0000
1000
0001
1000
0001
1000
0000
0001
0000
1000
0000
0001
0000
,
0100
0000
0001
0000
0010
0000
0100
1000
0100
0000
1000
0000
1000
0000
0001
0000
0100
0000
0001
0010
0001
0000
0200
0000
0300
0000
0001
0000
0010
0000
0100
0000
,
0000
0000
1000
0000
0010
0000
0100
0000
0001
0000
0000
0000
0010
0000
0100
0000
0000
0000
1000
0001
1000
0000
0010
0000
0000
0000
0100
0000
0001
0000
0000
0000
,
0000
0020
0130
0000
2000
0000
3000
0000
0100
1000
0100
0000
1000
0000
0000
0000
,
0000
0000
0020
0000
0130
0000
0001
0000
1000
0000
0000
0000
0000
0000
0000
0000
0020
0000
0130
0000
0001
0010
0001
0010
0001
0000
0000
0000
0010
0000
0000
0000
,
2002
0000
0000
0000
0000
0000
0000
0003
,
0020
0000
0000
0000
0000
0000
0000
3000
,
0200
0000
0000
0030
0002
0000
0000
0300
,
0020
0000
0000
0003
0200
0000
0000
0030
,
2000
0000
0000
0000
,
3300
0000
0000
0000
;
