#TITLE:Osiris;
#SUBTITLE:;
#ARTIST:Jackal Queenston;
#TITLETRANSLIT:;
#SUBTITLETRANSLIT:;
#ARTISTTRANSLIT:;
#CRChallenge:;
#BANNER:osiris.jpg;
#BACKGROUND:osiris-bg.jpg;
#LYRICSPATH:;
#CDTITLE:;
#MUSIC:osiris.ogg;
#OFFSET:0.000;
#SAMPLESTART:20.210;
#SAMPLELENGTH:12.000;
#SELECTABLE:YES;
#BPMS:0.000=190.000,192.000=130.000,252.000=190.000;
#STOPS:;
#BGCHANGES:;
#NOTES:
     dance-single:
     Renard:
     Medium:
     9:
     0.541,0.598,0.330,0.027,0.000:
0000
0000
0000
0000
,
0000
0000
0000
0000
,
0000
0000
0000
0000
,
0000
0000
0000
0000
,
0000
0000
0000
0000
,
0000
0000
0000
0000
,
0000
0000
0000
0000
,
0000
0000
0000
0000
,
1000
0100
0010
0001
0010
0100
1000
0010
,
0100
0001
0010
0100
1000
0100
1000
0100
,
1000
0100
0010
0001
1000
0010
0100
0001
,
0010
0100
1000
0001
0010
0001
0010
0001
,
0010
0100
1000
0001
0100
0010
1000
0100
,
0010
0001
1000
0010
0100
0010
0100
0010
,
0100
0001
0010
0100
1000
0100
0010
0001
,
0100
0010
1000
0001
0010
0000
0011
0000
,
0010
0000
0100
1000
0010
0000
0100
0000
,
0001
0010
0100
1000
,
0010
0000
0100
0001
0100
0000
0010
0000
,
1000
0100
0010
0001
,
1000
0000
0010
0100
0001
0000
0100
0000
,
0010
1000
0100
0100
,
1000
0000
0001
0010
0001
0000
1000
0000
,
0020
0000
0000
0000
0000
0030
0100
0100
,
0010
0000
1000
0100
0010
0000
0001
0010
,
0100
0000
1000
0010
0100
0000
0001
0010
,
0100
0100
0100
0100
,
1001
0000
0001
0100
0010
1000
0100
0010
,
0001
0000
0001
0010
0100
0000
0100
0000
,
1000
0000
1000
0010
0100
0000
0100
0000
,
1001
1001
0110
0110
,
1001
0000
1000
0100
0010
0001
0100
0010
,
1000
0000
1000
0010
0100
0000
0001
0010
,
0100
0000
1000
0010
0100
0000
0001
0010
,
0100
0100
0100
0100
,
1001
0000
1000
0010
0100
0001
0010
0100
,
1000
0000
1000
0010
0100
0000
0001
0010
,
0100
0000
1000
0010
0100
0000
0001
0000
,
1010
1010
0101
1100
,
0011
0000
0000
0000
,
1000
0000
0000
1000
0001
0000
0000
0000
,
0000
0100
0010
1000
,
0100
0000
0010
0001
0010
0000
0100
0000
,
2000
0000
0000
0000
,
3010
0000
0000
0100
0001
0000
0000
0000
,
0000
0010
0100
1000
,
0010
0000
0100
0001
0100
0000
0010
0000
,
1000
0100
0010
0001
,
0010
0000
0110
0000
0100
1000
0010
0100
,
0001
0000
0011
0000
0010
0100
1000
0010
,
0100
0000
1001
0000
1000
0100
0010
0001
,
1000
0010
1010
0000
0001
0100
0101
0000
,
0001
0010
0100
1000
0010
0000
0110
0000
,
0010
1000
0100
0010
0001
0000
0110
0000
,
0010
0100
1000
0000
1000
0010
0100
0000
,
0001
0010
0100
1000
0001
0100
0010
1000
,
0100
0010
0110
0000
0010
0001
0011
0000
,
0001
0010
0100
1000
0010
0000
1001
0000
,
1000
0100
0110
0000
0010
0001
0011
0000
,
0001
0010
0100
1000
0001
0000
0101
0000
,
0100
0010
1000
0000
0100
0010
0001
0000
,
0010
0100
1000
0001
0100
0000
0110
0000
,
0010
1000
0100
0000
0010
0001
1000
0010
,
0200
0000
0000
0000
0000
0000
0001
0301
,
0100
0000
0010
1000
0100
0000
0010
0001
,
0010
0000
0100
1000
0010
0000
0100
0001
,
0010
0010
0010
0010
,
1001
0001
0100
0010
,
1000
0000
1000
0100
0010
0000
0001
0000
,
0100
0000
0100
0010
1000
0000
0010
0000
,
0110
0110
1001
1001
,
0110
0000
0010
0001
1000
0010
0100
0001
,
0010
0000
0010
0100
1000
0000
0010
0000
,
0100
0000
0001
0010
0100
0000
1000
0000
,
0010
0100
0010
0100
0001
1000
0001
1000
,
0010
0100
0010
0100
0001
1000
0001
0000
,
1000
0000
1000
0100
0010
0000
0001
0000
,
0010
0000
0010
0001
1000
0000
0010
0000
,
0110
0000
0110
0000
1001
0000
0001
0010
,
0110
0000
0000
0000
;
#NOTES:
     dance-single:
     Renard:
     Hard:
     9:
     0.726,0.704,0.285,0.187,0.187:
0000
0000
0000
0000
,
0000
0000
0000
0000
,
0000
0000
0000
0000
,
0000
0000
0000
0000
,
0000
0000
0000
0000
,
0000
0000
0000
0000
,
0000
0000
0000
0000
,
0000
0000
0000
0000
,
1000
0100
0010
0001
0100
0010
1000
0100
,
0010
0001
0100
0010
1000
0100
0010
0100
,
0010
0100
1000
0010
0100
0001
0010
0100
,
1000
0010
0100
0001
0010
0001
0010
0001
,
0010
0100
1000
0010
0100
0001
0100
0010
,
0100
0010
1000
0100
0010
0001
0100
0001
,
0100
0010
1000
0100
0010
0001
1000
0010
,
0100
0001
0010
0100
1000
0000
1001
0000
,
1000
0000
0100
0000
0010
0000
0001
1000
0001
0000
0010
0000
0100
0000
1000
0000
,
0001
0100
0010
1000
0100
0010
0001
1000
,
0010
0000
0000
0100
0001
0100
0010
0000
0000
1010
0000
0000
,
1001
0000
1000
0100
0010
0001
0100
0010
,
1000
0000
0010
0000
0100
0000
0001
0100
0001
0000
0100
0000
0010
0000
1000
0000
,
0100
0010
0001
1000
0100
0010
0100
1000
,
0001
0000
0000
1000
0010
1000
0010
0000
0000
1010
0000
0000
,
1001
0000
0000
0000
0100
0000
0001
0000
1000
0000
0100
0000
1000
0001
1000
0001
,
1000
0100
0001
0100
1000
0010
0001
0010
,
1000
0100
0001
0100
1000
0010
0001
0010
,
1000
1000
0100
0100
0010
0010
0001
0001
,
1000
0000
0001
0010
0100
0000
1000
0000
,
0001
0100
1000
0100
0001
0010
1000
0010
,
0001
0100
1000
0100
0001
0010
1000
0010
,
0001
0001
0100
0100
0010
0010
1000
1000
,
0100
0000
0100
1000
0100
0000
0010
0000
,
0001
0010
1000
0010
0001
0100
1000
0100
,
0001
0010
1000
0010
0001
0100
1000
0100
,
0001
0001
0010
0010
0100
0100
1000
1000
,
0010
0000
1000
0100
0010
0000
0100
0000
,
1000
0100
0001
0100
1000
0010
0001
0010
,
1000
0100
0001
0100
1000
0010
0001
0010
,
1000
1000
0100
0100
0010
0010
0001
0001
,
1000
0000
0000
0000
0000
0000
0000
0000
0000
0000
0000
0000
0001
1000
0001
1000
,
0000
0012
0000
00M3
0201
0000
030M
0120
,
0000
0M30
2010
0000
30M0
1002
0000
M003
,
2010
0000
30M0
1002
0000
M003
0201
0000
,
030M
0012
0000
00M3
0120
0000
0M30
2100
,
0000
3M00
1020
0000
M030
0210
0000
03M0
,
0102
0000
0M03
0021
0000
003M
0210
0000
,
03M0
2100
0000
3M00
1002
0000
M003
0210
,
0000
03M0
1020
0000
M030
0201
0000
030M
,
0010
1000
0010
0000
1000
0000
0100
0000
0010
0000
0001
0000
0010
0000
0100
0000
,
1000
0000
0001
0000
0100
0010
0100
0010
0100
0000
0010
0000
1000
0000
0100
0000
,
0010
0001
0010
0000
0100
0000
1000
0000
0001
0000
0100
0000
0010
0000
1000
0000
,
0100
0000
0100
0010
0001
1000
0001
0100
,
0010
1000
0010
0000
1000
0000
0100
0000
0010
0000
0001
0000
1000
0000
0010
0000
,
0100
0000
0001
0000
0010
0001
0010
0001
0010
0000
0100
0000
1000
0000
0001
0000
,
0100
0010
0100
0000
0010
0000
1000
0000
0100
0000
0010
0000
0001
0010
0001
0000
,
0010
0000
0100
0000
1000
0000
0001
0000
0100
0010
0100
0000
0010
0000
1000
0000
,
0100
0010
0001
0000
0010
0000
0000
0100
1000
0000
0001
0000
0100
0010
0000
0000
,
1000
0100
0010
0000
0001
0000
0000
0000
0010
0100
1000
0000
0001
0010
0100
0000
,
1000
0001
0100
0000
0010
0000
0000
1000
0010
0000
0100
0000
0001
0010
0000
0000
,
0100
1000
0001
0000
0010
0000
0000
0100
1000
0000
0010
0000
0100
0000
0001
0000
,
0100
0010
1000
0000
0010
0000
0000
0100
0001
0000
0100
0000
0010
1000
0000
0000
,
0100
0010
0001
0000
0010
0000
0000
0000
0100
1000
0001
0000
0010
0001
0010
0000
,
0001
0010
0001
0000
0010
0000
0000
0100
1000
0000
0001
0000
0100
0010
0000
0000
,
1001
0000
0000
0000
0000
0000
0000
0000
0000
0000
0000
0000
0001
1000
0001
1000
,
0001
0100
0001
0100
0001
0010
0001
0010
,
1000
0010
1000
0010
0100
0010
0100
0010
,
0100
1000
0010
0100
0001
0010
0100
0010
,
0110
0000
0100
1000
0010
0100
0001
0000
,
1000
0100
1000
0100
0001
0100
0001
0100
,
0010
0100
0010
0100
0010
0001
0010
0001
,
0010
0100
1000
0010
0100
0001
0010
0001
,
1001
0000
0001
0010
0100
1000
0010
0000
,
1000
0010
1000
0010
0001
0010
0001
0010
,
0100
0010
0100
0010
0100
1000
0100
1000
,
0100
0001
0010
0100
1000
0010
0100
0001
,
1000
0000
1001
0000
1000
0100
1100
0000
,
1000
0100
1000
0100
0001
0100
0001
0100
,
0010
0100
0010
0100
0010
0001
0010
0001
,
0010
0100
1000
0010
0100
0001
0010
0100
,
1001
0000
0000
0000
;
#NOTES:
     dance-single:
     Renard:
     Easy:
     6:
     0.363,0.492,0.071,0.018,0.000:
0000
0000
0000
0000
,
0000
0000
0000
0000
,
0000
0000
0000
0000
,
0000
0000
0000
0000
,
0000
0000
0000
0000
,
0000
0000
0000
0000
,
0000
0000
0000
0000
,
0000
0000
0000
0000
,
1000
0001
0100
0010
,
1000
0001
0010
0001
,
1000
0100
1000
0001
,
0010
0000
0001
0000
1000
0001
1000
0000
,
0001
0010
0100
1000
,
0001
1000
0001
0000
0100
0000
0010
0000
,
1000
0001
1000
0000
0001
0000
0010
0000
,
0100
1000
0100
1000
0100
0000
0000
0000
,
1000
0000
0000
0001
0100
0000
0000
0000
,
0000
0001
0010
0100
,
1000
0000
0100
1000
0100
0000
1000
0000
,
0010
0100
0001
0000
,
0010
0000
0000
0001
1000
0000
0000
0000
,
0001
0010
0100
1000
,
0001
0000
0100
0001
0100
0000
0010
0000
,
2000
0000
0000
3001
,
1000
0000
0001
0100
,
0010
0000
1000
0100
,
0010
0000
0001
0000
1000
0000
0001
0100
,
0001
0100
0010
1000
,
0100
0000
0010
0000
,
0001
1000
0010
0000
,
0100
0000
0001
1000
0001
0000
1000
0000
,
0100
0010
0001
0000
,
1000
0000
0001
0000
,
0100
0000
0000
0000
0010
0000
1000
0010
,
1000
0010
0100
0001
,
0010
0100
1000
0000
,
0001
0000
0100
0000
,
0010
0000
1000
0010
,
0100
0000
0001
1000
0001
0000
1000
0000
,
1100
0000
0000
0000
0000
0000
1000
0100
,
0010
0000
0000
0001
0010
0000
0000
0000
,
0000
0100
1000
0010
,
0100
0000
0001
0100
0001
0000
0100
0000
,
0010
0000
0000
0000
,
1000
0000
0000
0100
0010
0000
0000
0000
,
0000
0001
0010
0100
,
1000
0000
0001
0100
0001
0000
0100
0000
,
0010
1000
0100
0010
,
0001
0000
0011
0000
0010
0100
1000
0000
,
0100
1100
1000
0100
,
1000
0000
0010
0000
0100
0001
0100
0000
,
0010
0000
1010
0000
1000
0100
0010
0001
,
1000
0000
1001
0000
0001
0010
0100
1000
,
0001
0000
0101
0000
0001
1000
0100
0000
,
1000
1100
0010
0011
,
0001
0000
1000
0000
0010
0100
0010
0000
,
0100
0001
0100
0000
0010
0000
0010
0000
,
1000
0100
1000
0000
0010
0000
0010
0000
,
0100
0001
0100
0000
0010
0000
0010
0000
,
1000
0100
1000
0000
0010
0000
0010
0000
,
0100
0001
0100
0000
0010
0000
1000
0000
,
0100
1000
0100
0000
0010
0000
0001
0000
,
1000
0010
1000
0000
0010
0000
0100
0000
,
0002
0000
0000
0013
,
0010
0000
0100
1000
,
0010
0100
0001
1000
,
0100
0000
1000
0100
1000
0000
0100
1000
,
0100
0000
0010
0000
,
0001
0000
1000
0001
,
0100
0000
0001
0000
,
0010
0000
0001
0100
0001
0000
0100
0000
,
0010
0000
1000
0100
,
0010
0000
0001
1000
,
0010
0000
0100
0001
,
1000
0000
0100
1000
0100
0000
1000
0000
,
0001
0000
0010
0001
,
1000
0000
0010
0000
,
0100
0000
0001
0000
,
0010
0000
0100
0000
1000
0001
1000
0001
,
1000
0000
0000
0000
;
#NOTES:
     dance-single:
     Renard:
     Beginner:
     3:
     0.340,0.387,0.089,0.303,0.000:
0000
0000
0000
0000
,
0000
0000
0000
0000
,
0000
0000
0000
0000
,
0000
0000
0000
0000
,
0000
0000
0000
0000
,
0000
0000
0000
0000
,
0000
0000
0000
0000
,
0000
0000
0000
0000
,
1000
0000
1000
0001
,
0100
0000
0001
1000
,
0001
0000
0010
0001
,
1000
0000
0001
1000
,
0100
0000
1000
0001
,
0010
0000
0001
1000
,
0010
0010
0100
0100
,
0010
0100
0010
0110
,
0010
0000
1000
0000
,
0010
0100
0001
0010
,
0001
0001
1000
1000
,
0001
0000
0010
0100
,
1000
0000
0001
0000
,
0100
0010
1000
0010
,
0100
0001
0100
0001
,
0010
0000
0000
0200
,
1300
0000
0001
0100
,
0010
1000
0010
0100
,
0001
0001
0001
0001
,
0001
0100
0010
1000
,
0100
0000
0010
0100
,
1000
0100
0010
0100
,
1000
1000
1000
1000
,
1000
0010
0100
0000
,
0001
0100
0010
0100
,
0001
0100
0010
0100
,
0010
0010
0010
0010
,
0010
0000
1000
0100
,
0010
0100
1000
0100
,
0010
0100
1000
0100
,
1000
1000
0001
0001
,
0200
0000
0000
0320
,
0230
0000
0302
0000
,
0000
2003
3100
0020
,
0032
0000
0023
0000
,
0230
0000
0000
0000
,
2300
0000
3020
0000
,
0000
0230
0301
0020
,
0130
2000
3010
0200
,
0302
0000
0000
0000
,
1003
1001
0001
1001
,
1000
0001
1000
0001
,
1000
1001
0001
1001
,
1000
0001
1000
0001
,
0100
0100
0010
0010
,
0110
0010
1000
0010
,
0100
0100
0001
0001
,
1000
0100
0010
0001
,
1000
1000
0001
0001
,
1000
1000
0001
0000
,
0101
0010
0100
0010
,
1000
0000
1000
1000
,
1100
0000
1000
0100
,
0010
0001
0000
1000
,
0101
0001
0100
0010
,
2000
0000
0000
3001
,
2000
0000
3200
0000
,
0320
0000
0032
0000
,
0013
0010
0010
0010
,
0010
0000
0100
0000
,
2000
0000
3200
0000
,
0320
0000
0032
0000
,
0013
0010
0010
0010
,
0010
0000
0000
0000
,
0002
0000
2003
0000
,
3002
0000
2003
0000
,
3010
0010
0010
0010
,
0010
0000
0100
0000
,
0002
0000
2003
0000
,
3002
0000
2003
0000
,
3010
0010
0010
0010
,
0110
0000
0000
0000
;
