#TITLE:Oh Delia;
#SUBTITLE:;
#ARTIST:Beek;
#TITLETRANSLIT:;
#SUBTITLETRANSLIT:;
#ARTISTTRANSLIT:;
#CRChallenge:;
#BANNER:;
#BACKGROUND:;
#LYRICSPATH:;
#CDTITLE:;
#MUSIC:delia.ogg;
#OFFSET:0.000;
#SAMPLESTART:8.322;
#SAMPLELENGTH:12.000;
#SELECTABLE:YES;
#BPMS:0.000=230.170;
#STOPS:;
#BGCHANGES:;
#NOTES:
     dance-single:
     Renard:
     Medium:
     8:
     0.609,0.605,0.173,0.019,0.000:
0000
0000
0000
0000
,
0000
0000
0000
0000
,
0000
0000
0000
0000
,
0000
0000
0000
0000
,
0001
0000
0010
0000
0100
0000
1000
0010
,
0000
1000
0010
0100
,
0001
0000
0010
0000
0100
0000
1000
0010
,
0000
0000
1000
0010
0100
0001
1000
0100
,
0010
0011
0100
1100
,
0000
0000
1000
0000
0010
0000
0100
0001
,
0100
0101
0100
0110
,
0000
0010
1000
0100
,
0010
0001
0010
0100
,
1000
0001
0100
0010
,
1000
0100
0010
0001
,
0010
0000
0100
1000
0001
0010
0100
1000
,
0001
0100
0001
0101
,
0000
0000
0100
0000
0010
0000
1000
0100
,
0010
0001
0010
0011
,
0000
0010
0100
1000
,
0010
0001
0010
1000
,
0100
0000
0001
0000
0100
1000
0001
0010
,
0100
1000
0010
0100
,
0001
0000
0100
0000
0010
1000
0100
0010
,
0001
0000
0010
0100
1000
0000
0001
0010
,
0100
1000
0100
0010
,
0001
0000
1000
0010
0100
0000
0001
0100
,
0010
1000
0100
0010
,
0001
0000
1000
0100
0010
0000
0001
0010
,
0100
0000
0000
1100
0000
0000
0011
0000
,
0000
0010
0100
1000
,
0010
0000
0100
0000
0001
0100
0001
0100
,
0010
1000
0100
0010
,
0001
1000
0100
1000
,
0001
0010
0100
1000
,
0001
0100
0001
0100
,
0010
1000
0100
0010
,
0001
0000
0000
0011
0000
0000
0011
0000
,
0000
0010
0100
1000
,
0001
0100
0000
0010
0000
1000
0000
0100
,
0010
0011
0100
1100
,
1000
0000
0010
0000
0100
0000
0001
0010
,
0001
0011
0010
0110
,
0100
0000
1000
0000
0010
0000
0100
0001
,
0100
0000
0001
0000
1000
0000
0100
1000
,
0100
0000
1000
0000
0001
0000
0100
0001
,
0100
0001
0100
0010
,
1000
0000
0100
0010
0001
0010
0100
1000
,
0001
0011
0010
0110
,
0100
0000
1000
0000
0010
0000
0100
0001
,
0100
0110
0010
1010
,
1000
0100
0010
0001
,
0010
0000
0100
1000
0100
0000
1000
0000
,
0001
0000
0100
0000
0001
1000
0100
0010
,
0001
0010
0100
1000
,
0001
0000
0010
0000
0100
1000
0001
0010
,
0001
0010
0100
0000
1000
0000
0010
0000
,
0001
0010
0100
1000
,
0100
0001
0100
0000
0010
0000
1000
0000
,
0100
0000
0001
0000
0100
0000
0010
0001
,
0010
0100
1000
0000
0001
0000
0100
0000
,
1000
0100
0010
1000
,
0100
0010
0001
0000
0010
0000
0100
0000
,
1000
0000
0001
0010
0100
1000
0100
0010
,
0001
0010
0100
0000
1000
0000
0010
0000
,
0100
1000
0100
0001
,
0010
0100
0010
0000
0100
0000
0001
0000
,
0100
0010
0001
0100
,
0010
1000
0010
0000
0100
0000
0010
0000
,
1000
0100
0010
0001
,
0010
0100
1000
0000
0001
0000
0010
0000
,
0100
0000
1000
0100
0010
0001
0010
0100
,
1000
0000
0100
0010
0001
0000
0010
0000
,
0100
1000
0010
0100
,
0001
0000
1000
0100
0010
0000
0001
0000
,
0010
0100
1000
0010
,
0100
0000
0001
0100
0010
0000
1000
0000
,
0100
0010
0001
0010
,
0100
1000
0100
0010
,
0001
0000
0010
0100
1000
0001
0010
0100
,
1000
0001
0100
0010
,
1000
0100
0010
0001
0010
0000
0100
0000
,
1000
0100
0010
0001
,
1000
0010
0100
0001
0100
0000
0010
0000
,
1000
0100
0010
0001
,
0010
0000
0100
0000
1000
0100
0010
0000
,
0001
0010
0100
0000
1000
0100
0010
0000
,
0001
0010
0000
0100
0000
1000
0000
0100
,
0010
0000
0001
0000
0010
0000
0100
1000
,
0000
0001
0100
0010
,
1000
0000
0010
0000
0100
0000
0001
0010
,
0000
0100
1000
0100
,
0010
0000
0001
0000
1000
0000
0010
0100
,
0000
0010
1000
0100
,
0010
0000
0001
0000
0010
0000
0100
1000
,
0000
0010
0100
0002
,
0020
0000
0000
0000
,
0033
0000
0000
0000
;
#NOTES:
     dance-single:
     Renard:
     Hard:
     9:
     0.714,0.783,0.249,0.000,0.000:
0000
0000
0000
0000
,
0000
0000
0000
0000
,
0000
0000
0000
0000
,
0000
0000
0000
0000
,
1000
0000
1000
0000
,
1000
0000
1000
0000
,
1000
0000
1000
0000
,
1000
0000
0001
0010
0100
1000
0100
0010
,
0001
0010
0100
1000
0001
0000
0010
0000
,
0100
1000
0001
0100
0010
0000
1000
0000
,
0010
0100
0001
0100
0010
0000
1000
0000
,
0100
0010
0001
0010
0100
0000
1000
0000
,
0001
0100
0001
0100
0010
0100
0010
0100
,
0010
1000
0010
1000
0100
1000
0100
1000
,
0001
0010
0100
1000
,
0001
0000
0100
1000
0100
0001
0010
1000
,
0010
0100
1000
0010
,
0100
1000
0100
1000
0100
0010
0100
0010
,
0100
0001
0010
0100
,
0001
0100
0001
0100
0010
0100
0010
0100
,
1000
0000
0010
0000
0100
0001
0100
0000
,
0010
0000
1000
0000
0100
0010
0100
0010
,
0001
0010
0001
0010
0100
0010
0100
0010
,
0100
1000
0001
0100
0010
0000
1000
0000
,
1100
0010
0110
0010
,
0011
0001
0101
0100
,
0110
0010
1010
1000
,
0100
0010
0001
0010
,
0110
0100
1100
1000
,
0110
0000
0000
0101
0000
0000
0110
0000
,
0010
1000
0100
0000
0010
0001
0010
0000
,
0100
1000
0001
0000
0100
0010
1000
0000
,
1100
0100
0110
0010
,
0011
0100
1001
0100
,
1010
0100
0101
0100
,
1010
0100
0011
0100
,
1010
0100
0011
0100
,
1001
0000
0000
0110
0000
0000
1001
0000
,
0000
0000
0001
0000
0100
0010
0100
0000
,
0010
1000
0000
0001
0000
0100
0000
0010
,
1000
0100
0010
0000
0001
0000
0010
0000
,
0100
1000
0001
0000
0100
0000
0010
0000
,
1000
0100
0010
0000
0001
0000
0010
0000
,
0100
1000
0001
0000
0100
0000
0010
0000
,
1000
0010
0100
0000
0001
0100
0010
0000
,
1000
0100
0010
0000
0001
0010
0100
0000
,
1000
0001
0100
0010
,
1000
0000
0100
0001
0100
1000
0010
0001
,
0010
0000
0100
0000
1000
0100
0010
0000
,
0100
0000
0001
0000
0010
0100
0001
0000
,
0100
0000
0010
0000
0001
0100
1000
0000
,
0100
0000
0010
0000
1000
0100
0001
0000
,
0100
0000
0010
0000
0001
0010
0100
0000
,
1000
0000
0010
0000
0100
1000
0100
0010
,
1000
0000
0100
0000
0010
0001
0010
0000
,
0100
1000
0001
0100
0010
1000
0100
0010
,
0001
0010
0001
0000
0010
0000
0100
0000
,
1000
0100
1000
0000
0010
0000
0100
0000
,
0001
0100
0001
0000
0100
0000
0001
0000
,
0010
0001
0010
0000
0100
0000
1000
0000
,
0001
0100
0001
0000
0100
0010
0100
0000
,
0010
1000
0010
0000
1000
0000
0100
0000
,
0010
0001
0010
0100
,
1000
0000
0001
0100
1000
0100
0001
0010
,
0100
1000
0100
0000
1000
0000
0100
0000
,
0010
0001
0010
0000
0001
0000
0100
0000
,
0010
1000
0010
0000
1000
0000
0100
0000
,
0010
0001
0010
0000
0100
0000
1000
0000
,
0001
0100
0010
0000
1000
0100
0010
0000
,
0001
0010
0100
0000
1000
0001
0100
0010
,
1000
0100
0010
0001
,
0010
0000
0100
0000
1000
0001
0100
0010
,
1000
0000
0100
0010
0001
0000
0010
0100
,
1000
0000
0001
0010
0100
0000
1000
0100
,
0010
0000
0001
0010
0100
0000
1000
0100
,
0010
0000
0100
0010
0001
0000
0010
0100
,
1000
0000
0001
0010
0100
0000
0010
0100
,
0010
0000
0001
0010
0000
0100
0010
0000
,
0100
1000
0010
0100
0001
0100
0010
1000
,
0100
0010
0001
0010
0100
1000
0001
0100
,
0010
0000
1000
0010
0100
0000
0001
0100
,
0010
0000
1000
0010
0100
0000
0010
1000
,
0001
0000
0100
0010
0100
0000
0010
1000
,
0010
0000
0100
0001
0100
0000
0010
1000
,
0001
0000
0100
0010
1000
0000
0010
0100
,
0001
0000
0100
0010
0000
1000
0010
0000
,
0100
0000
0010
0000
1000
0100
0010
0000
,
0001
0010
0000
1100
0000
0011
0000
0100
,
1000
0010
0100
0000
0001
0100
0010
0000
,
1000
0000
0100
0000
0010
0001
0010
0000
,
0100
1000
0001
0000
0100
0010
1000
0000
,
0100
0000
0010
0000
0001
0010
0100
0000
,
1000
0000
0001
0000
0100
0010
1000
0000
,
0100
0000
0010
0000
0001
0010
0100
0000
,
1000
0001
0100
0000
0010
1000
0100
0000
,
0010
0001
0010
0100
1000
0001
0100
0010
,
1000
0000
0000
0000
;
#NOTES:
     dance-single:
     Renard:
     Easy:
     7:
     0.425,0.461,0.000,0.000,0.000:
0000
0000
0000
0000
,
0000
0000
0000
0000
,
0000
0000
0000
0000
,
0000
0000
0000
0000
,
1000
0000
1000
0000
,
0001
0000
0001
0000
,
1000
0000
0001
0000
,
1000
0001
1000
0000
,
0001
0100
0010
1000
,
0000
0000
0000
0010
,
1000
0100
0010
0001
,
0000
0010
0100
1000
,
0001
0100
0010
1000
,
0000
0010
0100
0001
,
0010
0000
0000
0000
,
0000
0000
0100
1000
0100
1000
0100
1000
,
0100
1000
0010
0100
,
0000
0000
0000
0001
,
0010
0100
1000
0001
,
0000
0100
0010
1000
,
0100
0010
0001
0010
,
0000
0100
1000
0001
,
0100
0000
0100
0000
,
0010
0000
1000
0000
,
0100
1000
0100
0000
,
0010
0001
0010
0000
,
0001
0100
0001
0000
,
1000
0010
1000
0000
,
0001
0100
0010
0000
,
1000
0100
0010
0001
,
0000
0010
0000
0100
,
0000
1000
0000
0001
,
0100
0001
0100
0001
,
1000
0001
1000
0000
,
0010
1000
0010
1000
,
0001
1000
0001
0000
,
1000
0100
1000
0100
,
0010
0001
0010
0000
,
0001
1000
0001
1000
,
0001
0100
0010
0000
,
1000
0010
0100
0001
,
0000
1000
0100
0010
,
0001
0001
0010
0010
,
0000
0100
1000
0001
,
0100
0010
1000
0010
,
0000
0100
0010
1000
,
0001
0000
0000
0000
,
0000
0100
0100
0100
,
0001
1000
0100
0010
,
0000
0000
0000
0001
,
0010
0100
1000
0010
,
0000
1000
0010
0100
,
0001
0010
0100
1000
,
0000
0001
0001
0100
,
0010
0000
0010
0000
,
1000
0100
0010
0001
,
0010
0010
0001
0010
,
0100
1000
0100
0010
,
0001
0001
0010
0100
,
1000
0001
0100
0010
,
1000
1000
0010
0100
,
0000
0001
0100
0010
,
1000
0000
0100
0000
,
0010
0000
0001
0010
0100
1000
0001
0010
,
0100
1000
0001
0100
,
0000
0010
1000
0100
,
0010
0001
0010
0100
,
0000
1000
0001
0100
,
0010
1000
0100
0010
,
0000
0000
0001
0000
0010
0100
0010
0100
,
0000
0010
0100
1000
,
0010
0100
0001
0100
,
0010
1000
0010
1000
,
0010
1000
0010
1000
,
0001
0100
0001
0100
,
0001
0100
0001
0100
,
0001
0010
0100
1000
,
0100
0010
0001
1000
,
0010
0100
0001
0100
,
0010
1000
0001
0100
,
0010
0010
0100
0100
,
0001
0000
1000
0000
,
0010
0010
0100
0100
,
0001
0000
0100
0000
,
0010
1000
0001
0100
,
0010
0000
1000
0000
,
0010
1000
0100
0000
,
0010
0001
0100
0000
,
0001
0000
0100
0000
0010
0000
1000
0100
,
0000
0010
0001
0010
,
0100
0000
1000
0000
0001
0000
0100
0010
,
0000
1000
0100
0010
,
0001
0000
0010
0000
0100
0000
1000
0001
,
0000
0100
0010
1000
,
0100
0000
0010
0000
0001
0000
0010
0100
,
0000
1000
0001
0100
,
0010
0000
0000
0000
;
#NOTES:
     dance-single:
     Renard:
     Beginner:
     5:
     0.392,0.415,0.000,0.230,0.000:
0000
0000
0000
0000
,
0000
0000
0000
0000
,
0000
0000
0000
0000
,
0000
0000
0000
0000
,
1000
0000
1000
0000
,
0001
0000
0001
0000
,
1000
0000
0001
0000
,
1000
0000
0001
0000
,
1000
0100
1000
0100
,
0000
0000
0010
0000
,
0001
0100
0001
0100
,
0000
0000
0010
0000
,
1000
0010
1000
0000
,
0001
0100
0001
0000
,
1000
0100
1000
0100
,
0010
0001
0010
0001
,
1000
0001
0100
0010
,
0000
0000
0000
1000
,
0010
0100
0001
0100
,
0000
0001
1000
0100
,
0010
0001
0010
0100
,
0000
1000
0100
0010
,
0001
0000
0001
0000
,
0010
0000
0010
0000
,
0100
1000
0100
1000
,
0001
1000
0001
0000
,
0100
0001
0100
0001
,
0010
0001
0010
0000
,
0001
1000
0010
1000
,
0100
0000
0100
0000
,
1000
0001
0100
0001
,
0010
0000
0010
0000
,
0001
0010
0100
0000
,
0100
0000
0100
0000
,
1000
0010
0100
0000
,
0100
0000
0100
0000
,
0001
0010
0100
0000
,
1000
0010
0100
0000
,
0010
0000
0010
0000
,
1000
0000
0100
0000
,
1000
0100
0010
0001
,
0000
0010
0100
1000
,
0100
0010
0001
1000
,
0000
0010
0100
0001
,
0100
0010
0100
0001
,
0000
1000
0100
0010
,
0001
0000
0010
0000
,
0100
1000
0001
0100
,
0010
1000
0100
0010
,
0000
0000
0001
0000
,
0010
0100
1000
0001
,
0000
0100
0010
1000
,
0100
1000
0100
1000
,
0000
0001
1000
0010
,
0100
0000
0100
0000
,
0010
0000
0010
0000
,
1000
1000
0010
0100
,
0001
0100
0010
0000
,
0100
0100
0001
0010
,
0100
1000
0001
0000
,
0010
0010
0001
0010
,
0100
1000
0001
0000
,
0100
0100
0010
1000
,
0100
0010
0001
0000
,
0010
0010
0001
0010
,
0100
1000
0001
0000
,
0100
0100
0010
1000
,
0100
0010
0001
0000
,
0010
0010
0100
1000
,
0000
0001
0100
0010
,
1000
0000
1000
0000
,
0010
0000
0100
0000
,
0002
0000
0203
0000
,
0320
0000
2030
0000
,
3020
0000
2030
0000
,
3002
0000
0203
0000
,
0320
0000
2030
0000
,
3020
0000
2030
0000
,
3001
0000
0100
0000
,
0010
0000
1000
0000
,
0200
0000
0320
0000
,
0032
0000
2003
0000
,
3200
0000
2300
0000
,
3002
0000
0023
0000
,
0032
0000
0023
0000
,
0032
0000
2003
0000
,
3100
0000
1000
0000
,
0010
0000
0100
0000
,
0001
0100
0001
0100
,
0010
0000
0100
0000
,
0010
1000
0010
1000
,
0010
0000
0100
0000
,
0010
1000
0010
0100
,
0000
0010
0100
0000
,
0001
0100
0010
1000
,
0000
0010
0100
0001
,
0010
0000
0000
0000
;
