#TITLE:Off With Her Head;
#SUBTITLE:;
#ARTIST:Azrael feat MC Gunmouth;
#TITLETRANSLIT:;
#SUBTITLETRANSLIT:;
#ARTISTTRANSLIT:;
#CRChallenge:;
#BANNER:head.jpg;
#BACKGROUND:head-bg.jpg;
#LYRICSPATH:;
#CDTITLE:;
#MUSIC:head.ogg;
#OFFSET:0.000;
#SAMPLESTART:35.328;
#SAMPLELENGTH:12.000;
#SELECTABLE:YES;
#BPMS:0.000=190.000,244.000=380.000,252.000=95.000,284.000=190.000;
#DISPLAYBPM:190;
#STOPS:;
#BGCHANGES:;
#NOTES:
     dance-single:
     Renard:
     Hard:
     9:
     0.675,0.891,0.435,0.116,0.367:
0000
0000
0000
0000
,
0000
0000
0000
0000
,
0000
0000
0000
0000
,
0000
0000
0000
0000
,
1000
1000
0010
0010
,
0100
0100
1001
0000
,
0001
0001
0001
0001
,
0010
0000
0000
0000
0100
0000
0000
0000
1000
0000
0001
0000
1000
0001
1000
0000
,
0001
0000
0001
0100
0010
1000
0100
0010
,
0001
0010
0100
1000
0010
0000
1010
0000
,
1000
0000
0010
0100
0001
0010
0100
1000
,
0010
0100
0001
1000
1001
0000
0110
0000
,
0010
0000
1000
0100
0010
0001
0010
0100
,
1000
0010
0100
0001
1001
0000
0110
0000
,
1001
0000
0000
0000
,
1000
0100
0010
0001
1000
0100
0010
0001
0010
0100
1000
0001
0010
0100
1000
0001
,
0010
0000
0000
0000
,
0000
0000
0000
0000
,
0000
0000
0000
0000
,
0000
0000
0000
0000
,
1000
0000
0001
0100
0001
0000
0100
0000
0010
0000
0000
0000
0010
0000
0000
0000
,
1000
0000
0100
0000
0010
0000
0001
0000
0010
0100
1000
0000
0001
0000
0000
0000
,
0010
0010
0100
0100
1000
0000
1000
0000
,
0002
0000
0023
0000
0130
1000
0100
0000
2000
0000
0001
0000
3001
0000
0000
0000
,
0100
0001
0100
0001
0100
0000
0010
1000
0020
0000
2030
0000
3010
0000
0000
0010
,
1000
0000
1000
0000
0002
0000
0000
0000
0103
0001
0100
0000
0100
0000
0000
0000
,
0010
0000
1000
0001
0000
1000
0001
0000
1000
0001
0000
1000
0001
1000
0001
0000
,
0200
0000
0000
0000
0000
0000
0000
0000
0000
0000
0000
0300
,
1001
0000
1000
0100
0010
0001
0100
0010
,
1000
0100
0010
0001
0010
0100
1000
0001
,
0100
0010
1000
0100
1100
0000
1000
0001
,
0011
0000
0010
0100
0110
0000
0100
1000
,
1100
0000
1000
0010
0100
0001
0010
0100
,
1000
0010
0100
0001
0010
0001
1000
0010
,
0100
0001
0010
0100
0110
0000
0100
1000
,
1001
0000
0001
0100
0110
0000
0010
1000
,
1010
0000
1000
0001
0100
0001
0011
0000
,
0010
0100
1000
0001
1001
0000
1000
0001
,
0100
0010
1000
0100
0110
0000
0010
0001
,
0011
0000
0010
0100
0110
0000
1100
0000
,
1100
0000
1000
0010
0000
0010
0100
0000
,
0100
0001
0100
0010
1000
0100
0010
0001
,
0010
0100
1000
0001
1001
0000
0001
0100
,
0210
0000
0000
0000
1000
1000
1000
0300
,
0111
0000
0000
0000
,
0000
0000
0000
0000
,
1000
0100
0010
0001
1000
0001
1000
0000
0000
0000
1000
0000
0001
0000
1000
0000
,
0001
0010
0100
1000
0001
1000
0001
0000
0000
0000
0001
0000
1000
0000
0001
0000
,
0100
0100
0010
0010
1000
1000
0100
0100
,
0010
0001
0010
0100
1000
0001
1000
1000
,
0001
0010
0100
1000
0001
1000
0001
0000
0000
0000
0001
0000
1000
0000
0001
0000
,
1000
0100
0010
0001
1000
0001
1000
0000
0000
0000
1000
0000
0001
0000
1000
0000
,
0010
0010
0100
0100
0001
0001
0010
0010
,
0100
1000
0100
0010
0011
0000
0000
0000
,
1100
0000
0000
0100
0000
0000
0110
0000
0000
0010
0001
0000
0010
0000
0100
0000
,
1000
0000
0000
1001
0000
0000
0101
0000
0000
0000
0001
1000
0001
0000
0100
0000
,
0010
0000
0000
1010
0000
0000
1000
0000
0000
0100
1000
0000
0001
0000
0010
0000
,
0011
0000
0000
0110
0000
0000
1100
0000
0000
0000
1000
0001
1000
0000
0001
0000
,
1000
0000
0000
1100
0000
0000
0100
0000
0000
0010
0001
0000
0010
0000
0100
0000
,
0110
0000
0000
1100
0000
0000
0011
0000
0000
0000
0001
0010
0001
0000
0010
0000
,
0001
0000
0000
1001
0000
0000
1000
0000
0000
1000
0001
0000
0100
0000
0020
0000
,
2000
0000
0000
0000
,
0000
0000
0000
3030
,
1010
0000
0000
0000
0000
0000
0000
0000
1000
0001
0100
0010
1000
0100
0010
0001
,
0100
0010
1000
0100
0010
0000
0000
0000
0001
0000
0000
0000
0010
0000
0000
0000
,
0110
0000
0000
0000
0000
0000
0000
0000
0100
1000
0010
0100
0001
0010
0100
0010
,
0001
0100
0010
1000
0100
0000
0000
0000
0010
0000
0000
0000
0001
0000
0000
0000
,
1001
0000
0000
1010
0000
0000
0101
0000
,
0001
0100
0010
1000
0100
0010
0001
0010
0100
1000
0010
0100
0001
0010
0100
1000
,
0001
0000
0001
1000
0000
1000
0010
0000
0000
0000
0000
0000
0100
0001
0100
0010
,
1000
0100
0010
0001
0010
0000
0010
0100
1000
0000
1000
0010
0200
0000
0002
0000
,
0303
0000
0000
0000
;
#NOTES:
     dance-single:
     Renard:
     Medium:
     9:
     0.535,0.855,0.097,0.058,0.159:
0000
0000
0000
0000
,
0000
0000
0000
0000
,
0000
0000
0000
0000
,
0000
0000
0000
0000
,
1000
0100
0010
0001
,
0010
0100
1001
0000
,
0001
0010
0100
1000
,
0010
1001
0100
1001
,
1000
0001
0100
0010
1000
0100
0010
0001
,
0010
0100
1000
0001
0100
0000
1001
0000
,
0001
0100
0010
1000
0100
0010
0001
0100
,
0010
1000
0100
1000
0001
0000
1001
0000
,
1000
0100
0010
0001
0100
0010
1000
0100
,
0010
0001
1000
0010
0100
0000
1001
0000
,
0220
0000
0000
0000
,
0000
0000
0000
0330
,
1001
0000
0000
0000
,
0000
0000
0000
0000
,
0000
0000
0000
0000
,
0000
0000
0000
0000
,
1000
0000
1000
0100
0010
0000
0010
0000
,
0001
0010
0100
1000
0010
0100
0100
0000
,
0001
0010
0001
1000
0010
0000
0010
0000
,
1000
0001
0100
0010
1000
0100
0100
0000
,
1000
0100
0010
0001
1000
0000
1000
0000
,
0001
0010
0100
1000
0001
0100
0010
0000
,
1000
0000
0000
1000
0000
0000
0001
0000
0000
0001
0000
0000
0100
0000
0100
0000
,
0020
0000
0000
0000
,
1030
0000
1000
0010
0100
0001
0010
0000
,
0010
0000
0100
1000
0010
0100
0001
0010
,
0001
0000
0001
1000
0010
0000
0010
0100
,
0001
0000
0001
0010
0100
0000
0100
1000
,
0010
0000
0100
0001
0010
0100
1000
0000
,
0001
0000
1000
0010
0100
0001
0010
0000
,
0100
0000
0100
1000
0010
0000
0010
0100
,
0001
0000
0010
0100
1000
0001
0100
0010
,
1000
0000
1000
0010
0000
0010
0100
0000
,
0100
0001
0000
0001
0010
0000
0100
1000
,
0001
0100
0010
1000
0100
0000
0100
0010
,
0001
0000
0001
1000
0010
0100
0001
0010
,
0100
0000
0100
1000
0000
1000
0001
0000
,
0100
0000
0010
1000
0100
0010
0001
0000
,
0010
0100
1000
0001
0100
0000
0100
0010
,
1000
0000
0000
0000
0010
1000
0010
0000
,
2000
0000
0000
0000
,
0000
0000
0000
0000
,
3001
0100
0010
1000
0000
1000
0100
0010
,
0001
1000
0010
0100
0000
0100
0001
0010
,
0100
0100
1000
1000
0001
0000
0100
0000
,
0010
0010
1000
1000
0001
0000
0010
0000
,
0100
1000
0001
0100
0000
0100
0010
1000
,
0100
0010
0001
0010
0000
0010
0001
1000
,
0010
0100
0001
0100
0010
0000
1000
0000
,
0100
0100
0010
0001
0001
0000
0000
0000
,
1000
0000
0100
0010
0001
0010
0100
0000
,
1000
0000
0001
0010
0100
0010
0001
0000
,
1000
0000
0100
0010
0001
0010
0100
0000
,
1000
0000
0001
0010
0100
0010
0001
0000
,
0001
0000
1000
0010
0100
0010
1000
0000
,
0001
0000
0100
0010
1000
0010
0100
0000
,
0001
0000
1000
0010
0100
0010
1000
0000
,
2002
0000
0000
0000
,
0000
0000
0000
3003
,
1001
0000
0000
0000
,
1000
0000
0100
0010
0001
0000
0010
0100
1000
0000
0001
0010
0100
0000
0100
0010
,
0001
0000
0000
0000
0000
0000
0000
0000
1000
0100
0010
0001
0010
0100
1000
0001
,
1000
0000
0001
1000
0001
0000
0100
0010
1000
0000
0010
0100
0001
0000
0100
0010
,
1000
0000
0000
0010
0000
0000
0100
0000
,
0001
0100
0001
0100
0010
0100
0010
0100
0010
1000
0010
1000
0100
1000
0100
1000
,
0100
0000
0000
1000
0000
0001
0010
0000
0000
0000
0000
0000
0001
1000
0001
1000
,
0010
0100
0010
0100
0001
0010
0001
0010
0100
1000
0001
0100
0010
1000
0100
0000
;
#NOTES:
     dance-single:
     Renard:
     Easy:
     6:
     0.360,0.582,0.010,0.135,0.005:
0000
0000
0000
0000
,
0000
0000
0000
0000
,
0000
0000
0000
0000
,
0000
0000
0000
0000
,
1000
1000
0100
0100
,
0010
0010
0001
0000
,
0001
0001
0010
0010
,
0100
0000
1000
0000
0100
1000
0100
0000
,
1000
0001
0100
0010
,
1000
0000
0001
0000
0100
0001
0100
0000
,
0001
1000
0100
0010
,
0001
0000
1000
0000
0100
1000
0100
0000
,
1000
0001
0010
0100
,
1000
0000
0001
0000
0100
0001
0100
0000
,
0002
0000
0000
0000
,
2000
0000
0000
0003
,
0200
0000
0000
0000
,
0000
0000
0000
0000
,
0000
0000
0000
0000
,
0000
0000
0000
3300
,
1000
1000
0100
0100
,
0010
0000
0010
0000
0001
0010
0001
0000
,
0001
0001
0010
0010
,
0100
0000
0100
0000
1000
0100
1000
0000
,
0001
0001
0100
0100
,
0010
0000
0010
0000
1000
0010
1000
0000
,
0010
0100
0001
0100
,
0010
0000
0000
0000
,
1000
1000
0010
0010
,
0100
0100
0001
0001
,
0010
0000
0010
0000
0100
1000
0100
0000
,
1000
0001
1000
0000
0001
0100
0001
0000
,
0010
0010
0001
0001
,
1000
1000
0010
0010
,
1000
0000
0001
0100
0001
0000
1000
0100
,
1000
0000
0001
0010
0001
0000
1000
0010
,
1000
0000
0000
0001
,
0000
0000
0100
0000
,
0010
0000
1000
0010
1000
0000
0001
0100
,
0001
0000
1000
0100
1000
0000
0001
0010
,
0001
0000
0000
1000
0000
0000
0010
0000
,
0100
0001
0100
0010
,
1000
0100
1000
0001
,
0020
0000
0000
0000
,
0031
0000
0000
0000
,
0000
0000
0000
0000
,
0010
0100
0010
0100
0000
0000
0000
0000
,
1000
0001
1000
0001
0000
0000
0000
0000
,
1000
0001
0100
0010
,
1000
0100
0010
0001
,
1000
0001
1000
0001
0000
0000
0000
0000
,
0100
0010
0100
0010
0000
0000
0000
0000
,
1000
0010
0100
0001
,
0010
0100
0110
0000
,
0100
0000
1000
0000
,
0001
0000
0100
0000
0010
0000
1000
0010
,
1000
0000
0010
0000
,
0100
0000
0001
0000
0010
0000
0001
1000
,
0001
0000
0010
0000
,
0100
0000
1000
0000
0001
0000
0100
0010
,
0100
0010
1000
0001
,
0200
0000
0000
0000
,
0000
0000
0000
0000
,
0310
0000
0000
0000
0010
1000
0100
0010
,
0001
0010
0100
0000
1000
0000
0010
0000
,
0001
0000
0000
0000
1000
0100
0010
0001
,
0100
0010
2000
0000
3200
0000
0320
0000
,
0032
0000
0000
0203
0000
0000
0320
0000
,
1030
0010
0100
0001
0010
0100
1000
0001
,
2000
0000
0000
3002
0000
0000
0203
0000
0000
0000
0000
0000
0310
0000
1000
0000
,
0100
0010
0001
0010
0100
1000
0010
0100
;
#NOTES:
     dance-single:
     Renard:
     Beginner:
     3:
     0.228,0.308,0.000,0.174,0.000:
0000
0000
0000
0000
,
0000
0000
0000
0000
,
0000
0000
0000
0000
,
0000
0000
0000
0000
,
1000
0000
0001
1000
,
0001
0000
1000
0000
,
0001
0000
1000
0000
,
0001
0001
0001
0000
,
0100
0000
0100
0000
,
0100
0010
0100
0000
,
0010
0000
0010
0000
,
1000
0001
1000
0000
,
0001
0000
1000
0000
,
0001
1000
0001
0100
,
0010
0000
0000
0000
,
2000
0000
0000
0000
,
3001
0000
0000
0000
,
0000
0000
0000
0000
,
0000
0000
0000
0000
,
0000
0000
0000
0000
,
1000
1000
0001
0001
,
1000
1000
0001
0001
,
1000
1000
0001
0001
,
1000
0001
1000
0000
,
0010
0010
0010
0010
,
0100
0100
0100
0100
,
0020
0000
0000
0000
,
1030
0000
0000
0000
,
0010
0000
0010
0000
,
1000
0001
1000
0000
,
0010
0000
2000
0000
,
3200
0000
0320
0000
,
0031
0000
0000
0010
,
0100
0000
0000
1000
,
0001
0000
0200
0000
,
0302
0000
2003
0000
,
3200
0000
0000
2300
,
0000
0000
3002
0000
,
0013
0000
0001
0000
,
0010
0000
0100
0000
,
1000
0000
0001
0000
,
0100
0000
0001
0000
,
1000
0100
1000
0000
,
0002
0000
0000
0000
,
1003
0000
0000
0000
,
0000
0000
0000
0000
,
1000
0001
0001
0000
,
0001
1000
1000
0000
,
0010
0000
0010
0000
,
0100
0000
0100
0000
,
0001
1000
1000
0000
,
1000
0001
0001
0000
,
0010
0000
0010
0000
,
0100
0000
1000
0000
,
0001
0000
0001
0000
,
1000
0001
1000
0001
,
1000
0000
1000
0000
,
0001
1000
0001
0000
,
1000
0000
1000
0000
,
0001
1000
0001
0000
,
1000
0000
0001
0000
,
0002
0000
0000
0000
,
0000
0000
0000
0000
,
1003
0000
0000
0000
,
0000
0001
0100
0010
,
1000
0000
0000
0000
,
0000
0010
0100
0001
,
2000
0000
3200
0000
,
0310
0001
0010
0100
,
2000
3002
0203
0000
,
0000
0000
0301
0000
1000
0000
0100
0010
;
