#TITLE:Now It's My Turn;
#SUBTITLE:;
#ARTIST:Gammer;
#TITLETRANSLIT:;
#SUBTITLETRANSLIT:;
#ARTISTTRANSLIT:;
#GENRE:;
#CRChallenge:;
#MENUCOLOR:;
#BANNER:turn.png;
#BACKGROUND:turn-bg.png;
#LYRICSPATH:;
#CDTITLE:!cdtitle.png;
#MUSIC:turn.ogg;
#OFFSET:0.000;
#SAMPLESTART:79.483;
#SAMPLELENGTH:12.000;
#SELECTABLE:YES;
#LISTSORT:;
#BPMS:0.000=175.000,128.000=87.500,160.000=175.000;
#STOPS:160.000=1.371
;
#TICKCOUNT:0.000=2;
#BGCHANGES:;
#KEYSOUNDS:;
#ATTACKS:;
#NOTES:
     dance-single:
     Renard:
     Hard:
     11:
     0.680,0.888,0.262,0.271,0.538:
0000
0000
0000
0000
,
0000
0000
0000
0000
,
0000
0000
0000
0000
,
0000
0000
0000
0000
,
0000
0000
0000
0000
,
0000
0000
0000
0000
,
0000
0000
0000
0000
,
0000
0000
0000
0000
,
0001
0100
0010
1000
0001
0000
0100
0010
1000
0100
0010
0001
0010
0000
0001
0010
,
0100
1000
0001
0100
0010
0000
1000
0001
0100
0010
1000
0100
0010
0000
0001
0010
,
0100
1000
0001
0100
0010
0000
1000
0100
1000
0001
0010
0100
1000
0000
0001
0100
,
0010
1000
0100
0010
0001
0000
0010
0100
1000
0001
0100
0010
1000
0000
0100
0010
,
0001
0010
0100
1000
0001
0000
0100
0010
1000
0100
0010
0001
0010
0000
0100
1000
,
0001
0100
0010
1000
0100
0000
0010
0001
0010
0100
1000
0001
0100
0000
0010
1000
,
0100
0010
0001
0010
0100
0000
1000
0001
0100
0010
1000
0100
0010
0001
1000
0010
,
0200
0000
0010
0010
0010
0000
0310
0000
,
0010
0100
0001
0100
1000
0100
0010
0100
,
0001
0010
1000
0010
0100
0010
1000
0010
,
0001
0100
1000
0100
0010
0100
1000
0100
,
0001
0010
1000
0010
0100
0010
1000
0010
,
0001
0100
1000
0100
0010
0100
0001
0100
,
0001
1000
0100
1000
0010
1000
0001
1000
,
0100
0010
1000
0010
0100
0010
0001
0010
,
0001
1000
0001
0100
0001
1000
0001
0000
,
0110
0000
0101
0000
0100
0010
1000
0100
,
0010
0000
1010
0000
0010
1000
0010
0001
,
0010
0000
0011
0000
0010
1000
0010
0001
,
0010
1010
0011
1010
,
0011
0000
0001
0100
1000
0100
0001
0000
,
1100
0000
1000
0100
0001
0100
1000
0000
,
1100
0101
1010
1100
,
0101
0000
0100
1000
0010
0000
0101
0000
,
2002
0000
0000
0003
0020
3000
0200
0030
,
0002
0300
0020
0003
0200
0000
0000
0030
,
2000
0000
0000
0300
0020
3000
0200
0030
,
0002
0300
0020
0003
0200
0000
0000
0030
,
2000
0000
0000
0300
0020
3000
0200
0030
,
0002
0300
0020
0003
0200
0000
0000
0030
,
2000
0000
0000
0300
0002
3000
0200
0003
,
0020
0300
2000
0030
0002
0000
0000
0000
,
0003
0000
0001
0001
0001
0000
3001
0000
,
1000
0000
0001
1000
0000
0001
0100
0000
0001
0100
0000
0000
0001
0000
0000
0100
,
0001
1000
0000
0000
0001
0000
0000
1000
0100
1000
0000
0000
0001
0000
0000
1000
,
0001
0000
0010
0001
0000
1000
0001
0000
1000
0010
0000
1000
0001
0000
0000
0010
,
0001
0000
0000
1001
0000
0000
0110
0000
1000
0000
0000
0101
0000
0000
1010
0000
,
0001
0000
1000
0001
0000
1000
0010
0000
1000
0010
0000
0000
1000
0000
0000
0010
,
1000
0001
0000
0000
1000
0000
0000
0001
0010
0001
0000
0000
1000
0000
0000
0001
,
1000
0000
0100
1000
0000
0001
1000
0000
0001
0100
0000
0001
1000
0000
0000
0100
,
2000
0000
0010
0010
0001
0000
3010
0000
,
0010
0000
1000
0100
1000
0000
0100
0010
0001
0000
1000
0000
0001
0000
0100
0000
,
0010
1000
0010
0000
1000
0000
0001
0100
0001
0010
0001
0000
1000
0000
0001
0000
,
0100
0000
0001
0010
0001
0000
0010
0100
1000
0100
0000
0000
1000
0000
0000
0001
,
0100
0000
0000
0010
0000
0000
1000
0000
0110
0000
0000
1001
0000
0000
0010
0000
,
0100
0000
0001
0010
0001
0000
0010
0100
1000
0000
0001
0000
1000
0000
0010
0000
,
0100
0001
0100
0000
0001
0000
1000
0010
1000
0100
1000
0000
0001
0000
1000
0000
,
0010
0000
1000
0100
1000
0000
0100
0010
0001
0010
0000
0000
0001
0000
0000
1000
,
0010
0000
0000
0100
0000
0000
0001
0000
0110
0000
0000
1001
0000
0000
0100
0000
,
0010
0000
1000
0100
1000
0000
0100
0010
0001
0000
1000
0000
0001
0000
0100
0000
,
0010
1000
0010
0000
1000
0000
0001
0100
0001
0010
0001
0000
1000
0000
0001
0000
,
0100
0000
0001
0010
0001
0000
0010
0100
1000
0100
0000
0000
1000
0000
0000
0001
,
0100
0000
0000
0010
0000
0000
1000
0000
0110
0000
0000
1001
0000
0000
0010
0000
,
0100
0000
0001
0010
0001
0000
0010
0100
1000
0000
0001
0000
1000
0000
0010
0000
,
0100
0001
0100
0000
0001
0000
1000
0010
1000
0100
1000
0000
0001
0000
1000
0000
,
0010
0000
1000
0100
1000
0000
0100
0010
0001
0010
0000
0000
0001
0000
0000
1000
,
0010
0000
0000
0100
0000
0000
0001
0000
0110
0000
0000
1001
0000
0000
0200
0000
,
0020
0000
0330
0000
;
#NOTES:
     dance-single:
     JS:
     Medium:
     9:
     0.539,0.980,0.094,0.337,0.454:
0000
0000
0000
0000
,
0000
0000
0000
0000
,
0000
0000
0000
0000
,
0000
0000
0000
0000
,
0000
0000
0000
0000
,
0000
0000
0000
0000
,
0000
0000
0000
0000
,
0000
0000
0000
0000
0000
0000
0000
0000
0000
0000
0000
0000
0000
0000
0000
1000
,
0000
1000
0000
1000
0100
0000
0000
0010
0000
0010
0000
0010
0100
0000
0000
1000
,
0000
1000
0000
1000
0010
0000
0000
0100
0000
0100
0000
0100
0001
0000
0000
0001
,
0000
0001
0000
0001
0100
0000
0000
0010
0000
0010
0000
0010
0100
0000
0000
0001
,
0000
0001
0000
0001
0010
0000
0000
0100
0000
0100
0000
0100
1000
0000
0000
0001
,
0000
0100
0000
0001
0100
0000
0000
0010
0000
0100
0000
0010
0100
0000
0000
0010
,
0000
1000
0000
0010
1000
0000
0000
0001
0000
1000
0000
0001
1000
0000
0000
0001
,
0000
0100
0000
0010
1000
0000
0000
1000
0000
0010
0000
0100
0001
0000
0000
0000
,
0000
0000
0002
0200
0020
0000
1000
0333
,
0001
0100
1000
0000
1000
0100
0001
0000
,
0001
0100
0010
0000
0100
0000
0101
0000
,
1000
0100
0001
0000
0001
0100
1000
0000
,
1000
0100
0010
0000
0001
0100
0010
0000
,
1000
0010
0001
0000
0001
0010
1000
0000
,
1000
0010
0100
0000
0010
0000
0101
0000
,
0001
0010
1000
0000
1000
0010
0001
0000
,
0001
0010
0100
0000
1000
0010
0100
0001
,
1000
0100
0001
0000
0001
0100
0010
0000
,
0010
0001
0100
0000
0010
0000
1010
0000
,
0001
0100
1000
0000
1000
0100
0010
0000
,
0010
1000
0100
0000
0010
0001
0100
0000
,
0001
0010
1000
0000
1000
0010
0100
0000
,
0100
1000
0001
0000
0100
0000
0110
0000
,
1000
0010
0001
0000
0001
0010
0100
0000
,
0202
0000
1000
0000
0010
0000
1010
0303
,
2002
0000
0000
3000
0200
0003
0020
0300
,
2000
0030
0200
3000
0020
0000
0000
0000
,
0000
0000
0000
0300
0002
0030
2000
0003
,
0020
3000
0200
0030
0002
0000
0000
0303
,
2002
0000
0000
0003
0020
3000
0002
0003
,
0200
0030
0002
0300
2000
0000
0000
3003
,
1000
0100
1000
0100
1000
0100
1000
0100
0010
0001
0010
0001
0010
0001
0010
0001
,
1000
0010
1000
0010
0100
0001
0100
0001
1000
0100
0010
0100
1000
0010
0200
0002
,
0000
0303
0000
0000
0000
0000
0000
0000
0000
0000
0000
0000
0000
0000
0000
0000
0002
0000
0000
0000
0000
0000
0000
0000
0000
0000
0000
0000
0000
0000
0000
0000
0200
0000
0000
0000
0000
0000
0000
0000
0000
0000
0000
0000
0000
0000
0000
0000
1010
0000
0000
0000
0000
0000
0000
0000
0303
0000
0000
0000
0000
0000
0000
0000
,
0001
0000
0000
1000
0000
0000
1000
0000
0000
0100
0000
0000
0100
0000
0000
0010
,
0000
1000
0000
0000
1000
0000
0000
0010
0000
0001
0000
0000
0001
0000
0000
0100
,
0000
0000
0000
0010
0000
0000
0010
0000
0000
0001
0000
0000
0001
0000
0000
0000
,
0010
0000
0000
1000
0000
0000
0100
0000
0010
0000
0000
0001
0000
0000
0100
0000
,
0001
0010
0100
1000
0001
0100
0010
1000
,
0001
0100
0010
0100
0001
1000
0100
1000
,
0001
0100
0001
0000
0100
0001
0100
0000
0010
1000
0010
0000
1000
0010
1000
0000
,
2000
0000
0200
0000
0020
0000
0001
3330
,
1000
0000
0000
0100
0000
0000
0100
0000
0000
0010
0000
0000
0100
0000
0000
1000
,
0000
0010
0000
0000
0001
0000
0000
0001
0000
0010
0000
0000
1000
0000
0000
0001
,
0000
0000
0000
0100
0000
0000
0100
0000
0000
0010
0000
0000
0010
0000
0000
0000
,
1000
0000
0000
0010
0000
0000
0100
0000
0001
0000
0000
0001
0000
0000
0010
0000
,
0001
0000
0000
0100
0000
0000
0100
0000
0000
0010
0000
0000
0100
0000
0000
0001
,
0000
0010
0000
0000
1000
0000
0000
1000
0000
0010
0000
0000
0001
0000
0000
1000
,
0000
0000
0000
0100
0000
0000
0100
0000
0000
0010
0000
0000
0010
0000
0000
0000
,
0001
0000
0000
0010
0000
0000
0100
0000
1000
0000
0000
1000
0000
0000
0010
0000
,
1000
0100
1000
0001
0100
0010
1000
0000
,
0001
0100
0001
1000
0100
0010
0001
0000
,
1000
0010
0100
0010
1000
0001
0010
0001
,
0100
0000
0000
0100
0000
0000
0100
0000
0010
0000
0000
0010
0000
0000
0010
0000
,
1000
0100
1000
0010
0100
0001
0010
0000
,
0010
0001
0100
1000
0100
0001
1000
0000
,
0001
0100
0001
0010
0100
1000
0001
0010
,
0001
0000
2000
0200
0020
0000
0001
3330
,
2002
0000
3003
0000
;
#NOTES:
     dance-single:
     JS:
     Easy:
     7:
     0.466,0.643,0.374,0.271,0.019:
0000
0000
0000
0000
,
0000
0000
0000
0000
,
0000
0000
0000
0000
,
0000
0000
0000
0000
,
0000
0000
0000
0000
,
0000
0000
0000
0000
,
0000
0000
0000
0000
,
0000
0000
0000
0000
,
1000
0100
1000
0100
,
0010
0100
0010
0001
,
1000
0010
1000
0010
,
0100
0001
0100
0001
,
1000
0100
1000
0000
0100
1000
0100
0000
,
1000
0001
1000
0000
0001
1000
0001
0000
,
0100
0001
0100
0000
0001
0100
0001
0000
,
0002
0000
0010
0000
0100
0000
2000
3003
,
1000
0101
0010
0101
,
1000
0000
0101
0000
1000
0010
0100
0001
,
0010
1100
0001
1100
,
0010
0000
1100
0000
1000
0100
0010
0000
,
0001
1010
0100
1010
,
0001
0000
1010
0000
0001
0010
0100
1000
,
0100
1010
0001
1010
,
0100
0000
1010
0000
1000
0010
0100
0001
,
1000
0110
0001
0110
,
1000
0000
0110
0000
0001
1000
0100
0010
,
0001
0110
1000
0110
,
0001
0000
0110
0000
1000
0100
0010
0000
,
0100
1001
0010
1001
,
0100
0000
1001
0000
0010
1000
0001
0100
,
0010
1001
0100
1001
,
2000
0000
0010
0000
0100
0000
0002
3003
,
0002
0000
0203
0320
,
2030
3200
0320
0000
,
0000
0000
0230
2300
,
3020
0230
0302
0003
,
2001
0000
3200
0320
,
0032
0203
0320
0000
,
0130
0001
0100
0001
1000
0010
1000
0010
,
1000
0001
1000
0000
0001
1000
0001
0000
0100
0001
0100
0000
0010
1000
0010
0000
,
2000
0000
0010
0000
0001
0000
0200
3300
,
1000
1100
1000
1100
,
0100
0110
0100
0110
,
0010
0011
0010
0011
,
0001
1001
0001
1001
,
1000
0100
1000
0100
1000
0100
1000
0100
,
0010
0100
0010
0100
0010
0100
0010
0100
,
0010
0001
0010
0001
0010
0001
0010
0001
,
0200
0000
1000
0000
0010
0000
0002
0303
,
1000
0100
1000
0000
0010
0000
0100
0000
,
0001
0100
0001
0000
0010
0000
0100
0000
,
1000
0010
1000
0000
0100
0000
0010
0000
,
0001
1001
1000
1001
,
0001
0100
0001
0000
0010
0000
0100
0000
,
1000
0100
1000
0000
0010
0000
0100
0000
,
0001
0010
0001
0000
0100
0000
0010
0000
,
1000
1001
0001
1001
,
1000
0100
1000
0100
1000
0000
0001
0000
,
0100
0010
0100
0010
0100
0000
0001
0000
,
1000
0010
1000
0010
1000
0000
0001
0000
,
0100
1001
0010
1001
,
0001
0100
0001
0100
0001
0000
1000
0000
,
0100
0010
0100
0010
0100
0000
1000
0000
,
0001
0010
0001
0010
0001
0000
1000
0000
,
2002
0000
0000
0000
0000
0000
0010
3003
,
2002
0000
3003
0000
;
#NOTES:
     dance-single:
     JS:
     Beginner:
     3:
     0.258,0.304,0.122,0.094,0.000:
0000
0000
0000
0000
,
0000
0000
0000
0000
,
0000
0000
0000
0000
,
0000
0000
0000
0000
,
0000
0000
0000
0000
,
0000
0000
0000
0000
,
0000
0000
0000
0000
,
0000
0000
0000
0000
,
1000
1000
1000
0000
,
0100
0100
0100
0000
,
0010
0010
0010
0000
,
0001
0001
0001
0000
,
1000
1000
0010
0010
,
0100
0100
0001
0001
,
1000
0010
0100
0001
,
2002
0000
0000
3003
,
1000
0100
1000
0000
,
1000
0100
0010
0001
,
1000
0010
1000
0000
,
1000
1000
1000
0000
,
0001
0100
0001
0000
,
0001
0010
0100
1000
,
0001
0010
0001
0000
,
0001
0001
0001
0000
,
1000
0100
0010
0000
,
0010
0100
1000
0001
,
1000
0100
0010
0000
,
0010
0010
0010
0000
,
0001
0100
0010
0000
,
0010
0100
0001
1000
,
0001
0100
0010
0000
,
0220
0000
0000
0330
,
1000
0000
0100
0100
,
0010
0010
0001
0000
,
0001
0000
0100
0100
,
0010
0010
1000
0000
,
0001
0000
1000
0100
,
0010
0001
1000
0000
,
1000
0000
0001
0100
,
0010
1000
0001
0000
,
2002
0000
0000
3003
,
1000
1000
0100
0100
,
0010
0010
0100
0100
,
1000
0000
0110
0000
,
0001
0000
0110
0000
,
0001
0001
0100
0100
,
0010
0010
0100
0100
,
0001
0100
0010
1000
,
2002
0000
0000
3003
,
1000
0100
1000
0000
,
0010
0001
0010
0000
,
1000
0100
1000
0000
,
1100
0000
1001
0000
,
0001
0100
0001
0000
,
0010
1000
0010
0000
,
0001
0100
0001
0000
,
0101
0000
1001
0000
,
1000
0100
0010
0000
,
0010
0001
0100
0000
,
0100
0001
0010
0000
,
0100
1000
1001
0000
,
0001
0100
0010
0000
,
0010
1000
0100
0000
,
0100
1000
0010
0000
,
2002
0000
0000
3003
,
1001
0000
0000
0000
;
