#TITLE:Nothing Stays the Same;
#SUBTITLE:;
#ARTIST:Leon Switch & Kryptic Minds;
#TITLETRANSLIT:;
#SUBTITLETRANSLIT:;
#ARTISTTRANSLIT:;
#CRChallenge:;
#BANNER:same-banner.avi;
#BACKGROUND:same-bg.png;
#LYRICSPATH:;
#CDTITLE:;
#MUSIC:same.ogg;
#OFFSET:0.000;
#SAMPLESTART:22.146;
#SAMPLELENGTH:12.000;
#SELECTABLE:YES;
#BPMS:0.000=172.000;
#STOPS:55.500=1.395
,147.500=2.791
;
#BGCHANGES:;
#NOTES:
     dance-single:
     Renard:
     Challenge:
     10:
     0.517,0.675,0.264,0.464,0.069:
0000
0000
0000
0000
,
0000
0000
0000
0000
,
0000
0000
0000
0000
,
0000
0000
0000
0000
,
0000
0000
0000
0000
,
0000
0000
0000
0000
,
0000
0000
0000
0000
,
0000
0000
0000
0000
,
0010
1000
0100
0001
0000
0010
0000
0001
,
0000
0100
0000
1000
0000
0000
0000
0000
,
0020
0000
0000
0000
,
0000
0000
0000
0000
,
0130
0001
0010
0000
0000
1000
0000
0100
,
0000
1000
0000
0020
0000
0000
0000
0000
,
1101
0000
0000
0030
,
0001
0010
1000
0001
1000
0100
1000
0000
,
0010
0001
0100
0000
0001
0010
0100
0000
,
0010
0001
0100
0000
0010
1000
0100
0000
,
1000
0100
0001
1000
0001
0010
0001
0100
,
1000
0010
0001
0100
0001
1000
0001
0010
,
1000
0000
0011
0000
0100
1000
0001
0000
,
2000
0000
3111
0000
1000
0001
0100
0000
,
0020
1100
0101
1130
,
1100
0000
0000
0101
0000
0000
0011
0000
1010
0000
0000
1100
0000
0000
0110
0000
,
0010
0001
0100
0000
0001
0010
0100
0000
,
0010
0001
0100
0000
0010
1000
0100
0000
,
1000
0100
0001
1000
0001
0010
0001
0100
,
1000
0010
0001
0100
0001
1000
0001
0010
,
1000
0000
0011
0000
0100
1000
0001
0000
,
2000
0000
3111
0000
1000
0001
0100
0000
,
0020
1100
0101
1130
,
2002
0000
0100
0000
0000
0010
3013
0000
,
0001
0100
1000
0001
0010
1000
0100
0001
,
1000
0010
0001
0100
1000
0001
0010
1000
,
0100
0001
1000
0010
0001
0100
1000
0001
,
0010
1000
0100
0001
1000
0010
0001
0100
,
1000
0000
0001
0000
0010
0000
1000
0000
0100
0000
0001
0000
0200
0000
2000
3300
,
0200
0000
2300
0000
0000
3020
0000
0032
,
0000
0023
0000
0230
0000
0000
0000
0000
,
0302
0000
0000
0000
0000
0000
0000
0000
0000
0000
0000
0000
0000
0000
0000
0003
0002
0000
0000
0000
0000
0000
0000
0000
0000
0000
0000
0000
0000
0000
0000
0000
2003
0000
0000
0000
0000
0000
0000
0000
0000
0000
0000
0000
0000
0000
0000
3000
2000
0000
0000
0000
0000
0000
0000
0000
0000
0000
0000
0000
0000
0000
0000
0000
,
3020
0000
0000
0000
0000
0000
0000
0000
0000
0000
0000
0000
0000
0000
0000
0000
0000
0000
0000
0000
0000
0000
0000
0000
0000
0000
0000
0000
0000
0000
0000
0000
0000
0000
0000
0000
0000
0000
0000
0000
0000
0000
0000
0000
0000
0030
0000
0000
0020
0000
0000
0000
0000
0000
0000
0000
0000
0000
0000
0000
0000
0000
0000
0000
0000
0000
0000
0000
0000
0000
0000
0000
0000
0000
0000
0000
0000
0000
0000
0000
0000
0000
0000
0000
0000
0000
0000
0000
0000
0000
0000
0000
0000
0000
0000
0000
0130
0000
0000
0000
0000
0000
0000
0000
0000
0000
0000
0000
0000
0000
0000
0000
0001
0000
0000
0000
0000
0000
0000
0000
0000
0000
0000
0000
0000
0000
0000
0000
0100
0000
0000
0000
0000
0000
0000
0000
0000
0000
0000
0000
0000
0000
0000
0000
0010
0000
0000
0000
0000
0000
0000
0000
0000
0000
0000
0000
0000
0000
0000
0000
0000
0000
0000
0000
0000
0000
0000
0000
0000
0000
0000
0000
0000
0000
0000
0000
0000
0000
0000
0000
0000
0000
0000
0000
0000
0000
0000
0000
0000
0000
0000
0000
,
0200
0000
0302
0000
0000
0203
0000
2300
,
0000
3002
0000
0023
0000
0000
0000
0000
,
0130
0100
0010
0010
0100
0100
0010
0010
,
1000
0000
0000
1000
0000
0000
0001
0100
0010
1000
0000
0000
,
0001
0000
0100
0000
0000
0000
0110
0000
0000
0010
1000
0000
0100
0000
0010
0000
,
0001
0000
0010
0000
0000
0000
0110
0000
0000
0100
1000
0000
0001
0000
0100
0000
,
0010
0000
1000
0000
0000
0000
1010
0000
0000
1000
0100
0000
0010
0000
0001
0000
,
0010
0000
0100
0000
0000
0000
0110
0000
0000
0010
0001
0000
0100
0000
0010
0000
,
1000
0000
0001
0000
0000
0000
0011
0000
0000
0010
0100
0000
1000
0000
0001
0000
,
0100
0000
0010
0000
0000
0000
0110
0000
0000
0010
1000
0000
0100
0000
0010
0000
,
0001
0000
0010
0000
0000
0000
0110
0000
0000
0100
1000
0000
0001
0000
0000
0000
,
2000
0001
0000
0100
0000
0010
0000
3001
,
2000
0000
0000
0000
0000
0000
0000
0000
0000
0000
0000
0000
0000
0000
0000
3000
2000
0000
0000
0000
0000
0000
0000
0000
0000
0000
0000
0000
0000
0000
0000
0000
3002
0000
0000
0000
0000
0000
0000
0000
0000
0000
0000
0000
0000
0000
0000
0003
0002
0000
0000
0000
0000
0000
0000
0000
0000
0000
0000
0000
0000
0000
0000
0000
,
0000
0000
0000
0000
0100
1000
0010
0000
,
2003
0000
0000
0000
0000
0000
0000
0000
0000
0000
0000
0000
0000
0000
0000
3000
2000
0000
0000
0000
0000
0000
0000
0000
0000
0000
0000
0000
0000
0000
0000
0000
3002
0000
0000
0000
0000
0000
0000
0000
0000
0000
0000
0000
0000
0000
0000
0003
0002
0000
0000
0000
0000
0000
0000
0000
0000
0000
0000
0000
0000
0000
0000
0000
,
0000
0000
0000
0000
0100
1000
0010
0000
,
2003
0000
0000
0000
0000
0000
0000
0000
0000
0000
0000
0000
0000
0000
0000
3000
2000
0000
0000
0000
0000
0000
0000
0000
0000
0000
0000
0000
0000
0000
0000
0000
3002
0000
0000
0000
0000
0000
0000
0000
0000
0000
0000
0000
0000
0000
0000
0003
0002
0000
0000
0000
0000
0000
0000
0000
0000
0000
0000
0000
0000
0000
0000
0000
,
0000
0000
0000
0000
0100
1000
0010
0000
,
2003
0000
0000
0000
0000
0000
0000
0000
0000
0000
0000
0000
0000
0000
0000
3000
2000
0000
0000
0000
0000
0000
0000
0000
0000
0000
0000
0000
0000
0000
0000
0000
3002
0000
0000
0000
0000
0000
0000
0000
0000
0000
0000
0000
0000
0000
0000
0000
0000
0000
0000
0000
0000
0000
0000
0000
0000
0000
0000
0000
0000
0000
0000
0000
,
0000
0000
0000
0000
,
0003
0000
0000
0000
;
