#TITLE:Nocturne;
#SUBTITLE:;
#ARTIST:Sonitus Vir feat Kitsune?;
#TITLETRANSLIT:;
#SUBTITLETRANSLIT:;
#ARTISTTRANSLIT:;
#CRChallenge:;
#BANNER:nocturne-banner.avi;
#BACKGROUND:nocturne-bg.png;
#LYRICSPATH:;
#CDTITLE:!cdtitle.png;
#MUSIC:nocturne.ogg;
#OFFSET:0.080;
#SAMPLESTART:59.912;
#SAMPLELENGTH:12.000;
#SELECTABLE:YES;
#BPMS:0.000=160.020;
#STOPS:0.000=0.080
;
#BGCHANGES:;
#NOTES:
     dance-single:
     Renard:
     Hard:
     10:
     0.777,1.000,0.552,0.094,0.511:
0000
0000
0000
0000
,
0000
0000
0000
0000
,
0000
0000
0000
0000
,
0000
0000
0000
0000
,
1000
0000
0000
0100
0000
0000
1100
0000
0000
0011
0000
0000
0000
0000
0000
0000
0000
0000
0000
0000
0000
0001
0010
0001
,
0010
0000
0000
0000
0000
0000
0000
0000
0000
0001
0010
0100
,
1000
0000
0000
0100
1000
0100
1000
0000
0000
0001
0010
0001
0010
0000
0000
0000
0000
0000
0000
0000
0000
0011
0000
0000
,
0000
0110
0000
1100
0000
1001
0110
0000
,
0010
0010
1000
0100
0010
0010
0001
0100
,
0010
0010
0100
0001
0010
0010
0100
1000
,
0010
0010
0100
0001
0010
0100
1000
0000
,
1100
0011
0101
0000
0101
1010
1100
0000
,
1100
1000
0100
0010
0001
0001
0100
0010
,
1000
1000
0010
0100
0001
0001
0010
0100
,
1000
1000
0100
0010
0001
0001
0100
0010
,
1010
1010
1010
0000
0110
0000
1011
0000
,
1010
0000
0100
0001
0010
0000
0100
0000
1000
0000
0001
0010
0100
0000
1000
0000
,
0001
0000
0100
0010
1000
0000
0010
0000
0100
0010
0100
0010
0100
0000
0010
0000
,
1000
0000
0100
0010
0001
0000
0010
0000
0100
0000
1000
0001
0010
0000
0100
0000
,
1000
0000
0001
0100
0010
0000
1000
0000
0001
0000
0100
0000
0010
0000
1000
0000
,
0100
0000
0010
0001
0010
0000
0100
0000
1000
0000
0001
0010
0100
0000
1000
0000
,
0001
0000
0100
0010
1000
0000
0001
0000
0100
0010
0100
0010
0100
0000
0010
0000
,
1000
0000
0100
0010
0001
0000
0010
0000
0100
0000
1000
0001
0010
0000
0100
0000
,
1000
0000
0001
0100
0010
0000
1000
0000
1001
0000
0000
0000
1000
0100
0010
0001
,
1000
0100
0010
0001
0011
0100
1001
0000
,
1000
0010
0100
0001
0010
0000
1001
0000
,
0001
0100
0010
1000
0010
0000
0100
0000
0001
0000
1000
0000
0100
0000
0000
0000
,
1000
0100
0010
0001
0010
0000
0110
0000
,
0100
1000
0001
0100
0010
1000
1010
0000
,
1000
0010
0100
0001
0010
0000
0011
0000
,
0001
0010
0100
1000
0001
0100
0110
0000
,
0010
1000
0100
0010
0001
0000
1001
0000
,
0001
0000
0010
0000
0100
0000
2000
0000
0000
0000
0000
0000
0000
0000
3100
0010
,
0002
0000
0000
0000
0000
0000
0000
0003
0020
0000
0000
0000
0000
0000
0000
0000
,
0230
0000
0000
0000
,
2300
0000
0000
0000
0000
0000
0000
0000
0000
0000
0000
0000
0000
0000
0000
3000
,
0010
0100
0001
0020
0000
0000
0000
0000
,
0032
0000
0023
0000
,
0230
0000
0000
0000
,
1300
0000
1111
1111
,
1000
0000
0100
0010
0001
0000
0000
0000
0010
0000
0000
0000
0100
0000
0000
0000
,
1000
0001
0010
0100
1000
0001
0101
0000
,
0101
0000
0010
1000
0100
0010
0001
0010
,
0100
1000
0001
0100
0010
1000
0100
0010
,
0011
0000
0010
0100
1000
0001
0100
0010
,
1000
0100
0010
0001
0010
0100
1000
0010
,
0110
0000
0010
1000
1100
0000
1000
0001
,
0011
0000
0001
1000
1001
0000
0110
0000
,
0010
1000
0001
0100
0010
1000
0100
0010
0001
0010
0100
1000
0001
0100
0010
1000
,
0100
0010
0100
1000
0001
0010
0100
0010
0001
1000
0010
0100
0001
0010
0100
1000
,
0001
0100
0010
1000
0100
0010
0100
1000
0001
0010
0100
0010
0001
1000
0010
0100
,
0001
0010
0100
1000
0100
0010
0001
0010
0100
1000
0001
0100
0010
1000
0100
0010
,
0001
0010
0100
1000
0001
0100
0010
1000
0100
0010
0001
0010
0100
1000
0001
0100
,
0001
0010
0100
0010
0001
1000
0100
0010
0100
1000
0001
0010
0100
1000
0001
0100
,
0010
1000
0100
0010
0001
0010
0100
1000
0001
0100
0010
1000
0100
0010
0001
0010
,
0100
1000
0001
0100
0010
0000
1001
0000
1001
0000
0000
0000
0001
0000
0100
0000
,
0010
1000
0100
0010
0001
1000
0010
0100
,
0000
0000
0000
0000
1111
0000
0000
0000
0101
0000
0000
0110
0000
0000
1100
0000
,
0000
0110
0000
0000
0101
0000
0000
0000
0101
0000
0000
0011
0000
0000
0110
0000
,
0000
1010
0000
0000
0110
0000
0000
0000
0001
0010
0100
1000
0001
0000
0010
0100
,
1000
0001
0010
0000
0100
0000
0010
0000
0001
0000
0000
0000
0001
0010
0100
1000
,
0001
1111
0000
0000
;
#NOTES:
     dance-single:
     Renard:
     Medium:
     9:
     0.666,0.702,0.500,0.104,0.214:
0000
0000
0000
0000
,
0000
0000
0000
0000
,
0000
0000
0000
0000
,
0000
0000
0000
0000
,
1000
0000
0100
0000
1100
0000
0011
0000
0000
0000
0000
0000
0000
0000
0001
0010
,
0001
0000
0000
0000
0000
0000
0000
0000
0000
0001
0010
0100
,
1000
0000
0100
1000
0100
0000
0010
0001
0010
0000
0000
0000
0000
0000
0011
0000
,
0000
0110
0000
1100
0000
1001
0110
0000
,
0010
0010
1000
0100
0010
0010
0001
0100
,
0010
0010
0100
0001
0010
0010
0100
1000
,
0010
0010
0100
0001
0010
0100
1000
0000
,
0001
0001
0001
0000
1000
1000
1000
0000
,
1100
1000
0100
0010
0001
0001
0100
0010
,
1000
1000
0010
0100
0001
0001
0010
0100
,
1000
1000
0100
0010
0001
0001
0100
0010
,
1000
1000
1000
0000
0110
0000
1001
0000
,
0010
0000
0100
0001
0010
0000
0100
0000
1000
0000
0001
0010
0100
0000
1000
0000
,
0001
0000
0100
0010
1000
0000
0010
0000
0100
0010
0100
0010
0100
0000
0010
0000
,
1000
0000
0100
0010
0001
0000
0010
0000
0100
0000
1000
0001
0010
0000
0100
0000
,
1000
0000
0001
0100
0010
0000
1000
0000
0001
0000
0100
0000
0010
0000
1000
0000
,
0100
0000
0010
0001
0010
0000
0100
0000
1000
0000
0001
0010
0100
0000
1000
0000
,
0001
0000
0100
0010
1000
0000
0001
0000
0100
0010
0100
0010
0100
0000
0010
0000
,
1000
0000
0100
0010
0001
0000
0010
0000
0100
0000
1000
0001
0010
0000
0100
0000
,
1000
0000
0001
0100
0010
0000
1000
0000
1001
0000
0000
0000
1000
0001
1000
0001
,
1000
0100
0010
0001
0011
0100
1001
0000
,
1000
0010
0100
0001
0010
0000
1001
0000
,
0001
0100
0010
1000
0010
0000
0100
0000
0001
0000
1000
0000
0100
0000
0000
0000
,
1000
0100
0010
0001
0010
0000
0110
0000
,
0100
1000
0001
0100
0010
1000
1010
0000
,
1000
0010
0100
0001
0010
0000
0011
0000
,
0001
0010
0100
1000
0001
0100
0110
0000
,
0010
1000
0100
0010
0001
0000
1001
0000
,
0001
0000
0010
0000
0100
0000
2000
0000
0000
0000
0000
0000
0000
0000
3100
0010
,
0002
0000
0000
0000
0000
0000
0000
0003
0020
0000
0000
0000
0000
0000
0000
0000
,
0230
0000
0000
0000
,
2300
0000
0000
0000
0000
0000
0000
0000
0000
0000
0000
0000
0000
0000
0000
3000
,
0010
0100
0001
0020
0000
0000
0000
0000
,
0032
0000
0023
0000
,
0230
0000
0000
0000
,
2000
0000
0011
3311
,
1000
0000
0100
0010
0001
0000
0000
0000
0010
0000
0000
0000
0100
0000
0000
0000
,
1000
0001
0010
0100
1000
0001
0101
0000
,
0101
0000
0010
1000
0100
0010
0001
0010
,
0100
1000
0001
0100
0010
1000
0100
0010
,
0011
0000
0010
0100
1000
0001
0100
0010
,
1000
0100
0010
0001
0010
0100
1000
0010
,
0110
0000
0010
1000
1100
0000
1000
0001
,
0011
0000
0001
1000
1001
0000
0110
0000
,
0010
0000
1000
0000
0001
0000
0100
0000
0010
0000
1000
0000
0100
0000
0010
0001
,
0010
0000
0001
0000
0010
0000
0100
0000
1000
0000
0001
0000
0100
0000
0010
1000
,
0010
0000
1000
0000
0100
0000
0010
0000
0001
0000
0010
0000
0100
0000
1000
0001
,
1000
0000
0001
0000
0100
0000
0010
0000
1000
0000
0100
0000
0010
0000
0001
0010
,
0001
0000
0010
0000
0100
0000
1000
0000
0001
0000
0100
0000
0010
0000
1000
0010
,
1000
0000
0010
0000
1000
0000
0100
0000
0010
0000
0001
0000
1000
0000
0100
1000
,
0100
1000
0010
0100
0001
1000
0100
0010
,
0001
1000
0010
0100
1001
0000
0001
0100
,
0010
1000
0100
0010
0001
1000
0010
0100
,
0000
0000
0000
0000
0101
0000
0000
0000
0110
0000
0000
0110
0000
0000
0110
0000
,
0000
0110
0000
0000
0110
0000
0000
0000
1001
0000
0000
1001
0000
0000
1001
0000
,
0000
1001
0000
0000
1001
0000
0000
0000
1100
0000
0000
1100
0000
0000
0011
0000
,
0000
0011
0000
0000
1001
0000
0000
0000
1001
0000
0000
0000
0001
0010
0100
1000
,
0001
1001
0000
0000
;
#NOTES:
     dance-single:
     Renard:
     Challenge:
     11:
     0.703,0.830,0.677,0.865,0.198:
0000
0000
0000
0000
,
0000
0000
0000
0000
,
0000
0000
0000
0000
,
0000
0000
0000
0000
,
1100
0010
1001
0000
0000
0202
0000
0313
,
0000
2200
0000
3310
0000
1001
1001
1001
,
0100
0010
2002
0000
0000
0100
0000
0010
,
0000
0100
0000
0100
0000
0010
3013
0000
,
0002
0200
0313
0000
2000
0200
3310
0000
,
0002
0200
0313
0000
2000
0200
3310
0000
,
0002
0200
0313
0000
2000
0200
3310
0000
,
1001
1001
1001
0000
1001
1001
1001
0000
,
0200
0002
0313
0000
0200
2000
3310
0000
,
0200
0002
0313
0000
0200
2000
3310
0000
,
0200
0002
0313
0000
0200
2000
3310
0000
,
1001
1001
1001
0000
0220
0000
1331
0000
,
0010
0000
0000
0020
0100
0000
1000
0000
0100
0000
0000
0000
0001
0000
0000
0000
,
1000
0200
0001
1330
,
0100
0000
0000
0200
0010
0000
0001
0000
0010
0000
0000
0000
1000
0000
0000
0000
,
0001
0020
1000
0331
,
0001
0000
0000
0002
1000
0000
0010
0000
1000
0000
0000
0000
0100
0000
0000
0000
,
0010
2000
0100
3013
,
1000
0000
0000
2000
0001
0000
0100
0000
0001
0000
0000
0000
0010
0000
0000
0000
,
0100
0000
0000
0000
0002
0000
0000
0000
3013
0000
0000
0000
0001
0001
0001
0000
,
1000
2000
0100
0200
0010
0001
3311
0000
,
1000
0000
0000
0000
0001
0000
0000
0000
0200
0000
0000
0000
0002
0000
0000
0000
0313
0000
0000
0000
0000
0000
0001
1000
0100
0000
0000
0000
0000
0000
0000
0000
,
1000
0100
0010
0001
1000
0000
0100
0000
0011
0000
0110
0000
1100
0000
0000
0000
,
1000
0100
0010
0001
0100
0000
0001
0000
1000
0000
0001
0100
0010
0000
0000
0000
,
1000
1000
0010
0100
0001
0000
0100
0000
0001
0000
0100
0100
0010
0000
1000
0000
,
0001
0000
0010
0100
1000
0000
0001
0000
0110
0000
1000
0000
0001
0000
0100
0000
,
0010
1000
0001
0100
0010
0000
1000
0000
0101
0000
0110
0000
1010
0000
0000
0000
,
0010
1000
0001
1000
0100
0000
1000
0000
0101
0000
0000
0000
1011
0000
0000
0000
,
2102
0000
0000
0000
,
0000
0000
0000
0000
,
0020
0000
0000
0000
,
3000
0000
0000
0000
,
0200
0000
0000
0000
,
0030
0000
0000
0000
,
2000
0000
0000
0000
,
3000
0000
0000
0000
1010
0000
1010
0303
,
0002
0003
0000
0000
2000
3000
0000
0000
0020
0030
0000
0000
0200
0300
0000
0000
,
0002
0003
2000
3000
0200
0300
0020
0030
0002
0003
0000
0000
2000
3000
0000
0000
,
0002
0200
0313
0000
0002
0200
0313
0000
,
2000
0200
3310
0000
2000
0200
3310
0000
,
1001
0001
0101
0000
1001
1000
1100
0000
,
1001
0000
0001
0000
0011
0000
0000
0002
1000
0000
0100
0000
0013
0000
0000
0000
,
1001
1000
1010
0000
1001
0001
0011
0000
,
1001
0000
1000
0000
1100
0000
0000
2000
0001
0000
0010
0000
3100
0000
0000
0000
,
0100
2000
0200
0000
0010
0000
0001
0000
0010
0000
0000
0000
3301
0000
0000
0000
,
0001
0200
0002
0000
1000
0000
0010
0000
1000
0000
0000
0000
1313
0000
0000
0000
,
0100
0002
0200
0000
0010
0000
1000
0000
0010
0000
0000
0000
1303
0000
0000
0000
,
1000
0200
2000
0000
0001
0000
0010
0000
0001
0000
0000
0000
3311
0000
0000
0000
,
0100
2000
0200
0000
0010
0000
0001
0000
0010
0000
0000
0000
3301
0000
0000
0000
,
0001
0200
0002
0000
1000
0000
0010
0000
1000
0000
0000
0000
1313
0000
0000
0000
,
0100
0002
0200
0000
0010
0000
1000
0000
0010
0000
0000
0000
1303
0000
0000
0000
,
1000
0100
1000
0000
0001
0000
0000
0000
1011
0000
0000
0000
0000
0000
0000
0000
,
0000
0000
0000
0000
,
0000
0000
0000
0000
0000
0000
0000
0000
1100
0000
0000
1110
0000
0000
0101
0000
,
0000
0111
0000
0000
1011
0000
0000
0000
0101
0000
0000
0111
0000
0000
1100
0000
,
0000
1110
0000
0000
1011
0000
0000
0000
0101
0000
0000
0111
0000
0000
1100
0000
,
0000
1110
0000
0000
1011
0000
0000
0000
1101
0000
0000
0000
0001
0100
0010
1000
,
0001
1111
0000
0000
;
#NOTES:
     dance-single:
     Renard:
     Easy:
     6:
     0.411,0.447,0.156,0.146,0.000:
0000
0000
0000
0000
,
0000
0000
0000
0000
,
0000
0000
0000
0000
,
0000
0000
0000
0000
,
1000
0100
1100
1001
0000
0000
0000
1000
,
0001
0000
0000
0000
0000
0000
0100
0001
,
1000
0001
1000
0100
1000
0000
0000
0001
,
0000
1000
0000
0100
0000
1000
0001
0000
,
1000
0000
0100
0000
0010
0000
0001
1000
,
0001
0000
0010
0000
0100
0000
1000
0001
,
1000
0100
0010
0001
,
1000
1000
1000
0000
1000
1000
1000
0000
,
0001
0000
0100
0000
0010
0000
1000
0001
,
1000
0000
0100
0000
0010
0000
0001
1000
,
0001
0000
0010
0000
0100
0000
1000
0001
,
0100
0001
0100
0000
0010
0000
1001
0000
,
1000
0000
0100
0010
0001
0000
0010
0100
,
1000
0000
0100
0010
0001
0000
0010
0100
,
1000
0000
0100
0010
0001
0000
0010
0100
,
1000
0000
0100
0010
0001
0000
0010
0000
,
0100
0000
1000
0010
0100
0000
0001
0100
,
0010
0000
1000
0010
0100
0000
0001
0100
,
0010
0000
1000
0010
0100
0000
0001
0100
,
0010
0000
1000
0010
0100
0000
0010
0000
,
1000
0000
0002
0103
,
0010
1000
0100
0010
0002
0000
0013
0000
,
0100
0000
1000
0001
0100
0000
0010
0000
,
1000
0001
1000
0001
1000
0000
0001
0000
,
1000
0100
1000
0001
,
0100
0001
1000
0001
1000
0000
0010
0000
,
1000
0000
1001
0000
,
0101
0000
1001
0000
,
1100
0000
0000
0000
0000
0000
0000
1000
,
0100
0000
0010
0000
,
0002
0000
0000
0000
,
0000
0000
0000
0000
,
1003
0000
0010
0000
0100
0000
0001
1000
,
0000
0000
0000
0000
0000
0000
0000
0001
,
2000
0000
0000
0000
,
3100
0000
2200
3310
,
1000
0100
1000
0001
,
0100
0000
0000
0001
0100
0010
1000
0001
,
1000
0000
0100
1000
0100
0000
1000
0001
,
1000
0000
0000
0001
0100
0000
0001
0000
,
1000
0100
1000
0000
0001
0000
0010
0000
,
0001
0000
0000
1000
0010
1000
0001
0100
,
0001
0000
1000
0100
1000
0000
0001
0100
,
0001
0000
0000
1000
0001
0000
0100
0000
,
0001
0000
1000
0000
0100
0000
1000
0001
,
1000
0000
0001
0000
0100
0000
1000
0010
,
1000
0000
0001
0000
0100
0000
0001
0010
,
0001
0000
0010
0000
0100
0000
1000
0001
,
1000
0000
0001
0000
0100
0000
0010
1000
,
0010
0000
1000
0000
0001
0000
0010
0100
,
0010
0000
0001
0000
1000
0000
0010
0100
,
0010
0000
0100
0001
1000
0000
0000
0000
,
0000
0000
0000
0000
,
0000
0000
0000
0000
2002
0000
0000
3013
,
0000
0000
1001
0000
2002
0000
0000
3013
,
0000
0000
1001
0000
2002
0000
0000
3013
,
0000
0000
1001
0000
0001
0000
0001
2000
,
0200
3311
0000
0000
;
#NOTES:
     dance-single:
     Renard:
     Beginner:
     3:
     0.329,0.415,0.135,0.135,0.000:
0000
0000
0000
0000
,
0000
0000
0000
0000
,
0000
0000
0000
0000
,
0000
0000
0000
0000
,
1000
0100
1000
0000
0000
0001
0000
1000
,
0000
0100
0000
1000
0000
0001
0000
1000
,
0001
0100
0001
0000
0000
1000
0000
0001
,
0000
0100
0000
0001
0000
1000
0001
0000
,
1000
0000
0100
0000
,
0010
0000
0001
0000
,
1000
0000
0010
0000
,
0100
0000
0100
0000
0001
0001
0001
0000
,
1000
0000
0001
0000
,
0100
0000
0010
0000
,
1000
0000
0010
0000
,
1000
0001
1000
0000
0001
0000
0000
0000
,
1000
0100
1000
0010
,
1000
0001
1000
0010
,
1000
0100
1000
0010
,
1000
0001
1000
0010
,
1000
0001
0100
0001
,
1000
0001
0010
0001
,
1000
0001
0100
0001
,
1000
0001
1000
0000
,
0001
1000
0200
0310
,
0002
1003
0200
1300
,
0002
0103
0020
1030
,
0001
1000
0001
1000
0001
0000
1000
0000
,
0200
1300
0002
0013
,
0002
1003
0020
0130
,
0002
1003
0200
1300
,
0002
0013
0200
1300
,
0001
0000
0000
0000
0000
0000
0000
1000
,
0100
0000
0000
0000
0010
0000
0000
0001
,
1000
0000
0000
0000
,
0000
0000
0000
0000
,
0000
0000
0010
0000
0100
0000
0001
1000
,
0000
0000
0000
0000
0000
0000
0000
0001
,
1000
0000
0000
0000
,
0000
0000
1001
1001
,
1000
0001
0100
0010
,
1000
0000
0000
0001
1000
0000
0001
0000
,
1000
0000
0100
0000
1000
0000
0001
0100
,
0001
0000
0000
1000
0001
0000
1000
0000
,
0100
1000
0001
0100
,
0001
0000
0000
0000
1000
0001
1000
0000
,
0001
0010
0001
1000
,
0010
0000
0000
1000
0001
0000
1000
0000
,
0001
0100
0010
0010
,
1000
0000
0000
0010
1000
0000
0001
0000
,
1000
0001
0100
0001
,
1000
0000
0000
0001
0010
0000
0001
0000
,
1000
0010
0100
0001
,
1000
0000
0000
0100
1000
0000
0001
0000
,
0100
0001
1000
0010
,
1000
0000
0001
0010
0001
0000
0000
0000
,
0000
0000
0000
0000
,
0000
0000
0000
0000
1001
0000
0000
0110
,
0000
0000
1001
0000
1001
0000
0000
0110
,
0000
0000
1001
0000
1001
0000
0000
0110
,
0000
1001
1001
0000
,
0000
1011
0000
0000
;
