#TITLE:Nobody Likes the Records (Single Edit);
#SUBTITLE:;
#ARTIST:Sample Rippers;
#TITLETRANSLIT:;
#SUBTITLETRANSLIT:;
#ARTISTTRANSLIT:;
#CRChallenge:;
#BANNER:records-banner.avi;
#BACKGROUND:records-bg.png;
#LYRICSPATH:;
#CDTITLE:!cdtitle.png;
#MUSIC:records.ogg;
#OFFSET:0.000;
#SAMPLESTART:35.432;
#SAMPLELENGTH:12.000;
#SELECTABLE:YES;
#BPMS:0.000=142.003;
#STOPS:;
#BGCHANGES:;
#NOTES:
     dance-single:
     Renard:
     Hard:
     10:
     0.664,0.704,0.401,0.000,0.59:
0000
0000
0000
0000
,
0000
0000
0000
0000
,
0000
0000
0000
0000
,
0000
0000
0000
0000
,
1100
0000
0010
0001
0101
0000
0001
1100
,
0000
1000
0001
0100
0010
0000
0000
1000
,
1010
0000
0110
0100
0001
0000
0011
0110
,
0000
1100
1000
0010
0100
0000
0001
0110
,
1001
0000
0100
0010
1000
0000
1100
0011
,
0000
1000
0010
0100
0001
0000
1100
0001
,
0010
0000
1100
0001
0100
0010
1010
1000
,
0100
0010
0101
0010
1000
0100
0011
0000
,
0011
0110
1010
0110
,
0001
0000
0001
0010
0100
0000
1000
0100
1000
0000
1000
0100
0010
0000
0001
0000
,
0011
0110
1010
0110
,
0010
0000
0010
0001
0010
0000
0010
0100
1000
0000
1000
0100
1000
0000
0100
0000
,
1000
0000
1000
0100
0010
0000
0010
0000
0001
0000
0001
0100
0010
0000
0010
0000
,
1000
0000
1000
0100
0010
0000
0010
0001
0100
0000
0100
0010
1000
0000
1000
0010
,
0100
0001
0010
0100
1000
0100
0010
0001
,
1000
0100
0010
0001
0010
0100
1000
0001
0010
0100
1000
0100
0010
0001
1000
0100
,
0010
0000
000M
0000
,
1100
0010
0101
0000
0101
0010
1100
0000
,
1000
0000
1000
0100
0010
0000
0001
0010
0001
0000
0001
0010
0100
0000
1000
0000
,
0101
0010
1100
0000
1100
0010
0101
0000
,
0001
0000
0001
0100
0010
0000
0010
0100
1000
0000
1000
0100
0010
0000
0010
0000
,
0011
0100
1010
0000
1010
0100
0011
0000
,
0001
0000
0001
0010
0100
0000
1000
0100
1000
0000
1000
0100
0010
0000
0001
0000
,
1010
0100
0011
0000
0011
0100
1010
0000
,
1000
0000
1000
0010
0100
0000
0100
0010
0001
0000
0001
0010
0100
0000
0100
0000
,
0010
1000
0100
0010
0001
0100
0010
1000
,
0001
0000
0001
0010
0100
0000
0100
1000
0100
0000
0100
1000
0010
0000
0100
0000
,
0001
0010
0100
1000
0010
0100
0001
1000
,
0001
0000
0001
0010
0100
0000
1000
0100
1000
0000
1000
0100
0010
0000
0001
0000
,
1000
0010
1000
0100
1000
0001
1000
0010
,
1000
0000
1000
0010
0100
0000
0100
0001
0010
0000
0010
0001
0100
0000
0010
0000
,
0100
0001
0010
0001
1000
0001
0100
0001
,
0010
0000
0010
0001
0100
0000
0100
0010
1000
0000
1000
0010
0100
0000
0100
0000
,
0010
0000
0010
1000
0100
0000
0100
0010
,
0000
0000
0000
0010
0000
0000
0001
0000
0000
1000
0000
0000
0001
0000
0000
0000
0000
0000
0000
0000
0000
0000
0100
0000
,
0001
0000
0001
1000
0000
1000
0100
0000
0100
0010
0000
0010
,
0001
0000
0001
0010
0000
0010
0100
0000
0100
1000
0000
0000
,
0001
0000
0001
0100
0000
0100
0010
0000
0010
1000
0000
0000
,
0100
0010
0001
0010
0000
0100
1000
0000
1000
0001
0000
0001
,
0100
0000
0100
0010
0000
0010
1000
0010
0100
0001
0000
0001
,
1000
0000
1000
0100
0000
0100
0010
0001
0010
0100
0000
0100
,
1000
0000
1000
0001
0000
0001
0100
0000
0100
0010
0000
0000
,
1000
0010
0100
0001
0000
0001
0100
0000
0100
0010
0000
0010
,
1000
0000
1000
0100
0000
0100
0010
0001
0010
0100
0000
0100
,
1000
0000
1000
0001
0000
0001
0100
0010
1000
0001
0000
0100
,
0001
1000
0100
0010
0000
0001
0010
0000
0010
0100
0000
0000
,
1000
0010
0100
0001
0000
1000
0100
0000
0010
0001
0000
1000
,
0001
0000
0001
0100
0000
0100
0010
1000
0001
0100
0000
0010
,
1000
0000
0001
0100
0000
0010
1000
0100
0010
0001
0000
0010
,
0100
0000
1000
0001
0000
0100
0010
0000
0010
0010
0000
0000
,
1000
0100
0010
0001
0000
0100
0010
0000
1000
1000
0000
0000
,
0010
0000
0100
0001
0000
0010
0100
1000
0100
1000
0000
1000
,
0001
0000
0001
0010
0000
0010
0001
1000
0001
1000
0000
1000
,
0001
0000
0001
0100
0010
0000
0010
1000
,
0000
1000
0100
0010
0001
1000
0010
0000
,
1001
0000
0000
0000
;
#NOTES:
     dance-single:
     Renard:
     Medium:
     9:
     0.580,0.591,0.353,0.000,0.487:
0000
0000
0000
0000
,
0000
0000
0000
0000
,
0000
0000
0000
0000
,
0000
0000
0000
0000
,
1000
0000
0001
0100
0010
0000
0010
1000
,
0000
1000
0100
0010
0001
0000
0011
0000
,
0001
0010
0100
1000
0001
0000
0100
0010
,
0000
0010
1000
0010
0100
0001
1000
0001
,
1000
0000
0001
0100
0010
0000
1000
0100
,
0000
0100
0010
0001
0010
0000
0011
0000
,
0010
0000
0100
1000
0001
0100
0010
1000
,
0100
0010
0001
0010
0100
1000
0001
0000
,
1001
1001
0110
0110
,
0010
0000
1000
0010
1000
0000
0010
1000
0010
0000
1000
0010
1000
0000
0010
0000
,
0100
0110
0100
0110
,
0100
0000
0001
0100
0001
0000
0100
0001
0100
0000
0001
0100
0001
0000
0100
0000
,
0001
0011
1000
1100
,
1000
1010
0100
0101
,
0011
1100
0101
1010
,
1000
0000
0100
0000
0010
0000
0001
0000
1000
0001
1000
0001
1000
0001
1000
0001
,
1000
0000
000M
0000
,
1000
1001
0001
1001
,
0001
0000
0100
0000
0010
0000
1000
0000
0100
0000
0010
0100
0010
0000
0100
0000
,
1000
1010
0100
0101
,
0001
0000
0010
0000
0100
0000
1000
0000
0001
0000
0100
0001
0100
0000
0001
0000
,
0100
0110
0010
1010
,
1000
0000
0100
0000
0010
0000
0001
0000
1000
0000
0010
1000
0010
0000
1000
0000
,
0010
0110
0100
0101
,
0001
0000
1000
0000
0100
0000
0010
0000
0001
0000
1000
0001
1000
0000
0001
0000
,
0100
0110
1001
0110
,
0010
0000
1000
0010
1000
0000
0010
0000
0100
0000
0001
0100
0001
0000
0100
0000
,
0001
0011
1100
0011
,
1000
0000
0001
0100
0001
0000
0100
0000
0010
0000
1000
0010
1000
0000
0010
0000
,
1000
1100
0011
1100
,
0001
0000
1000
0001
1000
0000
0001
0000
0100
0000
0010
0100
0010
0000
0100
0000
,
0010
1010
0101
0011
,
0100
0000
1000
0100
1000
0000
0100
0000
1000
0000
0100
1000
0100
0000
1000
0000
,
0010
0000
0010
1000
0100
0000
0100
0010
,
0000
0000
0000
0010
0000
0000
0001
0000
0000
1000
0000
0000
0001
0000
0000
0000
0000
0000
0000
0000
0000
0000
0100
0000
,
0001
0000
0001
1000
0000
1000
0100
0000
0100
0010
0000
0010
,
0001
0000
0001
0010
0000
0010
0100
0000
0100
1000
0000
0000
,
0001
0000
0001
0100
0000
0100
0010
0000
0010
1000
0000
0000
,
0100
0010
0001
0010
0000
0100
1000
0000
1000
0001
0000
0001
,
0100
0000
0100
0010
0000
0010
1000
0010
0100
0001
0000
0001
,
1000
0000
1000
0100
0000
0100
0010
0001
0010
0100
0000
0100
,
1000
0000
1000
0001
0000
0001
0100
0000
0100
0010
0000
0000
,
1000
0010
0100
0001
0000
0001
0100
0000
0100
0010
0000
0010
,
1000
0000
1000
0100
0000
0100
0010
0001
0010
0100
0000
0100
,
1000
0000
1000
0001
0000
0001
0100
0010
1000
0001
0000
0100
,
0001
1000
0100
0010
0000
0001
0010
0000
0010
0100
0000
0000
,
1000
0010
0100
0001
0000
1000
0100
0000
0010
0001
0000
1000
,
0001
0000
0001
0100
0000
0100
0010
1000
0001
0100
0000
0010
,
1000
0000
0001
0100
0000
0010
1000
0100
0010
0001
0000
0010
,
0100
0000
1000
0001
0000
0100
0010
0000
0010
0010
0000
0000
,
1000
0100
0010
0001
0000
0100
0010
0000
1000
1000
0000
0000
,
0010
0000
0100
0001
0000
0010
0100
1000
0100
1000
0000
1000
,
0001
0000
0001
0010
0000
0010
0001
1000
0001
1000
0000
1000
,
0001
0000
0001
0100
0010
0000
0010
1000
,
0000
1000
0100
0010
0001
1000
0010
0000
,
1001
0000
0000
0000
;
#NOTES:
     dance-single:
     Renard:
     Easy:
     6:
     0.438,0.507,0.515,0.038,0.038:
0000
0000
0000
0000
,
0000
0000
0000
0000
,
0000
0000
0000
0000
,
0000
0000
0000
0000
,
1001
0000
1000
0001
1000
0000
0001
1000
,
0000
0001
1000
0001
1000
0000
0000
0010
,
1000
0000
0010
1000
0010
0000
1000
0010
,
0000
1000
0010
1000
0010
0000
0000
0100
,
0001
0000
0100
0001
0100
0000
0001
0100
,
0000
0001
0100
0001
0100
0000
0000
0001
,
1000
0000
0001
1000
0001
1000
0100
0010
,
0100
0010
0001
0010
0100
1000
0001
0000
,
1001
1001
0110
0110
,
0010
1000
0010
1000
0010
1000
0010
1000
,
0010
0010
0100
0100
,
0001
1000
0001
0000
1000
0001
1000
0000
,
0110
0110
0110
0110
,
1001
1001
1001
1001
,
0110
0110
0110
0110
,
1001
1001
1001
1001
,
0110
0000
MMMM
0000
,
1000
0001
1001
1001
,
0010
0000
0100
0000
0010
0100
0010
0000
,
1001
0100
1001
1001
,
0010
0100
0010
0000
0100
0010
0100
0000
,
1100
0010
0101
0010
,
0001
0010
0001
0010
0001
0010
0001
0010
,
0100
0010
0100
0000
,
1000
0100
1000
0100
1000
0100
0100
0000
,
1000
1001
0001
1001
,
0001
0100
0010
1000
0001
0000
0001
0000
,
1000
1001
0001
1001
,
1000
0100
0010
0001
1000
0001
1000
0000
,
0001
0101
0010
1010
,
1000
0010
0100
0001
1000
0000
0001
0000
,
1000
1100
0010
0011
,
1000
0100
0010
0001
1000
0001
1000
0000
,
0002
0010
0013
0000
,
2000
0010
3010
0000
,
0002
0010
0013
0000
,
2000
0010
3010
M00M
,
1000
1100
0001
0101
,
1000
1100
0001
0101
,
1000
1010
0001
0011
,
1000
1010
0001
0011
,
1000
1010
0001
0101
,
1000
1010
0001
0101
,
1000
1100
0001
0011
,
1000
1100
0001
0011
,
M000
0000
0000
0000
0000
0000
0001
0000
0001
0100
0000
0000
,
0001
0000
0000
1000
0000
0000
0100
0000
0100
1000
0000
0000
,
0001
0000
0000
0100
0000
0000
0010
0000
0010
1000
0000
0000
,
0010
0000
0000
1000
0000
0000
0100
0000
0100
0010
0000
0000
,
0001
0000
0000
1000
0000
0000
0001
0000
0001
0100
0000
0000
,
0010
0000
0000
1000
0000
0000
0001
0000
0001
0010
0000
0000
,
0100
0000
0000
1000
0000
0000
0010
0000
0010
1000
0000
0000
,
0001
0000
0000
0100
0000
0000
0010
0000
0010
1000
0000
0000
,
M010
0000
0M01
0000
00M1
0000
0100
1000
,
0000
0001
0010
0100
1000
0001
0010
0000
,
1001
0000
0000
0000
;
#NOTES:
     dance-single:
     Renard:
     Beginner:
     3:
     0.232,0.253,0.048,0.000,0.000:
0000
0000
0000
0000
,
0000
0000
0000
0000
,
0000
0000
0000
0000
,
0000
0000
0000
0000
,
1000
0100
1000
0000
,
0100
1000
0001
0100
,
0001
0000
0010
0000
,
0001
1000
0010
0010
,
1000
0000
0010
0000
,
0100
0001
0010
0000
,
0001
1000
0100
1000
,
0001
0100
0001
0100
,
0010
0000
0010
0000
,
0010
1000
0100
0010
,
0001
0000
0001
0000
,
0010
0100
1000
0001
,
0100
0100
0010
0010
,
0100
0100
0010
0010
,
1000
0010
1000
0010
,
0100
0001
0100
0001
,
0100
0000
0000
0000
,
0001
0001
0100
0100
,
0010
0000
0010
0000
,
1000
1000
0100
0100
,
0010
0000
0010
0000
,
0001
1000
0001
1000
,
0010
0000
1000
0000
,
0001
0001
0100
0100
,
0001
1000
0100
0010
,
0001
1000
0001
1000
,
0010
0000
0010
0000
,
1000
0001
1000
0001
,
0100
0000
0100
0000
,
0001
1000
0001
1000
,
0010
0000
0100
0010
,
1000
0001
1000
0001
,
0100
0000
0001
1000
,
0100
0000
0100
0000
,
0010
0000
0010
0000
,
0001
0000
0010
0000
,
0100
1000
0001
0000
,
1000
1000
0001
0000
,
0001
0001
1000
0000
,
0010
0010
0100
0000
,
0100
0100
0010
0000
,
1000
0000
0010
0000
,
0100
0001
0100
0000
,
0001
0000
0010
0000
,
0100
1000
0100
0000
,
1000
0000
1001
0000
,
0001
0000
1001
0000
,
1000
0100
1000
0000
,
0001
0100
0001
0000
,
1000
0000
1001
0000
,
0001
0000
1001
0000
,
0001
0010
0001
0000
,
1000
0010
1000
0000
,
0001
0000
0100
0000
,
0010
1000
0100
0010
,
1001
0000
0000
0000
;
